<?xml version="1.0" standalone="no"?><!DOCTYPE svg PUBLIC "-//W3C//DTD SVG 1.1//EN" "http://www.w3.org/Graphics/SVG/1.1/DTD/svg11.dtd" ><svg xmlns="http://www.w3.org/2000/svg"><metadata></metadata><defs><font id="2.13 b171;STIX;STIXTwoText-SemiBoldItalic" horiz-adv-x="1442"><font-face font-family="STIX Two Text SemiBold" font-weight="600" font-stretch="normal" units-per-em="1000" panose-1="0 0 0 0 0 0 0 0 0 0" ascent="762" descent="-238" x-height="0" bbox="-893 -403 1395 1047" underline-thickness="51" underline-position="-78" unicode-range="U+0020-fb04" /><missing-glyph horiz-adv-x="605" d="M595 -169 l-585 0 l0 954 l585 0 l0 -954 ZM301 -8 q-29 0 -43.5 15.5 q-14.5 15.5 -14.5 40.5 q0 24 15.5 41.5 q15.5 17.5 43.5 17.5 q26 0 41 -18 q15 -18 15 -41 q0 -24 -15 -40 q-15 -16 -42 -16 ZM61 734 l0 -850 l482 0 l0 850 l-482 0 ZM320 170 l-40 0 l0 26 q0 39 11 69 q11 30 28 56 q17 26 33.5 53.5 q16.5 27.5 27.5 62 q11 34.5 11 80.5 q0 59 -28 86.5 q-28 27.5 -76 27.5 q-44 0 -65 -15.5 q-21 -15.5 -21 -38.5 q0 -16 5 -25 q5 -9 10.5 -18.5 q5.5 -9.5 5.5 -28.5 q0 -23 -13.5 -33.5 q-13.5 -10.5 -31.5 -10.5 q-51 0 -51 70 q0 61 47 99.5 q47 38.5 123 38.5 q49 0 91 -15.5 q42 -15.5 68 -48.5 q26 -33 26 -85 q0 -44 -16.5 -81 q-16.5 -37 -40 -69 q-23.5 -32 -47.5 -61.5 q-24 -29.5 -40.5 -59.5 q-16.5 -30 -16.5 -63 l0 -16 Z" /><glyph glyph-name="space" unicode=" " d="" /><glyph glyph-name="uni00A0" unicode=" " d="" /><glyph glyph-name="A" unicode="A" d="M162 0 l-219 0 l8 38 q26 0 45 8.5 q19 8.5 39 32 q20 23.5 50 68.5 l342 515 l74 0 l80 -531 q8 -48 26.5 -70.5 q18.5 -22.5 56.5 -22.5 l-6 -38 l-296 0 l8 38 q18 0 34.5 3.5 q16.5 3.5 27.5 16 q11 12.5 11 40.5 q0 11 -0.5 23 q-0.5 12 -1.5 22 l-11 83 l-2 24 l-30 275 l-4 0 l-179 -275 l-13 -24 l-63 -97 q-9 -15 -18 -32 q-9 -17 -9 -32 q0 -16 12.5 -21.5 q12.5 -5.5 44.5 -5.5 l-7 -38 ZM443 214 l-262 0 l28 48 l230 0 l4 -48 Z" /><glyph glyph-name="B" unicode="B" d="M309 0 l-326 0 l9 38 q38 0 59 6.5 q21 6.5 31.5 26.5 q10.5 20 18.5 60 l83 399 q9 39 5 58 q-4 19 -23 24.5 q-19 5.5 -55 5.5 l8 39 l299 0 q80 0 126.5 -15.5 q46.5 -15.5 66 -43.5 q19.5 -28 19.5 -64 q0 -54 -23 -89.5 q-23 -35.5 -63.5 -57.5 q-40.5 -22 -90.5 -35 l-1 -5 q37 -5 69.5 -20 q32.5 -15 53 -43.5 q20.5 -28.5 20.5 -73.5 q0 -67 -35 -114 q-35 -47 -99.5 -71.5 q-64.5 -24.5 -151.5 -24.5 ZM267 45 q37 0 71 5 q34 5 60.5 21.5 q26.5 16.5 41 48.5 q14.5 32 14.5 85 q0 48 -18.5 72.5 q-18.5 24.5 -48 33 q-29.5 8.5 -64.5 8.5 l-70 0 l10 48 l64 0 q84 0 125 43.5 q41 43.5 41 111.5 q0 27 -11 46.5 q-11 19.5 -38 29.5 q-27 10 -72 10 q-12 0 -22 -0.5 q-10 -0.5 -25 -2.5 l-115 -557 q15 -1 27.5 -2 q12.5 -1 29.5 -1 Z" /><glyph glyph-name="C" unicode="C" d="M313 -12 q-90 0 -146 32.5 q-56 32.5 -81 89 q-25 56.5 -25 126.5 q0 103 31 183.5 q31 80.5 86.5 136.5 q55.5 56 130 84.5 q74.5 28.5 160.5 28.5 q50 0 78 -8 q28 -8 44 -17 q16 -9 30 -9 q14 0 22.5 10.5 q8.5 10.5 16.5 23.5 l37 0 l-50 -240 l-41 0 q1 96 -37.5 143 q-38.5 47 -111.5 47 q-62 0 -111 -27.5 q-49 -27.5 -83.5 -77 q-34.5 -49.5 -53 -114 q-18.5 -64.5 -18.5 -138.5 q0 -102 46 -145 q46 -43 135 -43 q46 0 83 10.5 q37 10.5 70.5 32.5 q33.5 22 66.5 53 l23 -24 q-36 -42 -78.5 -78 q-42.5 -36 -96.5 -58 q-54 -22 -127 -22 Z" /><glyph glyph-name="D" unicode="D" d="M257 0 l-274 0 l8 38 q39 0 60 6.5 q21 6.5 32 27 q11 20.5 19 60.5 l83 402 q8 37 3 54.5 q-5 17.5 -23.5 23 q-18.5 5.5 -53.5 5.5 l8 40 l273 0 q70 0 128.5 -13.5 q58.5 -13.5 101.5 -43.5 q43 -30 67 -78.5 q24 -48.5 24 -119.5 q0 -111 -35.5 -187.5 q-35.5 -76.5 -98 -124 q-62.5 -47.5 -145 -69 q-82.5 -21.5 -177.5 -21.5 ZM262 50 q106 0 176 34 q70 34 105 108.5 q35 74.5 35 195.5 q0 50 -11.5 90.5 q-11.5 40.5 -36.5 69 q-25 28.5 -66 43.5 q-41 15 -99 15 q-10 0 -18.5 0 q-8.5 0 -22.5 -1 l-115 -553 q13 -1 26.5 -1.5 q13.5 -0.5 26.5 -0.5 Z" /><glyph glyph-name="E" unicode="E" d="M528 0 l-545 0 l8 38 q34 0 54.5 6 q20.5 6 33 23.5 q12.5 17.5 20.5 53.5 l84 406 q8 38 6 57.5 q-2 19.5 -20.5 26.5 q-18.5 7 -59.5 7 l8 39 l536 0 l-29 -175 l-44 0 q3 47 -5 73.5 q-8 26.5 -35 37 q-27 10.5 -85 10.5 l-132 0 l-114 -550 l117 0 q52 0 85.5 6 q33.5 6 55.5 21.5 q22 15.5 40 42.5 q18 27 40 70 l42 0 l-61 -193 ZM488 221 l-40 0 q9 42 5.5 61.5 q-3.5 19.5 -25.5 25.5 q-22 6 -70 6 l-108 0 l9 48 l109 0 q48 0 72.5 6 q24.5 6 35.5 25.5 q11 19.5 19 58.5 l41 0 l-48 -231 Z" /><glyph glyph-name="F" unicode="F" d="M302 0 l-319 0 l8 38 q36 0 56.5 6.5 q20.5 6.5 32.5 25 q12 18.5 20 55.5 l85 410 q7 36 3.5 53.5 q-3.5 17.5 -21.5 23.5 q-18 6 -58 6 l8 39 l538 0 l-29 -176 l-44 0 q2 48 -4.5 74 q-6.5 26 -34 37 q-27.5 11 -91.5 11 l-129 0 l-100 -486 q-2 -10 -3 -18.5 q-1 -8.5 -1 -15.5 q0 -28 21.5 -36.5 q21.5 -8.5 69.5 -8.5 l-8 -38 ZM483 220 l-41 0 q8 41 2 60 q-6 19 -28.5 25 q-22.5 6 -65.5 6 l-100 0 l9 48 l101 0 q43 0 68.5 7 q25.5 7 39.5 27.5 q14 20.5 22 60.5 l41 0 l-48 -234 Z" /><glyph glyph-name="G" unicode="G" d="M324 -11 q-70 0 -120 18 q-50 18 -81.5 51.5 q-31.5 33.5 -46.5 79 q-15 45.5 -15 100.5 q0 108 32.5 189 q32.5 81 89.5 135 q57 54 130.5 80.5 q73.5 26.5 154.5 26.5 q52 0 81.5 -9 q29.5 -9 45.5 -18.5 q16 -9.5 29 -9.5 q14 0 22.5 11 q8.5 11 17.5 26 l38 0 l-49 -237 l-42 0 q2 100 -37.5 143.5 q-39.5 43.5 -116.5 43.5 q-67 0 -116.5 -30 q-49.5 -30 -82 -83.5 q-32.5 -53.5 -48.5 -122 q-16 -68.5 -16 -144.5 q0 -96 35 -146 q35 -50 111 -50 q45 0 77 11.5 q32 11.5 65 34.5 l18 95 q8 36 6 54.5 q-2 18.5 -19 25 q-17 6.5 -54 6.5 l8 40 l263 0 l-7 -40 q-28 0 -43.5 -6 q-15.5 -6 -24 -22.5 q-8.5 -16.5 -14.5 -47.5 l-28 -137 q-61 -31 -122 -49.5 q-61 -18.5 -141 -18.5 Z" /><glyph glyph-name="H" unicode="H" d="M289 0 l-306 0 l8 38 q41 0 61.5 7 q20.5 7 31 28.5 q10.5 21.5 19.5 65.5 l78 377 q8 40 7.5 62 q-0.5 22 -18 31.5 q-17.5 9.5 -61.5 9.5 l8 38 l309 0 l-6 -38 q-45 0 -66 -9.5 q-21 -9.5 -30.5 -31.5 q-9.5 -22 -18.5 -62 l-77 -377 q-9 -44 -8 -65.5 q1 -21.5 18.5 -28.5 q17.5 -7 58.5 -7 l-8 -38 ZM574 310 l-323 0 l10 49 l324 0 l-11 -49 ZM715 0 l-306 0 l8 38 q41 0 61.5 7 q20.5 7 29.5 29 q9 22 18 65 l79 377 q8 40 7.5 62 q-0.5 22 -17 31.5 q-16.5 9.5 -60.5 9.5 l8 38 l306 0 l-7 -38 q-44 0 -65.5 -9.5 q-21.5 -9.5 -30 -31.5 q-8.5 -22 -17.5 -62 l-78 -377 q-9 -43 -8 -64.5 q1 -21.5 19.5 -29 q18.5 -7.5 60.5 -7.5 l-8 -38 Z" /><glyph glyph-name="I" unicode="I" d="M288 0 l-305 0 l8 38 q42 0 62.5 7.5 q20.5 7.5 30.5 29 q10 21.5 19 64.5 l78 377 q8 40 7.5 62 q-0.5 22 -17.5 31.5 q-17 9.5 -62 9.5 l8 38 l310 0 l-8 -38 q-44 0 -65.5 -9.5 q-21.5 -9.5 -30.5 -32 q-9 -22.5 -18 -61.5 l-78 -378 q-8 -43 -7.5 -64.5 q0.5 -21.5 18 -28.5 q17.5 -7 58.5 -7 l-8 -38 Z" /><glyph glyph-name="J" unicode="J" d="M86 -13 q-30 0 -57 8.5 q-27 8.5 -43.5 26.5 q-16.5 18 -16.5 48 q0 28 15 45.5 q15 17.5 41 17.5 q23 0 34.5 -10.5 q11.5 -10.5 17 -25.5 q5.5 -15 10 -31 q4.5 -16 11 -26 q6.5 -10 20.5 -10 q29 0 41.5 21 q12.5 21 24.5 78 l80 387 q8 40 6.5 62 q-1.5 22 -21 31.5 q-19.5 9.5 -67.5 9.5 l9 38 l319 0 l-7 -38 q-43 0 -65 -9.5 q-22 -9.5 -31.5 -32 q-9.5 -22.5 -17.5 -61.5 l-74 -355 q-12 -55 -35 -89.5 q-23 -34.5 -54.5 -53 q-31.5 -18.5 -67.5 -25 q-36 -6.5 -72 -6.5 Z" /><glyph glyph-name="K" unicode="K" d="M291 0 l-308 0 l8 38 q43 0 63.5 7.5 q20.5 7.5 30 29 q9.5 21.5 18.5 64.5 l78 377 q8 40 7.5 62 q-0.5 22 -18 31.5 q-17.5 9.5 -61.5 9.5 l8 38 l312 0 l-7 -38 q-46 0 -68 -9.5 q-22 -9.5 -31 -32 q-9 -22.5 -18 -61.5 l-78 -377 q-8 -43 -7 -64.5 q1 -21.5 18.5 -29 q17.5 -7.5 60.5 -7.5 l-8 -38 ZM678 0 l-315 0 l7 38 l15 0 q20 0 32 6.5 q12 6.5 12 23.5 q0 14 -9 31.5 q-9 17.5 -30 46.5 q-21 29 -57 76 l-72 96 l104 60 l226 -296 q18 -24 39 -34 q21 -10 56 -10 l-8 -38 ZM297 305 l-43 0 l6 33 l14 0 l196 158 q30 24 48.5 40.5 q18.5 16.5 27 30 q8.5 13.5 8.5 28.5 q0 23 -34 23 l-17 0 l9 39 l254 0 l-8 -39 q-28 -1 -48.5 -7.5 q-20.5 -6.5 -41.5 -19.5 q-21 -13 -53 -39 l-318 -247 Z" /><glyph glyph-name="L" unicode="L" d="M516 0 l-534 0 l8 38 q41 0 61.5 7 q20.5 7 31 27 q10.5 20 18.5 60 l82 394 q7 36 6 56.5 q-1 20.5 -19 28.5 q-18 8 -60 8 l7 38 l315 0 l-7 -38 q-39 0 -62 -8 q-23 -8 -35 -28 q-12 -20 -20 -58 l-86 -415 q-7 -36 6 -46.5 q13 -10.5 57 -10.5 l55 0 q44 0 73 7.5 q29 7.5 49.5 24.5 q20.5 17 38.5 46.5 q18 29.5 39 73.5 l43 0 l-67 -205 Z" /><glyph glyph-name="M" unicode="M" d="M216 0 l-242 0 l8 38 q39 0 60 6.5 q21 6.5 32 30.5 q11 24 21 75 l78 376 q8 38 5.5 58 q-2.5 20 -20 27.5 q-17.5 7.5 -56.5 7.5 l8 38 l247 0 l95 -479 l7 0 l289 479 l232 0 l-9 -38 q-34 0 -54 -7.5 q-20 -7.5 -31 -27.5 q-11 -20 -20 -57 l-83 -405 q-11 -52 4.5 -68 q15.5 -16 66.5 -16 l-7 -38 l-299 0 l8 38 q37 0 56.5 7 q19.5 7 29.5 25 q10 18 17 52 l85 411 l-5 0 l-327 -533 l-57 0 l-112 532 l-5 0 l-79 -382 q-10 -51 -9 -75 q1 -24 19 -30.5 q18 -6.5 55 -6.5 l-8 -38 Z" /><glyph glyph-name="N" unicode="N" d="M589 -7 l-76 0 l-285 537 l-34 20 q-14 29 -26 43.5 q-12 14.5 -27 20 q-15 5.5 -40 5.5 l8 38 l200 0 l254 -479 l5 0 l64 312 q9 40 9 68.5 q0 28.5 -16.5 44.5 q-16.5 16 -59.5 16 l7 38 l243 0 l-8 -38 q-38 0 -60 -15 q-22 -15 -34.5 -44.5 q-12.5 -29.5 -21.5 -71.5 l-102 -495 ZM213 0 l-239 0 l7 38 q40 0 61 9 q21 9 33 34.5 q12 25.5 22 75.5 l90 437 l116 -78 l-73 0 l-74 -359 q-10 -50 -8.5 -75.5 q1.5 -25.5 19.5 -34.5 q18 -9 55 -9 l-9 -38 Z" /><glyph glyph-name="O" unicode="O" d="M319 -13 q-88 0 -145.5 32 q-57.5 32 -85 90.5 q-27.5 58.5 -27.5 136.5 q0 92 28 169 q28 77 80 134 q52 57 124 88.5 q72 31.5 159 31.5 q88 0 145.5 -32.5 q57.5 -32.5 86.5 -90 q29 -57.5 29 -133.5 q0 -93 -28 -171.5 q-28 -78.5 -80 -135.5 q-52 -57 -124.5 -88 q-72.5 -31 -161.5 -31 ZM331 35 q56 0 97.5 23 q41.5 23 70.5 62.5 q29 39.5 47 89.5 q18 50 26 105 q8 55 8 109 q0 97 -36.5 147.5 q-36.5 50.5 -103.5 50.5 q-55 0 -101 -29.5 q-46 -29.5 -78.5 -82.5 q-32.5 -53 -50 -124 q-17.5 -71 -17.5 -154 q0 -59 13.5 -103.5 q13.5 -44.5 44.5 -69 q31 -24.5 80 -24.5 Z" /><glyph glyph-name="P" unicode="P" d="M306 0 l-321 0 l8 38 q40 0 60.5 7 q20.5 7 30 27.5 q9.5 20.5 18.5 62.5 l85 408 q10 47 -7.5 61.5 q-17.5 14.5 -67.5 14.5 l7 38 l290 0 q60 0 110 -11.5 q50 -11.5 80.5 -41.5 q30.5 -30 30.5 -86 q0 -68 -26 -114.5 q-26 -46.5 -69 -74 q-43 -27.5 -97 -40 q-54 -12.5 -110 -12.5 q-24 0 -44.5 4.5 q-20.5 4.5 -32.5 8.5 l9 45 q10 -1 25 -3.5 q15 -2.5 34 -2.5 q59 0 99.5 20.5 q40.5 20.5 60.5 59.5 q20 39 20 95 q0 54 -28.5 81 q-28.5 27 -95.5 27 q-14 0 -24 -1 q-10 -1 -26 -3 l-99 -477 q-8 -40 -4.5 -60 q3.5 -20 24.5 -26.5 q21 -6.5 68 -6.5 l-8 -38 Z" /><glyph glyph-name="Q" unicode="Q" d="M407 -15 l-104 4 q-119 5 -180.5 70 q-61.5 65 -61.5 187 q0 93 28 170 q28 77 80.5 134 q52.5 57 124.5 88 q72 31 159 31 q87 0 144.5 -32.5 q57.5 -32.5 86.5 -90.5 q29 -58 29 -133 q0 -108 -38 -194 q-38 -86 -106 -142.5 q-68 -56.5 -158 -76.5 l-4 -15 ZM615 -174 l-50 0 q-81 0 -136.5 11.5 q-55.5 11.5 -88.5 38.5 q-33 27 -47 72 l-17 58 l126 7 q17 -36 35 -64 q18 -28 42 -47 q24 -19 58.5 -29 q34.5 -10 84.5 -10 l-7 -37 ZM331 35 q56 0 97 23 q41 23 70.5 62 q29.5 39 47.5 89 q18 50 26 105.5 q8 55.5 8 109.5 q0 92 -35 145 q-35 53 -106 53 q-69 0 -125 -49 q-56 -49 -88.5 -137 q-32.5 -88 -32.5 -204 q0 -91 32.5 -144 q32.5 -53 105.5 -53 Z" /><glyph glyph-name="R" unicode="R" d="M297 0 l-313 0 l9 38 q37 0 57 6 q20 6 31 26 q11 20 20 62 l85 410 q6 30 3 46.5 q-3 16.5 -21 23.5 q-18 7 -57 7 l8 38 l289 0 q64 0 114 -13.5 q50 -13.5 79.5 -44 q29.5 -30.5 29.5 -81.5 q0 -49 -17.5 -84 q-17.5 -35 -46.5 -58.5 q-29 -23.5 -64 -37 q-35 -13.5 -71 -20.5 l-1 -5 q15 -11 29 -34.5 q14 -23.5 36 -68 q22 -44.5 60 -121.5 q17 -32 38 -41.5 q21 -9.5 55 -9.5 l-8 -38 l-194 0 q-23 61 -38.5 100.5 q-15.5 39.5 -27 66 q-11.5 26.5 -20 48 q-8.5 21.5 -19.5 45.5 q-9 22 -21 28 q-12 6 -38 6 l-34 0 l8 45 l46 -1 q64 3 107.5 20.5 q43.5 17.5 65.5 54 q22 36.5 22 96.5 q0 30 -11 53.5 q-11 23.5 -36 36.5 q-25 13 -68 13 q-16 0 -29.5 -0.5 q-13.5 -0.5 -29.5 -2.5 l-99 -478 q-8 -40 -5.5 -60.5 q2.5 -20.5 22.5 -26.5 q20 -6 62 -6 l-7 -38 Z" /><glyph glyph-name="S" unicode="S" d="M60 -14 l-38 0 l39 216 l41 0 q3 -66 16 -101 q13 -35 39.5 -48.5 q26.5 -13.5 69.5 -13.5 q38 0 71 11 q33 11 53.5 36 q20.5 25 20.5 66 q1 38 -17 63.5 q-18 25.5 -46.5 45.5 q-28.5 20 -60.5 39 q-34 20 -63 41.5 q-29 21.5 -47 52.5 q-18 31 -18 77 q0 64 32 108 q32 44 87 66.5 q55 22.5 123 22.5 q39 0 62.5 -6.5 q23.5 -6.5 39 -13 q15.5 -6.5 27.5 -6.5 q9 0 19 5 q10 5 16 21 l33 0 l-38 -204 l-39 0 q-3 88 -30 124.5 q-27 36.5 -91 36.5 q-61 0 -94 -26.5 q-33 -26.5 -33 -75.5 q0 -30 17 -53 q17 -23 45.5 -41.5 q28.5 -18.5 60.5 -36.5 q37 -21 69.5 -45 q32.5 -24 53 -57 q20.5 -33 20.5 -83 q0 -69 -35.5 -118 q-35.5 -49 -96.5 -75 q-61 -26 -137 -26 q-48 0 -74.5 7.5 q-26.5 7.5 -40 15 q-13.5 7.5 -23.5 7.5 q-12 0 -21 -8.5 q-9 -8.5 -12 -23.5 Z" /><glyph glyph-name="T" unicode="T" d="M429 0 l-317 0 l8 38 q42 0 64 6.5 q22 6.5 33 28.5 q11 22 20 67 l100 483 l124 0 l-99 -483 q-9 -45 -7 -67 q2 -22 21 -28.5 q19 -6.5 61 -6.5 l-8 -38 ZM115 468 l-43 0 l48 189 l575 0 l-32 -189 l-43 0 q0 55 -5.5 85 q-5.5 30 -29 42 q-23.5 12 -78.5 12 l-223 0 q-40 0 -66 -6.5 q-26 -6.5 -43 -22.5 q-17 -16 -30 -42.5 q-13 -26.5 -30 -67.5 Z" /><glyph glyph-name="U" unicode="U" d="M332 -13 q-120 0 -175 41 q-55 41 -55 131 q0 20 2.5 42 q2.5 22 7.5 47 l59 283 q3 12 4.5 22.5 q1.5 10.5 1.5 17.5 q0 28 -18.5 38 q-18.5 10 -63.5 10 l8 38 l314 0 l-8 -38 q-40 0 -62 -7.5 q-22 -7.5 -32.5 -27.5 q-10.5 -20 -18.5 -58 l-56 -266 q-4 -22 -6.5 -43 q-2.5 -21 -2.5 -37 q0 -59 31.5 -88 q31.5 -29 109.5 -29 q94 0 145 44 q51 44 71 147 l49 236 q5 25 8 44.5 q3 19.5 3 32.5 q0 31 -17 41.5 q-17 10.5 -59 10.5 l7 38 l251 0 l-8 -38 q-42 0 -64 -10 q-22 -10 -33 -37 q-11 -27 -22 -79 l-48 -230 q-28 -138 -103.5 -207 q-75.5 -69 -219.5 -69 Z" /><glyph glyph-name="V" unicode="V" d="M266 -5 l-55 0 l-69 534 q-5 33 -12 52.5 q-7 19.5 -21.5 28.5 q-14.5 9 -43.5 9 l6 38 l291 0 l-5 -38 q-38 0 -61 -14.5 q-23 -14.5 -22 -58.5 q0 -6 0.5 -16 q0.5 -10 1.5 -18 l32 -255 l6 -105 l8 0 l62 96 l197 289 q8 11 16.5 27 q8.5 16 8.5 29 q0 14 -13 20 q-13 6 -42 6 l7 38 l220 0 l-7 -38 q-21 0 -36.5 -4.5 q-15.5 -4.5 -32 -18.5 q-16.5 -14 -38 -41.5 q-21.5 -27.5 -53.5 -73.5 l-345 -486 Z" /><glyph glyph-name="W" unicode="W" d="M603 -7 l-64 0 l-28 387 l-3 55 l-5 89 q-3 43 -8.5 63 q-5.5 20 -19 26 q-13.5 6 -41.5 6 l8 38 l281 0 l-7 -38 q-45 0 -67 -15 q-22 -15 -22 -54 q0 -6 0.5 -12.5 q0.5 -6.5 0.5 -12.5 l20 -261 l1 -89 l6 0 l201 322 q5 6 14.5 21.5 q9.5 15.5 17.5 34.5 q8 19 8 34 q0 19 -14 25.5 q-14 6.5 -41 6.5 l9 38 l213 0 l-6 -38 q-35 -1 -56.5 -16.5 q-21.5 -15.5 -45.5 -53.5 l-352 -556 ZM256 -7 l-60 0 l-51 531 q-4 52 -18.5 73.5 q-14.5 21.5 -58.5 21.5 l8 38 l286 0 l-7 -38 q-31 0 -47.5 -7.5 q-16.5 -7.5 -23 -19.5 q-6.5 -12 -6.5 -28 q0 -4 0 -12 q0 -8 1 -16 l27 -276 l2 -86 l8 0 l200 290 l12 -100 l-21 0 l-251 -371 Z" /><glyph glyph-name="X" unicode="X" d="M611 0 l-309 0 l8 38 l8 0 q33 0 49 11.5 q16 11.5 16 29.5 q0 11 -4 26.5 q-4 15.5 -14 38.5 l-36 87 l-23 62 l-14 21 l-111 230 q-14 28 -25 44.5 q-11 16.5 -28 23 q-17 6.5 -50 6.5 l8 39 l302 0 l-10 -39 l-9 0 q-33 0 -46.5 -7.5 q-13.5 -7.5 -13.5 -28.5 q0 -19 12.5 -46 q12.5 -27 21.5 -50 l37 -99 l15 -19 l133 -268 q18 -36 37 -48.5 q19 -12.5 54 -13.5 l-8 -38 ZM178 0 l-235 0 l8 38 q23 0 40 6.5 q17 6.5 35 21.5 q18 15 44 41 l225 227 l28 -53 l-16 0 l-143 -152 q-8 -8 -17.5 -19.5 q-9.5 -11.5 -16 -22.5 q-6.5 -11 -6.5 -23 q0 -13 13 -19.5 q13 -6.5 50 -6.5 l-9 -38 ZM567 525 l-175 -176 l-28 49 l16 0 l122 133 q19 22 30 36.5 q11 14.5 11 29.5 q0 11 -12.5 16 q-12.5 5 -44.5 5 l8 39 l236 0 l-9 -39 q-30 -1 -51 -9 q-21 -8 -44 -27.5 q-23 -19.5 -59 -56.5 Z" /><glyph glyph-name="Y" unicode="Y" d="M589 528 l-211 -279 l-18 59 l185 250 q7 9 13 20 q6 11 6 20 q0 9 -10 15 q-10 6 -44 6 l9 38 l220 0 l-7 -38 q-29 -2 -49.5 -8.5 q-20.5 -6.5 -41.5 -25 q-21 -18.5 -52 -57.5 ZM433 0 l-324 0 l8 38 q44 0 66 5.5 q22 5.5 32.5 26.5 q10.5 21 19.5 65 l40 185 l124 0 l-39 -185 q-3 -16 -4.5 -27.5 q-1.5 -11.5 -1.5 -21.5 q0 -31 20.5 -39.5 q20.5 -8.5 65.5 -8.5 l-7 -38 ZM367 305 l-99 -60 l-92 238 q-23 64 -40.5 92 q-17.5 28 -34 36 q-16.5 8 -40.5 8 l8 38 l287 0 l-8 -38 q-40 0 -54.5 -9 q-14.5 -9 -14.5 -20 q0 -8 2 -18.5 q2 -10.5 5 -19.5 l54 -150 l27 -97 Z" /><glyph glyph-name="Z" unicode="Z" d="M512 0 l-518 0 l9 45 l489 552 l0 5 l-159 0 q-48 0 -79 -9 q-31 -9 -53 -36 q-22 -27 -44 -83 l-45 0 l48 183 l502 0 l-9 -45 l-487 -553 l0 -5 l164 0 q60 0 95 14 q35 14 58 46.5 q23 32.5 47 86.5 l45 0 l-63 -201 Z" /><glyph glyph-name="Aogonek" unicode="&#x104;" d="M328 -219 q-48 0 -71 23.5 q-23 23.5 -23 58.5 q0 32 15.5 57.5 q15.5 25.5 43.5 47.5 q28 22 66 42 q28 15 46.5 25.5 q18.5 10.5 28 23.5 q9.5 13 9.5 36 q0 10 -0.5 24 q-0.5 14 -1.5 24 l-11 83 l-2 24 l-30 275 l-4 0 l-179 -275 l-13 -24 l-63 -97 q-9 -15 -18 -32.5 q-9 -17.5 -9 -32.5 q0 -16 12.5 -21 q12.5 -5 44.5 -5 l-7 -38 l-219 0 l8 38 q26 0 44.5 8.5 q18.5 8.5 38.5 32 q20 23.5 51 68.5 l342 515 l74 0 l80 -531 q8 -49 26.5 -71 q18.5 -22 56.5 -22 l-6 -38 l-197 0 q-40 0 -72 -15.5 q-32 -15.5 -51 -41 q-19 -25.5 -19 -55.5 q0 -23 11.5 -35.5 q11.5 -12.5 39.5 -12.5 q22 0 39 7.5 q17 7.5 40 23.5 l18 -24 q-33 -28 -64 -47 q-31 -19 -75 -19 ZM443 214 l-262 0 l28 48 l230 0 l4 -48 Z" /><glyph glyph-name="AE" unicode="Æ" d="M168 0 l-235 0 l9 38 q28 0 49 10.5 q21 10.5 42.5 33.5 q21.5 23 50.5 60 l321 404 q10 14 17 25 q7 11 7 24 q0 16 -15 20 q-15 4 -43 4 l9 38 l584 0 l-30 -175 l-44 0 q4 50 -5.5 76 q-9.5 26 -37.5 35.5 q-28 9.5 -81 9.5 l-126 0 l-118 -550 l114 0 q53 0 86 5 q33 5 55 19.5 q22 14.5 40.5 42 q18.5 27.5 41.5 71.5 l41 0 l-65 -191 l-549 0 l8 38 q46 0 69 7.5 q23 7.5 34 32 q11 24.5 22 75.5 l96 448 l-8 0 l-204 -263 l-16 -25 l-145 -186 q-10 -11 -19 -27.5 q-9 -16.5 -9 -32.5 q0 -17 15 -23 q15 -6 46 -6 l-7 -38 ZM795 212 l-43 0 q9 40 4 59 q-5 19 -28 24.5 q-23 5.5 -70 5.5 l-394 0 l33 48 l371 0 q47 0 73 6 q26 6 39 25.5 q13 19.5 21 59.5 l44 0 l-50 -228 Z" /><glyph glyph-name="Eogonek" unicode="&#x118;" d="M528 0 l-545 0 l8 38 q34 0 54.5 6 q20.5 6 33 23.5 q12.5 17.5 20.5 53.5 l84 406 q8 38 6 57.5 q-2 19.5 -20.5 26.5 q-18.5 7 -59.5 7 l8 39 l536 0 l-29 -175 l-44 0 q3 47 -5 73.5 q-8 26.5 -35 37 q-27 10.5 -85 10.5 l-132 0 l-114 -550 l117 0 q52 0 85.5 6 q33.5 6 55.5 21.5 q22 15.5 40 42.5 q18 27 40 70 l42 0 l-61 -193 ZM376 -219 q-45 0 -69 22.5 q-24 22.5 -24 58.5 q0 34 19 60 q19 26 45.5 45.5 q26.5 19.5 48.5 31.5 l0 9 l72 -1 q-19 -13 -43 -28 q-24 -15 -40.5 -36.5 q-16.5 -21.5 -16.5 -53.5 q0 -26 12.5 -37.5 q12.5 -11.5 36.5 -11.5 q23 0 40 7.5 q17 7.5 41 23.5 l18 -24 q-33 -29 -64.5 -47.5 q-31.5 -18.5 -75.5 -18.5 ZM488 221 l-40 0 q9 42 5.5 61.5 q-3.5 19.5 -25.5 25.5 q-22 6 -70 6 l-108 0 l9 48 l109 0 q48 0 72.5 6 q24.5 6 35.5 25.5 q11 19.5 19 58.5 l41 0 l-48 -231 Z" /><glyph glyph-name="Hbar" unicode="&#x126;" d="M292 0 l-304 0 l8 38 q40 0 60.5 7 q20.5 7 31.5 28.5 q11 21.5 20 65.5 l78 377 q4 19 6.5 33.5 q2.5 14.5 2.5 25.5 q0 25 -16.5 34.5 q-16.5 9.5 -61.5 9.5 l8 38 l310 0 l-7 -38 q-45 0 -67 -9.5 q-22 -9.5 -32 -31.5 q-10 -22 -19 -62 l-77 -377 q-4 -19 -7 -34 q-3 -15 -2 -26 q0 -26 16.5 -33.5 q16.5 -7.5 59.5 -7.5 l-8 -38 ZM581 307 l-325 0 l10 49 l326 0 l-11 -49 ZM819 461 l-735 0 l11 50 l735 0 l-11 -50 ZM722 0 l-308 0 l8 38 q42 0 62.5 7 q20.5 7 30 29 q9.5 22 18.5 65 l79 377 q4 18 6 32.5 q2 14.5 2 25.5 q0 25 -16 35 q-16 10 -61 10 l7 38 l307 0 l-7 -38 q-44 0 -65.5 -9.5 q-21.5 -9.5 -30.5 -31.5 q-9 -22 -17 -62 l-79 -377 q-4 -19 -6.5 -33 q-2.5 -14 -2.5 -25 q0 -27 18 -35 q18 -8 63 -8 l-8 -38 Z" /><glyph glyph-name="Iogonek" unicode="&#x12e;" d="M288 0 l-305 0 l8 38 q42 0 62.5 7.5 q20.5 7.5 30.5 29 q10 21.5 19 64.5 l78 377 q4 18 6 32 q2 14 2 25 q0 26 -16.5 36 q-16.5 10 -63.5 10 l8 38 l310 0 l-8 -38 q-44 0 -65.5 -9.5 q-21.5 -9.5 -30.5 -32 q-9 -22.5 -18 -61.5 l-78 -378 q-4 -18 -6 -32.5 q-2 -14.5 -2 -25.5 q0 -26 16 -34 q16 -8 61 -8 l-8 -38 ZM111 -219 q-45 0 -68.5 22.5 q-23.5 22.5 -23.5 58.5 q0 34 18.5 60 q18.5 26 45 45 q26.5 19 48.5 31 l0 10 l72 -1 q-19 -13 -43 -28 q-24 -15 -40.5 -36.5 q-16.5 -21.5 -16.5 -53.5 q0 -26 12.5 -37.5 q12.5 -11.5 36.5 -11.5 q24 0 41 7.5 q17 7.5 41 23.5 l17 -24 q-33 -29 -64.5 -47.5 q-31.5 -18.5 -75.5 -18.5 Z" /><glyph glyph-name="Lslash" unicode="&#x141;" d="M522 0 l-534 0 l8 38 q40 0 61 7 q21 7 31.5 27 q10.5 20 18.5 60 l81 394 q8 36 6.5 56.5 q-1.5 20.5 -19 28.5 q-17.5 8 -59.5 8 l7 38 l315 0 l-7 -38 q-40 0 -62.5 -8 q-22.5 -8 -34.5 -28 q-12 -20 -20 -58 l-86 -415 q-7 -36 6 -46.5 q13 -10.5 56 -10.5 l56 0 q43 0 72 7.5 q29 7.5 50 24.5 q21 17 38.5 46.5 q17.5 29.5 39.5 73.5 l43 0 l-67 -205 ZM477 433 l-444 -219 l-23 46 l443 218 l24 -45 Z" /><glyph glyph-name="Ohorn" unicode="&#x1a0;" d="M319 -13 q-88 0 -145.5 32 q-57.5 32 -85 90.5 q-27.5 58.5 -27.5 136.5 q0 92 28 169 q28 77 80 134 q52 57 124 88.5 q72 31.5 159 31.5 q29 0 52.5 -3.5 q23.5 -3.5 43.5 -8.5 q20 -5 40.5 -8.5 q20.5 -3.5 44.5 -3.5 q33 0 56 10.5 q23 10.5 23 32.5 q0 15 -9 31.5 q-9 16.5 -9 32.5 q0 25 18 37.5 q18 12.5 40 12.5 q20 0 36 -13.5 q16 -13.5 16 -45.5 q0 -17 -8 -39 q-8 -22 -26 -42.5 q-18 -20.5 -47 -34 q-29 -13.5 -72 -13.5 q-4 0 -10 0 q-6 0 -10 0 l-1 -3 q41 -34 62 -85 q21 -51 21 -113 q0 -93 -28 -171.5 q-28 -78.5 -80 -135.5 q-52 -57 -124.5 -88 q-72.5 -31 -161.5 -31 ZM331 35 q56 0 97.5 23 q41.5 23 70.5 62.5 q29 39.5 47 89.5 q18 50 26 105 q8 55 8 109 q0 97 -36.5 147.5 q-36.5 50.5 -103.5 50.5 q-55 0 -101 -29.5 q-46 -29.5 -78.5 -82.5 q-32.5 -53 -50 -124 q-17.5 -71 -17.5 -154 q0 -59 13.5 -103.5 q13.5 -44.5 44.5 -69 q31 -24.5 80 -24.5 Z" /><glyph glyph-name="Oslash" unicode="Ø" d="M179 64 l-81 -92 l-38 31 l91 102 l10 11 l413 483 l11 10 l63 71 l38 -31 l-71 -79 l-10 -11 l-413 -483 l-13 -12 ZM320 -13 q-127 0 -193 67 q-66 67 -66 192 q0 91 27.5 168 q27.5 77 79 134.5 q51.5 57.5 123.5 89 q72 31.5 160 31.5 q82 0 140.5 -30.5 q58.5 -30.5 90 -87.5 q31.5 -57 31.5 -138 q0 -93 -28 -171.5 q-28 -78.5 -80 -135.5 q-52 -57 -124 -88 q-72 -31 -161 -31 ZM333 35 q55 0 96.5 23 q41.5 23 70.5 62.5 q29 39.5 46.5 89.5 q17.5 50 25.5 105 q8 55 8 109 q0 55 -14.5 100 q-14.5 45 -45.5 71.5 q-31 26.5 -81 26.5 q-56 0 -101.5 -30.5 q-45.5 -30.5 -78 -84 q-32.5 -53.5 -49.5 -124 q-17 -70.5 -17 -151.5 q0 -58 13 -102 q13 -44 44 -69.5 q31 -25.5 83 -25.5 Z" /><glyph glyph-name="OE" unicode="&#x152;" d="M325 -13 q-129 0 -196.5 68 q-67.5 68 -67.5 190 q0 93 29.5 170.5 q29.5 77.5 84.5 134.5 q55 57 131 88 q76 31 168 31 q30 0 59.5 -3 q29.5 -3 51.5 -9 l430 0 l-32 -175 l-42 0 q3 48 -5.5 74 q-8.5 26 -38.5 36.5 q-30 10.5 -93 10.5 l-119 0 l-118 -550 l112 0 q54 0 88.5 6 q34.5 6 58.5 21.5 q24 15.5 43.5 42.5 q19.5 27 41.5 70 l40 0 l-68 -193 l-436 0 q-15 -3 -37 -6 q-22 -3 -45 -5 q-23 -2 -40 -2 ZM338 34 q48 0 77.5 17.5 q29.5 17.5 40.5 66.5 l90 419 q10 42 -11 64 q-21 22 -73 22 q-59 0 -108 -30.5 q-49 -30.5 -84.5 -84.5 q-35.5 -54 -55 -125.5 q-19.5 -71.5 -19.5 -153.5 q0 -56 14.5 -100 q14.5 -44 46.5 -69.5 q32 -25.5 82 -25.5 ZM844 222 l-41 0 q10 42 7 61.5 q-3 19.5 -25.5 25.5 q-22.5 6 -73.5 6 l-100 0 l10 46 l101 0 q50 0 75 6 q25 6 36.5 25.5 q11.5 19.5 19.5 59.5 l41 0 l-50 -230 Z" /><glyph glyph-name="uni1E9E" unicode="&#x1e9e;" d="M398 -12 q-79 0 -116 23 q-37 23 -37 62 q0 21 12.5 40.5 q12.5 19.5 44.5 19.5 q23 0 33.5 -10.5 q10.5 -10.5 15 -25.5 q4.5 -15 9.5 -30.5 q5 -15.5 17.5 -26 q12.5 -10.5 39.5 -10.5 q41 0 70.5 25 q29.5 25 45 62.5 q15.5 37.5 15.5 79.5 q0 32 -13 63 q-13 31 -48 52.5 q-35 21.5 -102 26.5 l9 40 l196 231 q-40 10 -87 10 q-75 0 -121 -27.5 q-46 -27.5 -72 -75 q-26 -47.5 -39 -109.5 l-86 -408 l-221 0 l8 38 q39 0 61 6 q22 6 33.5 24 q11.5 18 18.5 51 l63 299 q20 94 67 149 q47 55 119.5 79 q72.5 24 168.5 24 q64 0 120.5 -9 q56.5 -9 107.5 -23 l-9 -40 l-193 -229 q74 -13 111.5 -54 q37.5 -41 37.5 -110 q0 -72 -37 -120 q-37 -48 -100.5 -72.5 q-63.5 -24.5 -142.5 -24.5 Z" /><glyph glyph-name="Tbar" unicode="&#x166;" d="M429 0 l-317 0 l8 38 q42 0 64 6.5 q22 6.5 33 28.5 q11 22 20 67 l100 483 l124 0 l-99 -483 q-4 -19 -6 -33 q-2 -14 -2 -25 q0 -29 18.5 -36.5 q18.5 -7.5 64.5 -7.5 l-8 -38 ZM534 329 l-388 0 l11 48 l387 0 l-10 -48 ZM115 468 l-43 0 l48 189 l575 0 l-32 -189 l-43 0 q0 55 -5.5 85 q-5.5 30 -29 42 q-23.5 12 -78.5 12 l-223 0 q-40 0 -66 -6.5 q-26 -6.5 -43 -22.5 q-17 -16 -30 -42.5 q-13 -26.5 -30 -67.5 Z" /><glyph glyph-name="Uogonek" unicode="&#x172;" d="M357 -219 q-48 0 -70.5 23.5 q-22.5 23.5 -22.5 57.5 q0 30 14 52 q14 22 35 39.5 q21 17.5 43 30.5 l0 4 q-7 -1 -13 -1 q-6 0 -12 0 q-119 0 -174 41 q-55 41 -55 131 q0 20 2.5 42 q2.5 22 7.5 47 l59 283 q3 12 4.5 22.5 q1.5 10.5 1.5 17.5 q0 28 -18.5 38 q-18.5 10 -63.5 10 l8 38 l314 0 l-8 -38 q-40 0 -62 -7.5 q-22 -7.5 -32.5 -27.5 q-10.5 -20 -18.5 -58 l-56 -266 q-4 -22 -6.5 -43 q-2.5 -21 -2.5 -37 q0 -59 31.5 -88 q31.5 -29 109.5 -29 q94 0 145 44 q51 44 71 147 l49 236 q5 25 8 44.5 q3 19.5 3 32.5 q0 31 -17 41.5 q-17 10.5 -59 10.5 l7 38 l251 0 l-8 -38 q-42 0 -64 -10 q-22 -10 -33 -37 q-11 -27 -22 -79 l-48 -230 q-15 -72 -40.5 -123.5 q-25.5 -51.5 -63.5 -84.5 q-38 -33 -93 -51 q-17 -8 -36 -17.5 q-19 -9.5 -36 -22.5 q-17 -13 -27.5 -31.5 q-10.5 -18.5 -10.5 -43.5 q0 -24 12 -36.5 q12 -12.5 37 -12.5 q24 0 41 7.5 q17 7.5 41 23.5 l17 -24 q-33 -29 -64 -47.5 q-31 -18.5 -75 -18.5 Z" /><glyph glyph-name="Uhorn" unicode="&#x1af;" d="M332 -13 q-120 0 -175 41 q-55 41 -55 131 q0 20 2.5 42 q2.5 22 7.5 47 l59 283 q3 12 4.5 22.5 q1.5 10.5 1.5 17.5 q0 28 -18.5 38 q-18.5 10 -63.5 10 l8 38 l314 0 l-8 -38 q-40 0 -62 -7.5 q-22 -7.5 -32.5 -27.5 q-10.5 -20 -18.5 -58 l-56 -266 q-4 -22 -6.5 -43 q-2.5 -21 -2.5 -37 q0 -59 31.5 -88 q31.5 -29 109.5 -29 q94 0 145 44 q51 44 71 147 l49 236 q5 24 8 43 q3 19 3 33 q0 31 -17 42 q-17 11 -60 11 l8 38 l189 0 q36 0 53 5 q17 5 22 13 q5 8 5 18 q0 17 -8.5 34.5 q-8.5 17.5 -8.5 34.5 q0 25 18 38.5 q18 13.5 40 13.5 q20 0 36 -14 q16 -14 16 -45 q0 -20 -13 -47.5 q-13 -27.5 -41.5 -50.5 q-28.5 -23 -76.5 -32 q-28 -5 -45.5 -12 q-17.5 -7 -28 -20 q-10.5 -13 -18 -36.5 q-7.5 -23.5 -15.5 -63.5 l-48 -230 q-28 -138 -103.5 -207 q-75.5 -69 -219.5 -69 Z" /><glyph glyph-name="uni01B5" unicode="&#x1b5;" d="M512 0 l-518 0 l10 45 l488 552 l1 5 l-160 0 q-47 0 -78 -9 q-31 -9 -53.5 -36 q-22.5 -27 -44.5 -83 l-44 0 l48 183 l501 0 l-9 -45 l-486 -553 l-1 -5 l165 0 q60 0 94.5 14 q34.5 14 58 46.5 q23.5 32.5 47.5 86.5 l45 0 l-64 -201 ZM557 321 l-438 0 l9 49 l438 0 l-9 -49 Z" /><glyph glyph-name="uni0190" unicode="&#x190;" d="M237 -12 q-60 0 -109.5 13 q-49.5 13 -78 45.5 q-28.5 32.5 -28.5 87.5 q0 50 19.5 87.5 q19.5 37.5 51 64 q31.5 26.5 67 42 q35.5 15.5 65.5 20.5 l1 6 q-29 11 -57 25 q-28 14 -46 38.5 q-18 24.5 -18 64.5 q0 59 36.5 100.5 q36.5 41.5 100.5 63.5 q64 22 146 22 q107 0 152.5 -32 q45.5 -32 45.5 -77 q0 -31 -19 -44.5 q-19 -13.5 -46 -13.5 q-25 0 -36.5 12.5 q-11.5 12.5 -17.5 31 q-6 18.5 -14 36.5 q-8 18 -25 30.5 q-17 12.5 -51 12.5 q-73 0 -109.5 -40 q-36.5 -40 -36.5 -102 q0 -41 18.5 -64 q18.5 -23 51.5 -32 q33 -9 73 -9 l51 0 l-12 -55 l-54 0 q-108 0 -155.5 -42.5 q-47.5 -42.5 -47.5 -115.5 q0 -40 17.5 -61.5 q17.5 -21.5 47.5 -30 q30 -8.5 68 -8.5 q60 0 107 18.5 q47 18.5 90 57.5 l24 -22 q-44 -53 -112.5 -91.5 q-68.5 -38.5 -159.5 -38.5 Z" /><glyph glyph-name="uni2132" unicode="&#x2132;" d="M519 0 l-542 0 l33 177 l45 0 q-1 -36 1 -59.5 q2 -23.5 13.5 -37 q11.5 -13.5 37.5 -19 q26 -5.5 75 -5.5 l132 0 l101 483 q2 10 3 17.5 q1 7.5 1 14.5 q0 30 -21 39 q-21 9 -69 9 l8 38 l318 0 l-8 -38 q-37 0 -58.5 -6.5 q-21.5 -6.5 -32 -25 q-10.5 -18.5 -18.5 -55.5 l-86 -410 q-2 -11 -3.5 -20.5 q-1.5 -9.5 -1.5 -17.5 q0 -28 19 -36.5 q19 -8.5 62 -8.5 l-9 -39 ZM142 203 l-41 0 l49 233 l42 0 q-2 -12 -3.5 -22.5 q-1.5 -10.5 -1.5 -18.5 q0 -32 23 -40.5 q23 -8.5 73 -8.5 l104 0 l-10 -48 l-103 0 q-43 0 -68.5 -7 q-25.5 -7 -40 -27 q-14.5 -20 -23.5 -61 Z" /><glyph glyph-name="Eng" unicode="&#x14a;" d="M346 -236 q-48 0 -78 17.5 q-30 17.5 -30 54.5 q0 23 13 39.5 q13 16.5 42 16.5 q23 0 36 -11.5 q13 -11.5 21.5 -26 q8.5 -14.5 19 -25.5 q10.5 -11 29.5 -11 q26 0 47.5 14 q21.5 14 38.5 46 q17 32 29 85 l11 54 l40 145 l67 328 q9 40 9 68.5 q0 28.5 -16.5 44.5 q-16.5 16 -59.5 16 l7 38 l243 0 l-8 -38 q-38 0 -60 -15.5 q-22 -15.5 -34.5 -44.5 q-12.5 -29 -21.5 -71 l-102 -498 q-17 -81 -49.5 -130.5 q-32.5 -49.5 -80 -72.5 q-47.5 -23 -113.5 -23 ZM213 0 l-239 0 l7 38 q39 0 60.5 9 q21.5 9 33.5 34.5 q12 25.5 22 75.5 l90 438 l103 -79 l-60 0 l-74 -359 q-10 -50 -8.5 -75.5 q1.5 -25.5 19.5 -34.5 q18 -9 55 -9 l-9 -38 ZM573 -4 l-63 0 l-282 534 l-35 18 q-14 30 -26 45 q-12 15 -26.5 20.5 q-14.5 5.5 -40.5 5.5 l8 38 l201 0 l254 -479 l21 0 l-11 -182 Z" /><glyph glyph-name="Eth" unicode="Ð" d="M262 0 l-274 0 l8 38 q39 0 60 6.5 q21 6.5 32 27 q11 20.5 19 60.5 l83 402 q8 37 3 54.5 q-5 17.5 -23.5 23 q-18.5 5.5 -53.5 5.5 l8 40 l273 0 q70 0 128.5 -13.5 q58.5 -13.5 101.5 -43.5 q43 -30 67 -78.5 q24 -48.5 24 -119.5 q0 -111 -35.5 -187.5 q-35.5 -76.5 -98 -124 q-62.5 -47.5 -145 -69 q-82.5 -21.5 -177.5 -21.5 ZM407 306 l-368 0 l12 53 l368 0 l-12 -53 ZM267 50 q106 0 176 34 q70 34 105 108.5 q35 74.5 35 195.5 q0 50 -11.5 90.5 q-11.5 40.5 -36.5 69 q-25 28.5 -66 43.5 q-41 15 -99 15 q-10 0 -18.5 0 q-8.5 0 -22.5 -1 l-115 -553 q13 -1 26.5 -1.5 q13.5 -0.5 26.5 -0.5 Z" /><glyph glyph-name="Thorn" unicode="Þ" d="M293 0 l-311 0 l9 38 q43 0 63.5 7.5 q20.5 7.5 30 29 q9.5 21.5 18.5 64.5 l79 377 q8 40 7.5 62 q-0.5 22 -17.5 31.5 q-17 9.5 -61 9.5 l8 38 l314 0 l-7 -38 q-44 0 -67 -9.5 q-23 -9.5 -33.5 -30.5 q-10.5 -21 -18.5 -57 l-80 -383 q-8 -42 -7 -63.5 q1 -21.5 19.5 -29.5 q18.5 -8 60.5 -8 l-7 -38 ZM300 156 q-25 0 -43.5 3.5 q-18.5 3.5 -33.5 7.5 l12 43 q9 -2 20.5 -3 q11.5 -1 31.5 -1 q57 0 98.5 20.5 q41.5 20.5 64 60.5 q22.5 40 22.5 98 q0 52 -31 77 q-31 25 -97 25 q-15 0 -26.5 -1 q-11.5 -1 -31.5 -2 l17 41 q12 1 34 3 q22 2 52 2 q59 0 107.5 -11 q48.5 -11 77.5 -41.5 q29 -30.5 29 -89.5 q0 -66 -25.5 -110.5 q-25.5 -44.5 -68.5 -71 q-43 -26.5 -97.5 -38.5 q-54.5 -12 -111.5 -12 Z" /><glyph glyph-name="a" unicode="a" d="M168 -14 q-37 0 -68.5 17 q-31.5 17 -50.5 56 q-19 39 -19 104 q0 69 22 127 q22 58 58.5 100.5 q36.5 42.5 83.5 66 q47 23.5 97 23.5 q44 0 66 -16.5 q22 -16.5 38 -37.5 l6 0 l38 47 l70 0 l-72 -346 q0 0 -2.5 -12.5 q-2.5 -12.5 -2.5 -23.5 q0 -10 4.5 -17.5 q4.5 -7.5 18.5 -7.5 q15 0 26.5 8 q11.5 8 21.5 18.5 q10 10.5 17 20.5 l28 -22 q-15 -22 -35 -46 q-20 -24 -50 -40 q-30 -16 -75 -16 q-34 0 -51.5 12.5 q-17.5 12.5 -17.5 43.5 q0 7 1 15 q1 8 2 16 l-7 0 q-33 -43 -67.5 -66.5 q-34.5 -23.5 -79.5 -23.5 ZM217 63 q28 0 49 14.5 q21 14.5 37.5 42 q16.5 27.5 26.5 65.5 q6 21 12 49.5 q6 28.5 10.5 58 q4.5 29.5 4.5 52.5 q0 38 -15.5 65.5 q-15.5 27.5 -50.5 27.5 q-32 0 -57 -23 q-25 -23 -43 -61 q-18 -38 -27.5 -85.5 q-9.5 -47.5 -9.5 -96.5 q0 -64 17 -86.5 q17 -22.5 46 -22.5 Z" /><glyph glyph-name="b" unicode="b" d="M205 -13 q-92 0 -172 37 l114 573 q1 3 2.5 14.5 q1.5 11.5 1.5 20.5 q0 17 -10.5 22.5 q-10.5 5.5 -25.5 5.5 q-8 0 -19.5 -0.5 q-11.5 -0.5 -11.5 -0.5 l0 36 l153 10 l45 0 l-59 -294 l6 0 q24 24 44.5 39.5 q20.5 15.5 42 22.5 q21.5 7 47.5 7 q60 0 101 -43 q41 -43 41 -133 q0 -69 -20 -126.5 q-20 -57.5 -58 -100.5 q-38 -43 -94 -66.5 q-56 -23.5 -128 -23.5 ZM234 41 q48 0 80.5 34.5 q32.5 34.5 48.5 94 q16 59.5 16 133.5 q0 66 -18.5 89.5 q-18.5 23.5 -44.5 23.5 q-26 0 -48 -16 q-22 -16 -38 -39.5 q-16 -23.5 -24 -45.5 l-47 -242 q10 -9 30.5 -20.5 q20.5 -11.5 44.5 -11.5 Z" /><glyph glyph-name="c" unicode="c" d="M196 -14 q-59 0 -95.5 24 q-36.5 24 -53 65 q-16.5 41 -16.5 93 q0 64 21.5 120.5 q21.5 56.5 59 99.5 q37.5 43 87.5 67.5 q50 24.5 108 24.5 q55 0 91.5 -24 q36.5 -24 36.5 -73 q0 -30 -17 -54 q-17 -24 -51 -24 q-22 0 -35 11 q-13 11 -13 33 q0 20 8.5 36 q8.5 16 8.5 28 q0 11 -10 19 q-10 8 -33 8 q-36 0 -62.5 -21.5 q-26.5 -21.5 -44 -57.5 q-17.5 -36 -26 -79.5 q-8.5 -43.5 -8.5 -88.5 q0 -50 10.5 -78.5 q10.5 -28.5 31.5 -40 q21 -11.5 52 -11.5 q46 0 77.5 18.5 q31.5 18.5 53.5 46.5 l24 -19 q-20 -33 -49 -61 q-29 -28 -67 -45 q-38 -17 -89 -17 Z" /><glyph glyph-name="d" unicode="d" d="M170 -13 q-60 0 -99 42.5 q-39 42.5 -39 135.5 q0 67 20.5 124 q20.5 57 56 100 q35.5 43 81 67 q45.5 24 96.5 24 q32 0 55 -9 q23 -9 41 -27 l4 0 l30 154 q0 0 1.5 11 q1.5 11 1.5 21 q0 13 -6 22 q-6 9 -29 9 q-9 0 -20 -1 q-11 -1 -11 -1 l0 35 l161 11 l37 0 l-114 -583 q0 0 -2.5 -15 q-2.5 -15 -2.5 -24 q0 -11 7 -15.5 q7 -4.5 16 -4.5 q21 0 40.5 17.5 q19.5 17.5 29.5 31.5 l27 -20 q-17 -23 -37 -47.5 q-20 -24.5 -49 -40 q-29 -15.5 -73 -15.5 q-37 0 -53.5 16.5 q-16.5 16.5 -16.5 42.5 q0 7 0.5 14.5 q0.5 7.5 1.5 13.5 l-8 0 q-34 -44 -68 -66.5 q-34 -22.5 -79 -22.5 ZM217 63 q28 0 51 15 q23 15 39 40 q16 25 23 54 q14 59 22 106 q8 47 8 70 q0 24 -8 44 q-8 20 -23.5 33 q-15.5 13 -39.5 13 q-31 0 -56 -23.5 q-25 -23.5 -42 -62.5 q-17 -39 -26 -85.5 q-9 -46.5 -9 -92.5 q0 -67 17 -89 q17 -22 44 -22 Z" /><glyph glyph-name="e" unicode="e" d="M199 -14 q-62 0 -99 25 q-37 25 -54 66 q-17 41 -17 91 q0 57 19.5 112.5 q19.5 55.5 56.5 101 q37 45.5 90 72.5 q53 27 119 27 q27 0 55 -7 q28 -7 48 -28 q20 -21 20 -62 q0 -49 -29.5 -84 q-29.5 -35 -75.5 -57 q-46 -22 -96.5 -33 q-50.5 -11 -93.5 -14 l0 36 q48 2 87.5 21.5 q39.5 19.5 63 53.5 q23.5 34 23.5 80 q0 24 -8 37 q-8 13 -27 13 q-26 0 -50 -23.5 q-24 -23.5 -42 -61.5 q-18 -38 -28.5 -82.5 q-10.5 -44.5 -10.5 -86.5 q0 -69 27.5 -94 q27.5 -25 72.5 -25 q40 0 72.5 16.5 q32.5 16.5 61.5 52.5 l25 -20 q-44 -71 -98.5 -99 q-54.5 -28 -111.5 -28 Z" /><glyph glyph-name="f" unicode="f" d="M-31 -228 q-53 0 -85.5 22 q-32.5 22 -32.5 64 q0 22 13 39 q13 17 37 17 q27 0 38.5 -15 q11.5 -15 15.5 -34 q4 -19 9.5 -34 q5.5 -15 19.5 -15 q16 0 28.5 18 q12.5 18 22 46 q9.5 28 16.5 59 q7 31 11.5 59 q4.5 28 7.5 44 l62 393 q8 55 19 102.5 q11 47.5 30 80.5 q14 25 35 46 q21 21 55 34.5 q34 13.5 86 13.5 q34 0 61 -9.5 q27 -9.5 43 -28.5 q16 -19 16 -49 q0 -25 -16 -38.5 q-16 -13.5 -38 -13.5 q-25 0 -35.5 15.5 q-10.5 15.5 -14.5 33.5 q-4 21 -9 37 q-5 16 -21 16 q-28 0 -47 -36 q-19 -36 -29 -99 l-71 -458 q-5 -30 -14.5 -70 q-9.5 -40 -25.5 -82 q-16 -42 -41 -78 q-25 -36 -61 -58 q-36 -22 -85 -22 ZM349 417 l-306 0 l7 51 l306 0 l-7 -51 Z" /><glyph glyph-name="g" unicode="g" d="M179 -228 q-77 0 -122.5 16.5 q-45.5 16.5 -65.5 44 q-20 27.5 -20 59.5 q0 29 16 53 q16 24 45.5 41.5 q29.5 17.5 71.5 26.5 l27 -16 q-22 -12 -41 -36.5 q-19 -24.5 -19 -56.5 q0 -21 12 -41.5 q12 -20.5 39 -33 q27 -12.5 70 -12.5 q61 0 92 21.5 q31 21.5 31 52.5 q0 26 -19.5 43 q-19.5 17 -52 29 q-32.5 12 -72 20.5 q-39.5 8.5 -78.5 15.5 l0 16 q-17 8 -29.5 25.5 q-12.5 17.5 -12.5 39.5 q0 32 27 54.5 q27 22.5 60 31.5 l0 6 q-21 8 -43 24 q-22 16 -37 42.5 q-15 26.5 -15 67.5 q0 51 25.5 90 q25.5 39 72 61 q46.5 22 109.5 22 q33 0 58 -4.5 q25 -4.5 45.5 -11.5 q20.5 -7 39.5 -15 l0 -36 q10 -14 21 -36 q11 -22 11 -56 q0 -43 -23 -79.5 q-23 -36.5 -67.5 -59 q-44.5 -22.5 -109.5 -25.5 q-33 -3 -48 -18.5 q-15 -15.5 -15 -28.5 q0 -14 19 -22.5 q19 -8.5 49 -15.5 q30 -7 63.5 -16 q33.5 -9 63.5 -24 q30 -15 49 -39.5 q19 -24.5 19 -62.5 q0 -67 -61.5 -112 q-61.5 -45 -184.5 -45 ZM222 195 q34 0 53 21 q19 21 26.5 52.5 q7.5 31.5 7.5 63.5 q0 53 -17.5 81.5 q-17.5 28.5 -50.5 28.5 q-38 0 -61 -35.5 q-23 -35.5 -23 -100.5 q0 -56 15 -83.5 q15 -27.5 50 -27.5 ZM482 467 l-6 -66 l-98 16 l-52 50 l156 0 Z" /><glyph glyph-name="h" unicode="h" d="M400 -11 q-34 0 -51.5 8.5 q-17.5 8.5 -24 22 q-6.5 13.5 -6.5 28.5 q0 13 2.5 26 q2.5 13 3.5 17 l58 227 q0 0 3.5 15.5 q3.5 15.5 3.5 29.5 q0 13 -6 22.5 q-6 9.5 -19 9.5 q-20 0 -42.5 -19.5 q-22.5 -19.5 -45.5 -50.5 q-23 -31 -43 -65 q-20 -34 -35 -64 q-15 -30 -22 -48 l19 126 q15 25 36 60 q21 35 50 68.5 q29 33.5 66.5 55.5 q37.5 22 85.5 22 q33 0 50.5 -10.5 q17.5 -10.5 24 -28 q6.5 -17.5 6.5 -36.5 q0 -19 -4 -41.5 q-4 -22.5 -6 -33.5 l-56 -224 q0 0 -2 -7.5 q-2 -7.5 -2 -15.5 q0 -20 21 -20 q25 0 43 18.5 q18 18.5 28 30.5 l28 -20 q-13 -17 -32 -42 q-19 -25 -50.5 -43 q-31.5 -18 -81.5 -18 ZM145 0 l-120 0 l128 601 q0 0 2 11.5 q2 11.5 2 20.5 q0 13 -8 20.5 q-8 7.5 -26 7.5 q-9 0 -20 -1 q-11 -1 -11 -1 l0 36 l156 11 l43 0 l-67 -290 l-34 -132 l19 0 l-64 -284 Z" /><glyph glyph-name="i" unicode="i" d="M124 -11 q-38 0 -56.5 16.5 q-18.5 16.5 -18.5 42.5 q0 13 3 31.5 q3 18.5 13 62.5 l49 228 q0 0 1.5 10 q1.5 10 1.5 22 q0 10 -6 19 q-6 9 -26 9 q-13 0 -23 -1 q-10 -1 -10 -1 l0 37 l160 11 l41 0 l-74 -352 q0 0 -3 -15.5 q-3 -15.5 -3 -26.5 q0 -19 19 -19 q26 0 43.5 18 q17.5 18 29.5 31 l27 -20 q-17 -24 -37 -48 q-20 -24 -51 -39 q-31 -15 -80 -16 ZM207 547 q-32 0 -51 19 q-19 19 -19 50 q0 32 19 51 q19 19 52 19 q35 0 52.5 -19 q17.5 -19 17.5 -50 q0 -32 -18.5 -51 q-18.5 -19 -52.5 -19 Z" /><glyph glyph-name="j" unicode="j" d="M-40 -228 q-56 0 -89.5 21 q-33.5 21 -33.5 62 q0 22 13 40.5 q13 18.5 39 18.5 q26 0 37 -15 q11 -15 15 -34 q4 -19 9 -33.5 q5 -14.5 20 -14.5 q14 0 26 14 q12 14 22.5 37.5 q10.5 23.5 18.5 52 q8 28.5 14.5 58 q6.5 29.5 10.5 55.5 l64 337 q0 0 1.5 9.5 q1.5 9.5 1.5 22.5 q0 10 -6 19 q-6 9 -26 9 q-13 0 -23.5 -1 q-10.5 -1 -10.5 -1 l0 36 l159 11 l41 0 l-73 -401 q-7 -36 -17 -77.5 q-10 -41.5 -27 -81.5 q-17 -40 -41.5 -72.5 q-24.5 -32.5 -60 -52 q-35.5 -19.5 -84.5 -19.5 ZM216 548 q-33 0 -52 18.5 q-19 18.5 -19 49.5 q0 32 19 51 q19 19 52 19 q34 0 52.5 -19 q18.5 -19 18.5 -50 q0 -32 -18.5 -50.5 q-18.5 -18.5 -52.5 -18.5 Z" /><glyph glyph-name="k" unicode="k" d="M148 0 l-120 0 l118 599 q0 0 1.5 9 q1.5 9 1.5 21 q0 10 -5.5 21 q-5.5 11 -25.5 11 q-13 0 -23 -1 q-10 -1 -10 -1 l0 35 l163 11 l35 0 l-94 -472 l-3 -31 l-38 -202 ZM381 -10 q-36 0 -56.5 15.5 q-20.5 15.5 -31 36.5 q-10.5 21 -17.5 37 l-57 158 l86 64 l78 -181 q11 -24 22.5 -40 q11.5 -16 32.5 -16 q27 0 42 14.5 q15 14.5 32 36.5 l27 -18 q-6 -12 -17.5 -29.5 q-11.5 -17.5 -29.5 -35.5 q-18 -18 -45 -30 q-27 -12 -66 -12 ZM236 230 l-65 -51 l6 68 l21 0 l148 125 q10 8 15 17 q5 9 5 19 q0 12 -9.5 20 q-9.5 8 -32.5 9 l3 31 l229 0 l-3 -31 q-46 -1 -77 -20 q-31 -19 -57 -41 l-121 -101 l-62 -45 Z" /><glyph glyph-name="l" unicode="l" d="M121 -11 q-44 0 -61 17.5 q-17 17.5 -17 43.5 q0 18 4.5 42.5 q4.5 24.5 9.5 51.5 l92 455 q0 0 1.5 10.5 q1.5 10.5 1.5 22.5 q0 10 -5.5 19.5 q-5.5 9.5 -25.5 9.5 q-13 0 -22.5 -1 q-9.5 -1 -9.5 -1 l0 35 l164 11 l34 0 l-115 -579 q0 -4 -2.5 -19.5 q-2.5 -15.5 -2.5 -24.5 q0 -10 6 -14.5 q6 -4.5 15 -4.5 q25 0 42.5 18 q17.5 18 29.5 31 l27 -20 q-16 -24 -37 -48 q-21 -24 -51.5 -39.5 q-30.5 -15.5 -77.5 -15.5 Z" /><glyph glyph-name="m" unicode="m" d="M679 -11 q-48 0 -64.5 19 q-16.5 19 -16.5 42 q0 11 2 22.5 q2 11.5 3 15.5 l52 185 q5 17 10.5 43 q5.5 26 5.5 43 q0 14 -5 25 q-5 11 -19 11 q-17 0 -38 -19.5 q-21 -19.5 -43.5 -52 q-22.5 -32.5 -43.5 -70.5 q-21 -38 -37.5 -75 q-16.5 -37 -25.5 -67 l37 167 q19 38 42.5 74 q23.5 36 52 65 q28.5 29 61 46 q32.5 17 70.5 17 q43 0 57.5 -21.5 q14.5 -21.5 14.5 -49.5 q0 -21 -4 -44 q-4 -23 -6 -31 l-58 -228 q0 0 -1.5 -7.5 q-1.5 -7.5 -1.5 -15.5 q0 -20 20 -20 q25 0 42.5 17.5 q17.5 17.5 29.5 31.5 l27 -20 q-7 -9 -18.5 -26 q-11.5 -17 -30.5 -35 q-19 -18 -47 -30 q-28 -12 -67 -12 ZM164 0 l-120 0 l80 371 q0 0 2 11 q2 11 2 21 q0 14 -7 21 q-7 7 -27 7 q-8 0 -19.5 -1 q-11.5 -1 -11.5 -1 l0 36 l162 11 l31 0 l-45 -184 l19 0 l-66 -292 ZM435 0 l-121 0 q16 59 27.5 101 q11.5 42 20 75.5 q8.5 33.5 16 66 q7.5 32.5 16.5 73.5 q0 1 2.5 15.5 q2.5 14.5 2.5 27.5 q0 15 -5 25.5 q-5 10.5 -19 10.5 q-22 0 -48 -26 q-26 -26 -52.5 -68 q-26.5 -42 -48.5 -90 q-22 -48 -37 -90 l27 161 q14 24 35 57.5 q21 33.5 49 66 q28 32.5 64 54 q36 21.5 81 21.5 q44 0 58.5 -22.5 q14.5 -22.5 14.5 -48.5 q0 -20 -4 -40 q-4 -20 -5 -23 l-16 -56 l14 0 l-48 -180 l-24 -111 Z" /><glyph glyph-name="n" unicode="n" d="M414 -11 q-46 0 -63 18 q-17 18 -17 45 q0 12 2 22.5 q2 10.5 3 14.5 l60 219 q0 0 3.5 16 q3.5 16 3.5 33 q0 16 -5 27 q-5 11 -20 11 q-18 0 -40.5 -20 q-22.5 -20 -45.5 -52.5 q-23 -32.5 -44 -68.5 q-21 -36 -37 -69.5 q-16 -33.5 -24 -55.5 l24 138 q12 23 33 58.5 q21 35.5 49.5 71 q28.5 35.5 67.5 59.5 q39 24 90 24 q45 0 60.5 -22 q15.5 -22 15.5 -54 q0 -21 -3 -38.5 q-3 -17.5 -6 -31.5 l-59 -228 q0 0 -1.5 -7.5 q-1.5 -7.5 -1.5 -15.5 q0 -20 20 -20 q24 0 42 17.5 q18 17.5 29 31.5 l27 -20 q-6 -9 -17.5 -25.5 q-11.5 -16.5 -31 -35 q-19.5 -18.5 -47 -30.5 q-27.5 -12 -67.5 -12 ZM164 0 l-119 0 l79 371 q0 0 2 11 q2 11 2 20 q0 14 -7.5 21.5 q-7.5 7.5 -25.5 7.5 q-9 0 -20 -1 q-11 -1 -11 -1 l0 36 l154 11 l38 0 l-49 -200 l22 0 l-65 -276 Z" /><glyph glyph-name="o" unicode="o" d="M222 -12 q-54 0 -97 21 q-43 21 -68 64 q-25 43 -25 111 q0 60 18.5 113.5 q18.5 53.5 54 94.5 q35.5 41 85 64.5 q49.5 23.5 110.5 23.5 q56 0 98 -21.5 q42 -21.5 66.5 -65.5 q24.5 -44 24.5 -112 q0 -60 -19 -113 q-19 -53 -54 -93.5 q-35 -40.5 -84 -63.5 q-49 -23 -110 -23 ZM232 31 q29 0 53 22.5 q24 22.5 40.5 60 q16.5 37.5 25.5 86 q9 48.5 9 100.5 q0 40 -5.5 71 q-5.5 31 -21 49 q-15.5 18 -44.5 18 q-31 0 -55 -22 q-24 -22 -40.5 -60 q-16.5 -38 -25 -86.5 q-8.5 -48.5 -8.5 -100.5 q0 -38 5.5 -69 q5.5 -31 22 -50 q16.5 -19 44.5 -19 Z" /><glyph glyph-name="p" unicode="p" d="M265 -11 q-35 0 -62.5 11 q-27.5 11 -40.5 19 l11 60 q15 -15 36 -27.5 q21 -12.5 50 -12.5 q43 0 75.5 32.5 q32.5 32.5 50.5 90.5 q18 58 18 135 q0 50 -10 75.5 q-10 25.5 -24.5 34 q-14.5 8.5 -28.5 8.5 q-29 0 -51 -17.5 q-22 -17.5 -38 -44 q-16 -26.5 -27 -56.5 l5 86 q28 30 51.5 52 q23.5 22 48.5 33.5 q25 11.5 57 11.5 q40 0 72.5 -19 q32.5 -19 51.5 -58.5 q19 -39.5 19 -102.5 q0 -93 -36 -163 q-36 -70 -95.5 -109 q-59.5 -39 -132.5 -39 ZM236 -220 l-237 0 l127 599 q1 5 1.5 9.5 q0.5 4.5 0.5 9.5 q0 15 -8.5 22 q-8.5 7 -29.5 7 q-10 0 -20 -1 q-10 -1 -10 -1 l0 34 l159 15 l33 0 l-15 -76 l10 0 l-100 -490 q-1 -7 -2.5 -19 q-1.5 -12 -1.5 -20 q0 -20 20.5 -36.5 q20.5 -16.5 80.5 -16.5 l-8 -36 Z" /><glyph glyph-name="q" unicode="q" d="M459 -220 l-212 0 l65 282 l-10 0 q-24 -30 -46.5 -46.5 q-22.5 -16.5 -43.5 -22.5 q-21 -6 -43 -6 q-72 0 -105.5 50.5 q-33.5 50.5 -33.5 128.5 q0 68 22 125.5 q22 57.5 59.5 100 q37.5 42.5 85 65.5 q47.5 23 99.5 23 q45 0 72 -14.5 q27 -14.5 42 -31.5 l5 0 l33 39 l64 0 l-115 -573 q0 0 -1.5 -9 q-1.5 -9 -1.5 -22 q0 -26 13 -39 q13 -13 57 -13 l-5 -37 ZM218 63 q26 0 47.5 14 q21.5 14 38 38.5 q16.5 24.5 25.5 56.5 q8 27 15 61 q7 34 11 65.5 q4 31.5 4 49.5 q0 37 -18 63.5 q-18 26.5 -52 26.5 q-40 0 -69.5 -37.5 q-29.5 -37.5 -46 -98 q-16.5 -60.5 -16.5 -130.5 q0 -51 12.5 -80 q12.5 -29 48.5 -29 Z" /><glyph glyph-name="r" unicode="r" d="M176 86 l43 185 q10 19 20.5 46 q10.5 27 24.5 55 q14 28 31.5 52.5 q17.5 24.5 41 39.5 q23.5 15 54.5 15 q28 0 46.5 -16.5 q18.5 -16.5 18.5 -50.5 q0 -36 -20 -54.5 q-20 -18.5 -43 -18.5 q-19 0 -29.5 10.5 q-10.5 10.5 -14 20.5 q-3.5 10 -5.5 10 q-18 0 -38 -23.5 q-20 -23.5 -39 -60 q-19 -36.5 -37 -77.5 q-18 -41 -32 -77 q-14 -36 -22 -56 ZM167 0 l-123 0 l74 339 q3 15 6 32 q3 17 3 30 q0 14 -6.5 22 q-6.5 8 -26.5 8 q-8 0 -19.5 -1 q-11.5 -1 -11.5 -1 l0 36 l152 11 l41 0 l-44 -194 l15 0 l-60 -282 Z" /><glyph glyph-name="s" unicode="s" d="M170 -14 q-40 0 -68.5 9 q-28.5 9 -48.5 20 l-4 0 l-21 -26 l-31 0 l33 179 l35 0 q8 -66 27 -103 q19 -37 70 -37 q34 0 53.5 16 q19.5 16 19.5 48 q0 32 -19.5 57.5 q-19.5 25.5 -53.5 58.5 q-23 25 -43 46.5 q-20 21.5 -32.5 45.5 q-12.5 24 -12.5 54 q0 57 40.5 91.5 q40.5 34.5 109.5 34.5 q36 0 66 -9 q30 -9 47 -20 l4 0 l26 28 l27 0 l-22 -160 l-34 0 q-4 58 -25.5 90 q-21.5 32 -65.5 32 q-32 0 -47.5 -16 q-15.5 -16 -15.5 -38 q0 -17 10 -33.5 q10 -16.5 27.5 -35 q17.5 -18.5 40.5 -43.5 q38 -39 63.5 -73 q25.5 -34 25.5 -81 q0 -40 -23 -70.5 q-23 -30.5 -63.5 -47.5 q-40.5 -17 -94.5 -17 Z" /><glyph glyph-name="t" unicode="t" d="M130 -12 q-37 0 -57.5 16 q-20.5 16 -20.5 53 q0 13 2.5 29.5 q2.5 16.5 5.5 29.5 l65 304 l-59 0 l6 35 q36 17 60.5 32 q24.5 15 46 40 q21.5 25 49.5 66 l50 0 l-96 -459 q0 0 -3.5 -18.5 q-3.5 -18.5 -3.5 -31.5 q0 -9 3.5 -15 q3.5 -6 15.5 -6 q18 0 35 11.5 q17 11.5 40 40.5 l27 -20 q-14 -20 -36 -45 q-22 -25 -53.5 -43.5 q-31.5 -18.5 -76.5 -18.5 ZM340 420 l-109 0 l8 48 l111 0 l-10 -48 Z" /><glyph glyph-name="u" unicode="u" d="M128 -11 q-42 0 -59 23 q-17 23 -17 59 q0 18 3.5 38 q3.5 20 7.5 36 l50 214 q0 0 1.5 7.5 q1.5 7.5 3 18 q1.5 10.5 1.5 17.5 q0 12 -8 20 q-8 8 -26 8 q-12 0 -21 -1 q-9 -1 -12 -1 l0 37 l161 11 l44 0 l-71 -310 q-2 -7 -4 -20.5 q-2 -13.5 -2 -24.5 q0 -19 6.5 -31 q6.5 -12 20.5 -12 q19 0 40 15.5 q21 15.5 41 41.5 q20 26 38.5 58 q18.5 32 32 65.5 q13.5 33.5 19.5 63.5 l33 151 l120 0 l-72 -350 q0 0 -3 -16 q-3 -16 -3 -27 q0 -6 4 -11.5 q4 -5.5 16 -5.5 q17 0 32.5 11 q15.5 11 26 23 q10.5 12 12.5 15 l27 -20 q-18 -29 -40 -52.5 q-22 -23.5 -51.5 -37 q-29.5 -13.5 -72.5 -13.5 q-40 0 -59.5 14.5 q-19.5 14.5 -19.5 44.5 q0 22 5.5 44.5 q5.5 22.5 12.5 52.5 l-11 0 q-11 -18 -29.5 -44.5 q-18.5 -26.5 -43.5 -52 q-25 -25.5 -58.5 -42.5 q-33.5 -17 -75.5 -17 Z" /><glyph glyph-name="v" unicode="v" d="M188 -8 l-85 0 q-1 62 -4 125.5 q-3 63.5 -7.5 127 q-4.5 63.5 -11.5 123.5 q-4 35 -11.5 47 q-7.5 12 -33.5 12 q-12 0 -32 -3 l0 38 l132 15 l60 0 q9 -96 14.5 -185.5 q5.5 -89.5 6.5 -183.5 l-5 -49 l4 0 q47 38 85.5 77.5 q38.5 39.5 61 82.5 q22.5 43 22.5 89 q0 27 -8 43 q-8 16 -18 28 q-10 12 -17.5 24 q-7.5 12 -7.5 31 q0 26 16 37.5 q16 11.5 38 11.5 q26 0 42 -14 q16 -14 22.5 -37.5 q6.5 -23.5 6.5 -52.5 q0 -66 -22.5 -123 q-22.5 -57 -61 -105 q-38.5 -48 -86.5 -87.5 q-48 -39.5 -100 -71.5 Z" /><glyph glyph-name="w" unicode="w" d="M222 -8 l-118 0 q-1 76 -4.5 136.5 q-3.5 60.5 -8.5 117.5 q-5 57 -11 122 q-4 35 -12 47 q-8 12 -33 12 q-8 0 -14.5 -0.5 q-6.5 -0.5 -17.5 -2.5 l0 38 l133 15 l59 0 q6 -64 10.5 -120.5 q4.5 -56.5 7.5 -113 q3 -56.5 4 -119.5 l-5 -49 l6 0 l179 396 l99 0 q4 -61 7.5 -119.5 q3.5 -58.5 6.5 -117.5 q3 -59 4 -125 l-3 -48 l5 0 q49 38 82.5 77.5 q33.5 39.5 51 81.5 q17.5 42 17.5 85 q0 29 -7.5 46 q-7.5 17 -17.5 28 q-10 11 -18 22.5 q-8 11.5 -8 31.5 q0 27 16.5 38 q16.5 11 37.5 11 q27 0 42.5 -13.5 q15.5 -13.5 22 -37.5 q6.5 -24 6.5 -54 q0 -86 -35 -158 q-35 -72 -92.5 -129 q-57.5 -57 -125.5 -98 l-87 0 q-1 60 -3.5 115 q-2.5 55 -5.5 110 q-3 55 -6 114 l-6 0 l-158 -339 Z" /><glyph glyph-name="x" unicode="x" d="M331 -11 q-42 0 -63.5 24.5 q-21.5 24.5 -32.5 73.5 l-28 116 l-9 16 l-29 103 q-12 43 -24.5 64.5 q-12.5 21.5 -31.5 29.5 q-19 8 -50 7 q-9 0 -18 -1 q-9 -1 -12 -2 l0 39 l136 16 l58 0 q16 -21 27 -48 q11 -27 21 -68 l11 -63 l11 -23 l26 -85 q18 -59 31.5 -84 q13.5 -25 31.5 -25 q19 0 35 15 q16 15 34 40 l27 -19 q-10 -16 -25 -37.5 q-15 -21.5 -34 -41.5 q-19 -20 -42 -33.5 q-23 -13.5 -50 -13.5 ZM27 -10 q-33 0 -48 17 q-15 17 -15 38 q0 19 12.5 32.5 q12.5 13.5 31.5 13.5 q16 0 33.5 -6 q17.5 -6 29.5 -6 q7 0 14.5 3 q7.5 3 17.5 13.5 q10 10.5 23 31.5 l74 118 l23 -59 l-19 0 l-55 -101 q-22 -40 -48.5 -67.5 q-26.5 -27.5 -73.5 -27.5 ZM358 352 l-64 -102 l-22 58 l18 0 l43 77 q16 28 33.5 49.5 q17.5 21.5 40.5 34.5 q23 13 55 13 q32 0 45 -14.5 q13 -14.5 13 -38.5 q0 -20 -14 -35.5 q-14 -15.5 -37 -15.5 q-18 0 -30 7.5 q-12 7.5 -27 7.5 q-17 0 -29 -10 q-12 -10 -25 -31 Z" /><glyph glyph-name="y" unicode="y" d="M9 -220 q-20 0 -44.5 7 q-24.5 7 -41.5 23.5 q-17 16.5 -17 44.5 q0 25 15 38.5 q15 13.5 36 13.5 q20 0 33 -10 q13 -10 21.5 -23.5 q8.5 -13.5 16 -23.5 q7.5 -10 16.5 -10 q10 0 27.5 16 q17.5 16 38 41 q20.5 25 39.5 51 q19 26 31 46 l66 104 l24 0 l106 160 q14 21 23 42 q9 21 9 37 q0 20 -12 34 q-12 14 -23.5 29 q-11.5 15 -11.5 36 q0 22 14 35 q14 13 40 13 q34 0 52 -22.5 q18 -22.5 18 -59.5 q0 -27 -11 -63.5 q-11 -36.5 -37 -78.5 q-19 -30 -39.5 -60 q-20.5 -30 -40.5 -58.5 q-20 -28.5 -39.5 -55.5 q-19.5 -27 -37.5 -51 q-63 -86 -107 -142.5 q-44 -56.5 -82 -84.5 q-38 -28 -82 -28 ZM263 82 l-88 -117 l-71 366 q-4 26 -10.5 47.5 q-6.5 21.5 -20.5 35.5 q-14 14 -44 14 q-9 0 -19 -1 q-10 -1 -13 -1 l0 38 l152 11 l37 0 q12 -19 19.5 -37.5 q7.5 -18.5 13.5 -45 q6 -26.5 13 -66.5 l23 -126 l8 -118 Z" /><glyph glyph-name="z" unicode="z" d="M318 -90 q-44 0 -73.5 10.5 q-29.5 10.5 -50.5 26 q-21 15.5 -39 31 q-18 15.5 -38 26 q-20 10.5 -48 10.5 q-18 0 -31.5 -6 q-13.5 -6 -31.5 -22 l-31 33 l343 348 l0 6 l-151 0 q-25 0 -39 -8.5 q-14 -8.5 -23.5 -26.5 q-9.5 -18 -20.5 -47 l-41 0 l40 177 l369 0 l-2 -47 l-305 -308 l0 -7 q28 -3 47.5 -20 q19.5 -17 35 -40 q15.5 -23 29.5 -45 q14 -22 30.5 -37.5 q16.5 -15.5 39.5 -15.5 q16 0 23 6.5 q7 6.5 7 16.5 q0 11 -6.5 25 q-6.5 14 -6.5 33 q0 22 13 38 q13 16 38 16 q28 0 42.5 -19.5 q14.5 -19.5 14.5 -52.5 q0 -33 -13.5 -53 q-13.5 -20 -34 -30.5 q-20.5 -10.5 -44 -14 q-23.5 -3.5 -42.5 -3.5 Z" /><glyph glyph-name="uni1E9A" unicode="&#x1e9a;" d="M302 529 l-34 0 l12 54 l30 0 q31 0 48.5 16.5 q17.5 16.5 17.5 42.5 q0 19 -11 29 q-11 10 -34 10 l-30 0 l12 55 l31 0 q40 0 66.5 -22.5 q26.5 -22.5 26.5 -66.5 q0 -59 -39.5 -88.5 q-39.5 -29.5 -95.5 -29.5 ZM168 -14 q-37 0 -68.5 17 q-31.5 17 -50.5 56 q-19 39 -19 104 q0 69 22 127 q22 58 58.5 100.5 q36.5 42.5 83.5 66 q47 23.5 97 23.5 q44 0 66 -16.5 q22 -16.5 38 -37.5 l6 0 l38 47 l70 0 l-72 -346 q0 0 -2.5 -12.5 q-2.5 -12.5 -2.5 -23.5 q0 -10 4.5 -17.5 q4.5 -7.5 18.5 -7.5 q15 0 26.5 8 q11.5 8 21.5 18.5 q10 10.5 17 20.5 l28 -22 q-15 -22 -35 -46 q-20 -24 -50 -40 q-30 -16 -75 -16 q-34 0 -51.5 12.5 q-17.5 12.5 -17.5 43.5 q0 7 1 15 q1 8 2 16 l-7 0 q-33 -43 -67.5 -66.5 q-34.5 -23.5 -79.5 -23.5 ZM217 63 q28 0 49 14.5 q21 14.5 37.5 42 q16.5 27.5 26.5 65.5 q6 21 12 49.5 q6 28.5 10.5 58 q4.5 29.5 4.5 52.5 q0 38 -15.5 65.5 q-15.5 27.5 -50.5 27.5 q-32 0 -57 -23 q-25 -23 -43 -61 q-18 -38 -27.5 -85.5 q-9.5 -47.5 -9.5 -96.5 q0 -64 17 -86.5 q17 -22.5 46 -22.5 Z" /><glyph glyph-name="aogonek" unicode="&#x105;" d="M369 -219 q-43 0 -66.5 21 q-23.5 21 -23.5 55 q0 32 15 56 q15 24 37 42 q22 18 44 32 l0 4 q-28 2 -42 14 q-14 12 -14 39 q0 9 1 16.5 q1 7.5 2 15.5 l-8 0 q-35 -47 -72 -68 q-37 -21 -90 -21 q-51 0 -86.5 38.5 q-35.5 38.5 -35.5 119.5 q0 77 21.5 139 q21.5 62 58.5 106 q37 44 84.5 67 q47.5 23 98.5 23 q43 0 65.5 -17.5 q22.5 -17.5 36.5 -36.5 l5 0 l38 47 l71 0 l-72 -346 q0 0 -2.5 -12.5 q-2.5 -12.5 -2.5 -23.5 q0 -10 4 -17.5 q4 -7.5 18 -7.5 q15 0 27 8 q12 8 22 18.5 q10 10.5 17 20.5 l28 -22 q-15 -22 -36.5 -47 q-21.5 -25 -52.5 -40 q-22 -15 -44 -30 q-22 -15 -36.5 -35.5 q-14.5 -20.5 -14.5 -51.5 q0 -22 12 -34.5 q12 -12.5 33 -12.5 q29 0 45 7.5 q16 7.5 40 23.5 l17 -24 q-32 -29 -65 -47.5 q-33 -18.5 -77 -18.5 ZM218 63 q26 0 48.5 16 q22.5 16 39 43.5 q16.5 27.5 24.5 62.5 q5 19 11.5 50.5 q6.5 31.5 11.5 62 q5 30.5 5 46.5 q0 35 -16.5 64.5 q-16.5 29.5 -52.5 29.5 q-31 0 -55.5 -23 q-24.5 -23 -42 -61.5 q-17.5 -38.5 -26.5 -87 q-9 -48.5 -9 -98.5 q0 -61 17 -83 q17 -22 45 -22 Z" /><glyph glyph-name="ae" unicode="æ" d="M152 -13 q-54 0 -88 37 q-34 37 -34 117 q0 75 20.5 136.5 q20.5 61.5 59.5 106.5 q39 45 94 69.5 q55 24.5 125 24.5 q29 0 56 -3 q27 -3 47 -11 l10 -16 l-18 -61 l26 0 l-99 -275 l-21 0 q-17 -33 -40.5 -61.5 q-23.5 -28.5 -57 -46 q-33.5 -17.5 -80.5 -17.5 ZM211 63 q23 0 43 17 q20 17 35 46.5 q15 29.5 24 64.5 q5 20 12.5 52.5 q7.5 32.5 15 70 q7.5 37.5 12.5 72.5 q1 2 -9.5 11 q-10.5 9 -29 17 q-18.5 8 -42.5 8 q-35 0 -61.5 -33.5 q-26.5 -33.5 -41 -90.5 q-14.5 -57 -14.5 -129 q0 -44 7 -66.5 q7 -22.5 19.5 -31 q12.5 -8.5 29.5 -8.5 ZM465 -13 q-50 0 -78.5 19.5 q-28.5 19.5 -40.5 52 q-12 32.5 -12 69.5 l85 241 q33 43 61.5 67 q28.5 24 58.5 33.5 q30 9.5 65 9.5 q28 0 54 -8 q26 -8 43 -27 q17 -19 17 -54 q0 -44 -19.5 -75.5 q-19.5 -31.5 -51.5 -53.5 q-32 -22 -71 -35.5 q-39 -13.5 -78 -20.5 q-39 -7 -73 -10 l1 37 q47 2 85.5 20.5 q38.5 18.5 61.5 51 q23 32.5 23 73.5 q0 31 -9.5 44.5 q-9.5 13.5 -26.5 13.5 q-23 0 -46 -22 q-23 -22 -41 -58 q-18 -36 -29 -81 q-11 -45 -11 -90 q0 -69 28.5 -94.5 q28.5 -25.5 70.5 -25.5 q41 0 74.5 16.5 q33.5 16.5 61.5 52.5 l25 -20 q-32 -51 -68.5 -78.5 q-36.5 -27.5 -77 -37.5 q-40.5 -10 -82.5 -10 Z" /><glyph glyph-name="uni0253" unicode="&#x253;" d="M205 -13 q-92 0 -172 37 l91 460 q13 67 47 118.5 q34 51.5 87 80.5 q53 29 122 29 q32 0 58 -7 q26 -7 41.5 -23 q15.5 -16 15.5 -44 q0 -28 -17 -40.5 q-17 -12.5 -37 -12.5 q-22 0 -33 12.5 q-11 12.5 -19 29 q-8 16.5 -20 29 q-12 12.5 -35 12.5 q-29 0 -49.5 -23.5 q-20.5 -23.5 -31.5 -79.5 l-35 -181 l-6 -36 l-53 -275 q10 -9 30.5 -20.5 q20.5 -11.5 43.5 -11.5 q48 0 80.5 34.5 q32.5 34.5 49 94 q16.5 59.5 16.5 133.5 q0 66 -18.5 89.5 q-18.5 23.5 -44.5 23.5 q-29 0 -52.5 -19 q-23.5 -19 -39.5 -46 q-16 -27 -23 -49 l6 109 l22 0 q24 24 44.5 39.5 q20.5 15.5 42 22.5 q21.5 7 47.5 7 q60 0 101 -43 q41 -43 41 -133 q0 -69 -20 -126.5 q-20 -57.5 -58 -100.5 q-38 -43 -94 -66.5 q-56 -23.5 -128 -23.5 Z" /><glyph glyph-name="uni0188" unicode="&#x188;" d="M196 -14 q-59 0 -95.5 24 q-36.5 24 -53 65 q-16.5 41 -16.5 93 q0 64 21.5 120.5 q21.5 56.5 59 99.5 q37.5 43 87.5 67.5 q50 24.5 108 24.5 q33 0 62 -10.5 q29 -10.5 47.5 -32 q18.5 -21.5 18.5 -54.5 q0 -30 -17 -54 q-17 -24 -51 -24 q-22 0 -35 11 q-13 11 -13 33 q0 20 8.5 36 q8.5 16 8.5 28 q0 11 -10 19 q-10 8 -33 8 q-36 0 -62.5 -21.5 q-26.5 -21.5 -44 -57.5 q-17.5 -36 -26 -79.5 q-8.5 -43.5 -8.5 -88.5 q0 -50 10.5 -78.5 q10.5 -28.5 31.5 -40 q21 -11.5 52 -11.5 q46 0 77.5 18.5 q31.5 18.5 53.5 46.5 l24 -19 q-20 -33 -49 -61 q-29 -28 -67 -45 q-38 -17 -89 -17 ZM366 451 l-42 17 q12 51 32.5 96 q20.5 45 56.5 73 q36 28 92 28 q37 0 57.5 -16 q20.5 -16 20.5 -43 q0 -27 -14.5 -38.5 q-14.5 -11.5 -34.5 -11.5 q-18 0 -26 10 q-8 10 -12 23 q-4 13 -9.5 23 q-5.5 10 -19.5 10 q-21 0 -38.5 -17 q-17.5 -17 -33 -54.5 q-15.5 -37.5 -29.5 -99.5 Z" /><glyph glyph-name="dcroat" unicode="&#x111;" d="M170 -13 q-61 0 -100 43 q-39 43 -39 135 q0 68 20.5 124.5 q20.5 56.5 56 98.5 q35.5 42 81.5 65 q46 23 96 23 q32 0 54.5 -9 q22.5 -9 40.5 -27 l4 0 l31 158 q0 0 1.5 11 q1.5 11 1.5 21 q0 13 -6 22 q-6 9 -29 9 q-9 0 -20 -1 q-11 -1 -11 -1 l0 35 l160 11 l37 0 l-112 -583 q0 0 -2.5 -15 q-2.5 -15 -2.5 -24 q0 -11 7 -15.5 q7 -4.5 16 -4.5 q21 0 40.5 17.5 q19.5 17.5 29.5 31.5 l27 -20 q-17 -23 -37 -47.5 q-20 -24.5 -49 -40 q-29 -15.5 -73 -15.5 q-36 0 -53 14.5 q-17 14.5 -17 44.5 q0 7 0.5 14.5 q0.5 7.5 1.5 13.5 l-8 0 q-34 -45 -68 -67 q-34 -22 -79 -22 ZM217 63 q28 0 51 15 q23 15 39 40 q16 25 23 54 q14 59 22 104 q8 45 8 68 q0 24 -8 44.5 q-8 20.5 -24 33 q-16 12.5 -39 12.5 q-32 0 -56.5 -23 q-24.5 -23 -41.5 -60.5 q-17 -37.5 -26 -84 q-9 -46.5 -9 -92.5 q0 -67 17 -89 q17 -22 44 -22 ZM584 533 l-343 0 l10 48 l343 0 l-10 -48 Z" /><glyph glyph-name="uni0257" unicode="&#x257;" d="M170 -13 q-67 0 -103 47 q-36 47 -36 131 q0 66 20.5 122.5 q20.5 56.5 55.5 100.5 q35 44 81 68 q46 24 97 24 q33 0 56.5 -9 q23.5 -9 38.5 -25 l5 0 l8 36 q13 59 44 111.5 q31 52.5 82 85.5 q51 33 124 33 q49 0 82 -17 q33 -17 33 -54 q0 -28 -17 -40.5 q-17 -12.5 -36 -12.5 q-22 0 -33 12 q-11 12 -19 28 q-8 16 -19.5 27.5 q-11.5 11.5 -34.5 11.5 q-31 0 -49 -27 q-18 -27 -26 -73 l-87 -445 q0 0 -2.5 -15 q-2.5 -15 -2.5 -24 q0 -11 7 -15.5 q7 -4.5 16 -4.5 q21 0 40.5 17.5 q19.5 17.5 29.5 31.5 l27 -20 q-17 -23 -37 -47.5 q-20 -24.5 -49 -40 q-29 -15.5 -73 -15.5 q-37 0 -53.5 15.5 q-16.5 15.5 -16.5 43.5 q0 7 0.5 14.5 q0.5 7.5 1.5 13.5 l-8 0 q-36 -47 -70 -68 q-34 -21 -77 -21 ZM217 63 q28 0 51 15 q23 15 39 40 q16 25 23 54 q14 59 22 106 q8 47 8 70 q0 24 -8 44 q-8 20 -23.5 33 q-15.5 13 -39.5 13 q-31 0 -56 -23.5 q-25 -23.5 -42 -62.5 q-17 -39 -26 -85.5 q-9 -46.5 -9 -92.5 q0 -67 17 -89 q17 -22 44 -22 Z" /><glyph glyph-name="uni0256" unicode="&#x256;" d="M462 -228 q-86 0 -123 39 q-37 39 -37 111 q0 31 5.5 65 q5.5 34 16.5 72 l58 360 l34 179 q0 0 1.5 11 q1.5 11 1.5 21 q0 13 -6 22 q-6 9 -29 9 q-9 0 -19.5 -1 q-10.5 -1 -10.5 -1 l0 35 l160 11 l37 0 l-139 -734 q-5 -27 -8 -49 q-3 -22 -3 -39 q0 -38 13 -52 q13 -14 33 -14 q22 0 35.5 12.5 q13.5 12.5 24 28.5 q10.5 16 23.5 29 q13 13 35 13 q16 0 29.5 -9.5 q13.5 -9.5 13.5 -33.5 q0 -29 -20 -47.5 q-20 -18.5 -53 -28 q-33 -9.5 -73 -9.5 ZM171 -13 q-36 0 -68 17 q-32 17 -51.5 56 q-19.5 39 -19.5 105 q0 66 20 123.5 q20 57.5 55.5 100.5 q35.5 43 81.5 67 q46 24 97 24 q32 0 55 -9 q23 -9 41 -27 l21 0 l-61 -368 l-25 0 q-33 -44 -67 -66.5 q-34 -22.5 -79 -22.5 ZM218 63 q28 0 50.5 15 q22.5 15 38.5 40 q16 25 23 54 q15 59 23 106 q8 47 8 70 q0 24 -8 44 q-8 20 -24 33 q-16 13 -39 13 q-32 0 -56.5 -23.5 q-24.5 -23.5 -42 -62.5 q-17.5 -39 -26 -85.5 q-8.5 -46.5 -8.5 -92.5 q0 -67 16.5 -89 q16.5 -22 44.5 -22 Z" /><glyph glyph-name="eogonek" unicode="&#x119;" d="M198 -219 q-46 0 -70 22 q-24 22 -24 58 q0 31 14 53 q14 22 35.5 38.5 q21.5 16.5 42.5 30.5 l0 62 l55 -52 q-14 -3 -30 -4.5 q-16 -1.5 -29 -1.5 q-58 0 -93.5 24 q-35.5 24 -52.5 65.5 q-17 41.5 -17 91.5 q0 58 19.5 113.5 q19.5 55.5 56.5 100.5 q37 45 89.5 72 q52.5 27 118.5 27 q26 0 55 -7 q29 -7 49 -28 q20 -21 20 -62 q0 -49 -29.5 -84 q-29.5 -35 -75.5 -57 q-46 -22 -96.5 -33 q-50.5 -11 -93.5 -14 l0 36 q48 2 87.5 21.5 q39.5 19.5 63 53.5 q23.5 34 23.5 80 q0 24 -8 37 q-8 13 -27 13 q-24 0 -47.5 -22 q-23.5 -22 -42.5 -58.5 q-19 -36.5 -30 -82 q-11 -45.5 -11 -91.5 q0 -69 27.5 -94 q27.5 -25 72.5 -25 q40 0 72.5 16.5 q32.5 16.5 61.5 52.5 l25 -20 q-28 -45 -59.5 -71 q-31.5 -26 -65.5 -39 q-22 -14 -44 -29 q-22 -15 -37 -35.5 q-15 -20.5 -15 -50.5 q0 -26 13 -37 q13 -11 38 -11 q23 0 40.5 8 q17.5 8 39.5 23 l17 -24 q-31 -27 -62.5 -46.5 q-31.5 -19.5 -75.5 -19.5 Z" /><glyph glyph-name="uni0260" unicode="&#x260;" d="M141 -225 q-29 0 -57 4.5 q-28 4.5 -51 14.5 q-23 10 -36.5 25.5 q-13.5 15.5 -13.5 39.5 q0 25 15 41 q15 16 40 16 q25 0 38.5 -14.5 q13.5 -14.5 24.5 -33.5 q11 -19 27 -34 q16 -15 43 -15 q46 0 75.5 38 q29.5 38 45.5 115 l23 106 l69 355 l10 50 q12 59 43.5 111 q31.5 52 82.5 85 q51 33 124 33 q48 0 81.5 -17 q33.5 -17 33.5 -53 q0 -26 -17 -40 q-17 -14 -36 -14 q-20 0 -32 12 q-12 12 -21 28 q-9 16 -21 27.5 q-12 11.5 -32 11.5 q-30 0 -49 -27.5 q-19 -27.5 -30 -84.5 l-104 -531 q-17 -87 -53.5 -142 q-36.5 -55 -92 -81 q-55.5 -26 -130.5 -26 ZM167 -14 q-66 0 -101 45 q-35 45 -35 128 q0 66 20 124.5 q20 58.5 55.5 102.5 q35.5 44 83 69 q47.5 25 102.5 25 q35 0 56 -10 q21 -10 33 -21 l22 0 l-75 -387 l-23 0 q-19 -20 -39 -37.5 q-20 -17.5 -43.5 -28 q-23.5 -10.5 -55.5 -10.5 ZM216 63 q26 0 49 15 q23 15 39.5 41 q16.5 26 23.5 56 q8 39 13.5 66.5 q5.5 27.5 9 47 q3.5 19.5 5 34 q1.5 14.5 1.5 25.5 q0 41 -18.5 65.5 q-18.5 24.5 -50.5 24.5 q-30 0 -54.5 -22.5 q-24.5 -22.5 -42 -60.5 q-17.5 -38 -27 -86.5 q-9.5 -48.5 -9.5 -99.5 q0 -45 11.5 -75.5 q11.5 -30.5 49.5 -30.5 Z" /><glyph glyph-name="hbar" unicode="&#x127;" d="M403 -11 q-34 0 -51.5 8.5 q-17.5 8.5 -23.5 22 q-6 13.5 -6 28.5 q0 13 2 26 q2 13 3 17 l57 224 q0 0 3.5 15 q3.5 15 3.5 29 q0 14 -5.5 23 q-5.5 9 -19.5 9 q-19 0 -42 -19 q-23 -19 -45 -49 q-22 -30 -42 -64 q-20 -34 -35 -63.5 q-15 -29.5 -22 -47.5 l19 125 q14 26 35 60.5 q21 34.5 49.5 67 q28.5 32.5 66 54 q37.5 21.5 86.5 21.5 q32 0 49.5 -10.5 q17.5 -10.5 24 -28 q6.5 -17.5 6.5 -36.5 q0 -19 -3.5 -41.5 q-3.5 -22.5 -6.5 -33.5 l-55 -220 q0 0 -2 -7.5 q-2 -7.5 -2 -15.5 q0 -20 21 -20 q25 0 43 18.5 q18 18.5 29 30.5 l27 -20 q-13 -17 -32 -42 q-19 -25 -50.5 -43 q-31.5 -18 -81.5 -18 ZM148 0 l-120 0 l128 601 q0 0 2 11.5 q2 11.5 2 20.5 q0 13 -8 20.5 q-8 7.5 -26 7.5 q-8 0 -19 -1 q-11 -1 -11 -1 l0 36 l155 11 l43 0 l-69 -298 l-31 -124 l18 0 l-64 -284 ZM418 531 l-353 0 l10 47 l353 0 l-10 -47 Z" /><glyph glyph-name="icircumflex" unicode="î" d="M124 -11 q-38 0 -56.5 16.5 q-18.5 16.5 -18.5 42.5 q0 13 3 31.5 q3 18.5 13 62.5 l49 228 q0 0 1.5 10 q1.5 10 1.5 22 q0 10 -6 19 q-6 9 -26 9 q-13 0 -23 -1 q-10 -1 -10 -1 l0 37 l160 11 l41 0 l-74 -352 q0 0 -2.5 -15.5 q-2.5 -15.5 -2.5 -26.5 q0 -19 18 -19 q26 0 43.5 18 q17.5 18 29.5 31 l27 -20 q-17 -24 -37 -48 q-20 -24 -51 -39 q-31 -15 -80 -16 ZM88 521 l-51 0 l130 153 l83 0 l68 -153 l-50 0 l-72 90 l-108 -90 Z" /><glyph glyph-name="itilde" unicode="&#x129;" d="M124 -11 q-38 0 -56.5 16.5 q-18.5 16.5 -18.5 42.5 q0 13 3 31.5 q3 18.5 13 62.5 l49 228 q0 0 1.5 10 q1.5 10 1.5 22 q0 10 -6 19 q-6 9 -26 9 q-13 0 -23 -1 q-10 -1 -10 -1 l0 37 l160 11 l41 0 l-74 -352 q0 0 -2.5 -15.5 q-2.5 -15.5 -2.5 -26.5 q0 -19 18 -19 q26 0 43.5 18 q17.5 18 29.5 31 l27 -20 q-17 -24 -37 -48 q-20 -24 -51 -39 q-31 -15 -80 -16 ZM69 533 l-35 0 q18 50 50 82 q32 32 69 32 q28 0 45.5 -9.5 q17.5 -9.5 32.5 -20 q15 -10.5 35 -10.5 q16 0 32 10 q16 10 28 34 l34 0 q-22 -58 -51 -86.5 q-29 -28.5 -70 -28.5 q-27 0 -44 10.5 q-17 10.5 -32 20 q-15 9.5 -37 9.5 q-16 0 -31.5 -10 q-15.5 -10 -25.5 -33 Z" /><glyph glyph-name="idieresis" unicode="ï" d="M124 -11 q-38 0 -56.5 16.5 q-18.5 16.5 -18.5 42.5 q0 13 3 31.5 q3 18.5 13 62.5 l49 228 q0 0 1.5 10 q1.5 10 1.5 22 q0 10 -6 19 q-6 9 -26 9 q-13 0 -23 -1 q-10 -1 -10 -1 l0 37 l160 11 l41 0 l-74 -352 q0 0 -2.5 -15.5 q-2.5 -15.5 -2.5 -26.5 q0 -19 18 -19 q26 0 43.5 18 q17.5 18 29.5 31 l27 -20 q-17 -24 -37 -48 q-20 -24 -51 -39 q-31 -15 -80 -16 ZM94 547 q-30 0 -48.5 18 q-18.5 18 -18.5 48 q0 30 18 48 q18 18 50 18 q33 0 50 -18 q17 -18 17 -47 q0 -31 -18 -49 q-18 -18 -50 -18 ZM299 547 q-30 0 -48 18 q-18 18 -18 48 q0 30 17.5 48 q17.5 18 49.5 18 q33 0 50 -18 q17 -18 17 -47 q0 -31 -18 -49 q-18 -18 -50 -18 Z" /><glyph glyph-name="imacron" unicode="&#x12b;" d="M124 -11 q-38 0 -56.5 16.5 q-18.5 16.5 -18.5 42.5 q0 13 3 31.5 q3 18.5 13 62.5 l49 228 q0 0 1.5 10 q1.5 10 1.5 22 q0 10 -6 19 q-6 9 -26 9 q-13 0 -23 -1 q-10 -1 -10 -1 l0 37 l160 11 l41 0 l-74 -352 q0 0 -2.5 -15.5 q-2.5 -15.5 -2.5 -26.5 q0 -19 18 -19 q26 0 43.5 18 q17.5 18 29.5 31 l27 -20 q-17 -24 -37 -48 q-20 -24 -51 -39 q-31 -15 -80 -16 ZM322 555 l-275 0 l14 68 l275 0 l-14 -68 Z" /><glyph glyph-name="ibreve" unicode="&#x12d;" d="M124 -11 q-38 0 -56.5 16.5 q-18.5 16.5 -18.5 42.5 q0 13 3 31.5 q3 18.5 13 62.5 l49 228 q0 0 1.5 10 q1.5 10 1.5 22 q0 10 -6 19 q-6 9 -26 9 q-13 0 -23 -1 q-10 -1 -10 -1 l0 37 l160 11 l41 0 l-74 -352 q0 0 -2.5 -15.5 q-2.5 -15.5 -2.5 -26.5 q0 -19 18 -19 q26 0 43.5 18 q17.5 18 29.5 31 l27 -20 q-17 -24 -37 -48 q-20 -24 -51 -39 q-31 -15 -80 -16 ZM181 529 q-58 0 -88.5 28 q-30.5 28 -30.5 85 q0 11 1 21.5 q1 10.5 3 22.5 l36 0 q2 -51 25.5 -66 q23.5 -15 69.5 -15 q30 0 51.5 6 q21.5 6 38.5 23.5 q17 17.5 34 51.5 l37 0 q-23 -79 -66.5 -118 q-43.5 -39 -110.5 -39 Z" /><glyph glyph-name="iogonek" unicode="&#x12f;" d="M113 -219 q-43 0 -68 22 q-25 22 -25 59 q0 30 15 53 q15 23 37 41 q22 18 44 32 l0 4 q-33 3 -50 17.5 q-17 14.5 -17 38.5 q0 13 3 31.5 q3 18.5 13 62.5 l49 228 q0 0 1.5 10 q1.5 10 1.5 22 q0 10 -6 19 q-6 9 -26 9 q-13 0 -23 -1 q-10 -1 -10 -1 l0 37 l160 11 l41 0 l-74 -352 q0 0 -3 -16 q-3 -16 -3 -27 q0 -19 19 -19 q17 0 30.5 9 q13.5 9 24 20.5 q10.5 11.5 18.5 20.5 l27 -20 q-17 -26 -38 -50.5 q-21 -24.5 -55 -38.5 q-23 -14 -44.5 -29 q-21.5 -15 -35.5 -35.5 q-14 -20.5 -14 -51.5 q0 -22 12 -34.5 q12 -12.5 33 -12.5 q29 0 45.5 7.5 q16.5 7.5 39.5 23.5 l18 -24 q-33 -29 -64.5 -47.5 q-31.5 -18.5 -75.5 -18.5 ZM207 547 q-32 0 -51 19 q-19 19 -19 50 q0 32 19 51 q19 19 52 19 q35 0 52.5 -19 q17.5 -19 17.5 -50 q0 -32 -18.5 -51 q-18.5 -19 -52.5 -19 Z" /><glyph glyph-name="uni0268" unicode="&#x268;" d="M129 -11 q-38 0 -56.5 16.5 q-18.5 16.5 -18.5 42.5 q0 13 3.5 31.5 q3.5 18.5 13.5 62.5 l48 228 q0 0 2 10 q2 10 2 22 q0 10 -6.5 19 q-6.5 9 -26.5 9 q-13 0 -22.5 -1 q-9.5 -1 -9.5 -1 l0 37 l160 11 l41 0 l-75 -352 q0 0 -2.5 -15.5 q-2.5 -15.5 -2.5 -26.5 q0 -19 18 -19 q26 0 44 18 q18 18 30 31 l27 -20 q-17 -24 -37.5 -48 q-20.5 -24 -51 -39 q-30.5 -15 -80.5 -16 ZM288 243 l-271 0 l9 48 l271 0 l-9 -48 ZM212 547 q-32 0 -51 19 q-19 19 -19 50 q0 32 19 51 q19 19 52 19 q35 0 52.5 -19 q17.5 -19 17.5 -50 q0 -32 -18.5 -51 q-18.5 -19 -52.5 -19 Z" /><glyph glyph-name="jcircumflex" unicode="&#x135;" d="M-40 -228 q-56 0 -89.5 21 q-33.5 21 -33.5 62 q0 22 13 40.5 q13 18.5 39 18.5 q26 0 37 -15 q11 -15 15 -34 q4 -19 9 -33.5 q5 -14.5 20 -14.5 q14 0 26 14 q12 14 22.5 37.5 q10.5 23.5 18.5 52 q8 28.5 14.5 58 q6.5 29.5 10.5 55.5 l64 337 q0 0 1.5 9.5 q1.5 9.5 1.5 22.5 q0 10 -6 19 q-6 9 -26 9 q-13 0 -23.5 -1 q-10.5 -1 -10.5 -1 l0 36 l159 11 l41 0 l-73 -401 q-7 -36 -17 -77.5 q-10 -41.5 -27 -81.5 q-17 -40 -41.5 -72.5 q-24.5 -32.5 -60 -52 q-35.5 -19.5 -84.5 -19.5 ZM97 521 l-53 0 l135 159 l83 0 l72 -159 l-49 0 l-77 94 l-111 -94 Z" /><glyph glyph-name="uni01F0" unicode="&#x1f0;" d="M-40 -228 q-56 0 -89.5 21 q-33.5 21 -33.5 62 q0 22 13 40.5 q13 18.5 39 18.5 q26 0 37 -15 q11 -15 15 -34 q4 -19 9 -33.5 q5 -14.5 20 -14.5 q14 0 26 14 q12 14 22.5 37.5 q10.5 23.5 18.5 52 q8 28.5 14.5 58 q6.5 29.5 10.5 55.5 l64 337 q0 0 1.5 9.5 q1.5 9.5 1.5 22.5 q0 10 -6 19 q-6 9 -26 9 q-13 0 -23.5 -1 q-10.5 -1 -10.5 -1 l0 36 l159 11 l41 0 l-73 -401 q-7 -36 -17 -77.5 q-10 -41.5 -27 -81.5 q-17 -40 -41.5 -72.5 q-24.5 -32.5 -60 -52 q-35.5 -19.5 -84.5 -19.5 ZM230 521 l-83 0 l-72 159 l48 0 l78 -93 l111 93 l53 0 l-135 -159 Z" /><glyph glyph-name="uni0199" unicode="&#x199;" d="M146 0 l-120 0 l96 488 q14 70 51.5 120 q37.5 50 93 77 q55.5 27 123.5 27 q31 0 57 -6 q26 -6 41.5 -21.5 q15.5 -15.5 15.5 -42.5 q0 -30 -17 -43 q-17 -13 -39 -13 q-21 0 -32 12.5 q-11 12.5 -20 29.5 q-9 17 -21.5 30 q-12.5 13 -36.5 13 q-17 0 -34 -9.5 q-17 -9.5 -30.5 -30.5 q-13.5 -21 -20.5 -56 l-66 -342 l-3 -31 l-38 -202 ZM379 -10 q-36 0 -57 15.5 q-21 15.5 -31.5 36.5 q-10.5 21 -16.5 37 l-58 158 l86 64 l78 -181 q11 -24 22.5 -40 q11.5 -16 32.5 -16 q27 0 42.5 14.5 q15.5 14.5 32.5 36.5 l27 -18 q-7 -12 -18.5 -29.5 q-11.5 -17.5 -29.5 -35.5 q-18 -18 -45 -30 q-27 -12 -65 -12 ZM252 243 l-83 -64 l6 68 l20 0 l152 128 q10 8 15.5 17 q5.5 9 5.5 19 q0 13 -11.5 20.5 q-11.5 7.5 -34.5 8.5 l3 31 l229 0 l-3 -31 q-46 -1 -75 -20 q-29 -19 -55 -41 l-126 -104 l-43 -32 Z" /><glyph glyph-name="kgreenlandic" unicode="&#x138;" d="M273 243 l-82 -64 l6 68 l21 0 l152 128 q9 8 14.5 17 q5.5 9 5.5 19 q0 13 -11.5 20.5 q-11.5 7.5 -34.5 8.5 l3 31 l229 0 l-3 -31 q-46 -1 -75 -20 q-29 -19 -55 -41 l-126 -104 l-44 -32 ZM168 0 l-120 0 l74 374 q2 5 2.5 12 q0.5 7 0.5 16 q0 11 -6 20 q-6 9 -25 9 q-13 0 -23 -1 q-10 -1 -10 -1 l0 36 l156 11 l43 0 l-51 -243 l-3 -31 l-38 -202 ZM401 -10 q-36 0 -56.5 15.5 q-20.5 15.5 -31 36.5 q-10.5 21 -17.5 37 l-57 158 l86 64 l78 -181 q11 -24 22.5 -40 q11.5 -16 32.5 -16 q27 0 42 14.5 q15 14.5 32 36.5 l27 -18 q-6 -12 -17.5 -29.5 q-11.5 -17.5 -29.5 -35.5 q-18 -18 -45 -30 q-27 -12 -66 -12 Z" /><glyph glyph-name="lslash" unicode="&#x142;" d="M131 -11 q-44 0 -61 17.5 q-17 17.5 -17 43.5 q0 18 4.5 42.5 q4.5 24.5 9.5 51.5 l92 455 q0 0 1.5 10.5 q1.5 10.5 1.5 22.5 q0 10 -5.5 19.5 q-5.5 9.5 -25.5 9.5 q-13 0 -22.5 -1 q-9.5 -1 -9.5 -1 l0 35 l164 11 l34 0 l-115 -579 q0 -4 -2.5 -19.5 q-2.5 -15.5 -2.5 -24.5 q0 -10 6 -14.5 q6 -4.5 15 -4.5 q25 0 42.5 18 q17.5 18 29.5 31 l27 -20 q-16 -24 -37 -48 q-21 -24 -51.5 -39.5 q-30.5 -15.5 -77.5 -15.5 ZM349 439 l-327 -200 l-23 41 l327 200 l23 -41 Z" /><glyph glyph-name="uni019A" unicode="&#x19a;" d="M130 -11 q-44 0 -60.5 17.5 q-16.5 17.5 -16.5 43.5 q0 18 4 42.5 q4 24.5 9 51.5 l93 455 q0 0 1.5 10.5 q1.5 10.5 1.5 22.5 q0 10 -5.5 19.5 q-5.5 9.5 -25.5 9.5 q-13 0 -23 -1 q-10 -1 -10 -1 l0 35 l164 11 l34 0 l-114 -579 q-1 -4 -3.5 -19.5 q-2.5 -15.5 -2.5 -24.5 q0 -10 6 -14.5 q6 -4.5 15 -4.5 q25 0 42.5 18 q17.5 18 29.5 31 l27 -20 q-16 -24 -37 -48 q-21 -24 -51.5 -39.5 q-30.5 -15.5 -77.5 -15.5 ZM299 339 l-267 0 l9 48 l267 0 l-9 -48 Z" /><glyph glyph-name="uni026B" unicode="&#x26b;" d="M135 -11 q-44 0 -60.5 17.5 q-16.5 17.5 -16.5 43.5 q0 18 3.5 40 q3.5 22 9.5 54 l92 455 q0 0 1.5 10.5 q1.5 10.5 1.5 22.5 q0 10 -5.5 19.5 q-5.5 9.5 -25.5 9.5 q-13 0 -22.5 -1 q-9.5 -1 -9.5 -1 l0 35 l164 11 l34 0 l-114 -579 q0 0 -3 -16.5 q-3 -16.5 -3 -27.5 q0 -10 6 -14.5 q6 -4.5 15 -4.5 q25 0 42.5 18 q17.5 18 29.5 31 l27 -20 q-17 -24 -37.5 -48 q-20.5 -24 -51 -39.5 q-30.5 -15.5 -77.5 -15.5 ZM27 306 l-34 0 q19 50 53 82.5 q34 32.5 74 32.5 q7 0 14.5 -1 q7.5 -1 13.5 -4 l-21 -75 q-9 3 -18 6 q-9 3 -19 3 q-18 0 -34.5 -10.5 q-16.5 -10.5 -28.5 -33.5 ZM229 309 q-5 0 -10.5 1.5 q-5.5 1.5 -11.5 2.5 l16 80 q6 -6 15 -9.5 q9 -3.5 21 -3.5 q17 0 34.5 10.5 q17.5 10.5 30.5 34.5 l34 0 q-23 -58 -54 -87 q-31 -29 -75 -29 Z" /><glyph glyph-name="ohorn" unicode="&#x1a1;" d="M219 -12 q-65 0 -106.5 25.5 q-41.5 25.5 -61 70 q-19.5 44.5 -19.5 103.5 q0 59 18.5 112 q18.5 53 54.5 94 q36 41 86 64 q50 23 112 23 q31 0 57.5 -4 q26.5 -4 50.5 -8.5 q24 -4.5 44 -4.5 q30 0 47 12 q17 12 17 34 q0 18 -8.5 32.5 q-8.5 14.5 -8.5 34.5 q0 25 16.5 35.5 q16.5 10.5 34.5 10.5 q24 0 37.5 -16.5 q13.5 -16.5 13.5 -41.5 q0 -21 -9.5 -44 q-9.5 -23 -29 -43 q-19.5 -20 -48.5 -32 q-29 -12 -69 -12 q-14 0 -31.5 3 q-17.5 3 -34.5 11 l49 3 l0 -18 q30 -28 44 -63.5 q14 -35.5 14 -86.5 q0 -60 -18.5 -113.5 q-18.5 -53.5 -53.5 -94 q-35 -40.5 -85 -63.5 q-50 -23 -113 -23 ZM231 31 q31 1 55 23 q24 22 40.5 60 q16.5 38 25 86 q8.5 48 8.5 100 q0 40 -5.5 71 q-5.5 31 -21.5 49 q-16 18 -44 18 q-31 0 -55 -22 q-24 -22 -40.5 -59.5 q-16.5 -37.5 -25 -86 q-8.5 -48.5 -8.5 -100.5 q0 -38 6 -70 q6 -32 21.5 -50.5 q15.5 -18.5 43.5 -18.5 Z" /><glyph glyph-name="uni1EE1" unicode="&#x1ee1;" d="M219 -12 q-65 0 -106.5 25.5 q-41.5 25.5 -61 70 q-19.5 44.5 -19.5 103.5 q0 59 18.5 112 q18.5 53 54.5 94 q36 41 86 64 q50 23 112 23 q31 0 57.5 -4 q26.5 -4 50.5 -8.5 q24 -4.5 44 -4.5 q30 0 49 12 q19 12 19 34 q0 18 -8.5 32.5 q-8.5 14.5 -8.5 34.5 q0 25 16 35.5 q16 10.5 34 10.5 q25 0 38.5 -16.5 q13.5 -16.5 13.5 -41.5 q0 -21 -10.5 -44 q-10.5 -23 -30.5 -43 q-20 -20 -49.5 -32 q-29.5 -12 -68.5 -12 q-15 0 -32.5 3 q-17.5 3 -34.5 12 l49 2 l0 -18 q30 -28 44 -63.5 q14 -35.5 14 -86.5 q0 -60 -18.5 -113.5 q-18.5 -53.5 -53.5 -94 q-35 -40.5 -85 -63.5 q-50 -23 -113 -23 ZM231 31 q31 1 55 23 q24 22 40.5 60 q16.5 38 25 86 q8.5 48 8.5 100 q0 40 -5.5 71 q-5.5 31 -21.5 49 q-16 18 -44 18 q-31 0 -55 -22 q-24 -22 -40.5 -59.5 q-16.5 -37.5 -25 -86 q-8.5 -48.5 -8.5 -100.5 q0 -38 6 -70 q6 -32 21.5 -50.5 q15.5 -18.5 43.5 -18.5 ZM185 533 l-36 0 q12 34 31 60.5 q19 26.5 44.5 42.5 q25.5 16 52.5 16 q26 0 43.5 -10 q17.5 -10 34.5 -20.5 q17 -10.5 40 -10.5 q18 0 34 9.5 q16 9.5 29 35.5 l35 0 q-21 -59 -53 -89.5 q-32 -30.5 -73 -30.5 q-26 0 -44 10.5 q-18 10.5 -34.5 20 q-16.5 9.5 -41.5 9.5 q-18 0 -34 -9 q-16 -9 -28 -34 Z" /><glyph glyph-name="oslash" unicode="ø" d="M487 460 l-424 -486 l-33 29 l424 485 l33 -28 ZM222 -12 q-55 0 -98 21 q-43 21 -67.5 64.5 q-24.5 43.5 -24.5 110.5 q0 60 18.5 113.5 q18.5 53.5 54 94.5 q35.5 41 85 64.5 q49.5 23.5 110.5 23.5 q54 0 96.5 -21 q42.5 -21 67.5 -65 q25 -44 25 -113 q0 -60 -19 -113 q-19 -53 -54 -93.5 q-35 -40.5 -84 -63.5 q-49 -23 -110 -23 ZM232 31 q31 0 54.5 22 q23.5 22 40.5 60 q17 38 26 86 q9 48 9 100 q0 40 -6.5 71 q-6.5 31 -22.5 49.5 q-16 18.5 -44 18.5 q-31 0 -55 -22 q-24 -22 -41 -59.5 q-17 -37.5 -26 -86 q-9 -48.5 -9 -101.5 q0 -39 6.5 -70.5 q6.5 -31.5 22.5 -49.5 q16 -18 45 -18 Z" /><glyph glyph-name="uni0275" unicode="&#x275;" d="M222 -12 q-54 0 -97 21 q-43 21 -68 64 q-25 43 -25 111 q0 60 18.5 113.5 q18.5 53.5 54 94.5 q35.5 41 85 64.5 q49.5 23.5 110.5 23.5 q56 0 98 -21.5 q42 -21.5 66.5 -65.5 q24.5 -44 24.5 -112 q0 -60 -19 -113 q-19 -53 -54 -93.5 q-35 -40.5 -84 -63.5 q-49 -23 -110 -23 ZM232 31 q31 0 55 22 q24 22 41 60 q17 38 25.5 86 q8.5 48 8.5 100 q0 40 -6 71.5 q-6 31.5 -22 49.5 q-16 18 -45 18 q-31 0 -55.5 -22 q-24.5 -22 -41.5 -60 q-17 -38 -25.5 -86.5 q-8.5 -48.5 -8.5 -100.5 q0 -38 6 -69.5 q6 -31.5 22.5 -50 q16.5 -18.5 45.5 -18.5 ZM406 218 l-297 0 l2 47 l297 0 l-2 -47 Z" /><glyph glyph-name="oe" unicode="&#x153;" d="M206 -11 q-61 0 -99.5 24 q-38.5 24 -56.5 66.5 q-18 42.5 -18 97.5 q0 65 18.5 120.5 q18.5 55.5 53.5 96.5 q35 41 84.5 63.5 q49.5 22.5 109.5 22.5 q44 0 79.5 -19 q35.5 -19 58.5 -56 l22 0 l-63 -344 l-23 0 q-34 -38 -75.5 -55 q-41.5 -17 -90.5 -17 ZM227 31 q29 0 51.5 22 q22.5 22 39 59.5 q16.5 37.5 25 87 q8.5 49.5 8.5 106.5 q0 36 -6 66 q-6 30 -21 48 q-15 18 -41 18 q-28 0 -51 -20.5 q-23 -20.5 -39 -57 q-16 -36.5 -24.5 -85 q-8.5 -48.5 -8.5 -104.5 q0 -37 5 -69 q5 -32 19 -51.5 q14 -19.5 43 -19.5 ZM490 -13 q-49 0 -75.5 23.5 q-26.5 23.5 -42.5 67.5 l59 316 q35 40 82.5 63.5 q47.5 23.5 106.5 23.5 q25 0 53 -7 q28 -7 48 -27.5 q20 -20.5 20 -58.5 q0 -52 -28.5 -87.5 q-28.5 -35.5 -73.5 -57.5 q-45 -22 -95 -33.5 q-50 -11.5 -94 -14.5 l0 37 q49 2 87.5 21.5 q38.5 19.5 60.5 54 q22 34.5 22 80.5 q0 49 -34 49 q-24 0 -47 -22 q-23 -22 -41 -59 q-18 -37 -29 -81.5 q-11 -44.5 -11 -91.5 q0 -67 26.5 -93 q26.5 -26 69.5 -26 q41 0 73.5 16.5 q32.5 16.5 61.5 52.5 l25 -20 q-33 -52 -70 -79 q-37 -27 -76 -37 q-39 -10 -78 -10 Z" /><glyph glyph-name="uni01A5" unicode="&#x1a5;" d="M213 -220 l-237 0 l150 709 q14 67 50 117 q36 50 90 78 q54 28 122 28 q33 0 59 -6.5 q26 -6.5 41.5 -22 q15.5 -15.5 15.5 -43.5 q0 -29 -17.5 -42.5 q-17.5 -13.5 -38.5 -13.5 q-22 0 -33 13 q-11 13 -20 29.5 q-9 16.5 -22 29.5 q-13 13 -37 13 q-28 0 -50 -22.5 q-22 -22.5 -33 -77.5 l-35 -171 l10 0 l-104 -490 q-1 -7 -2.5 -19 q-1.5 -12 -1.5 -23 q0 -17 20.5 -33.5 q20.5 -16.5 80.5 -16.5 l-8 -36 ZM238 -11 q-28 0 -57.5 11 q-29.5 11 -41.5 20 l13 58 q12 -12 33.5 -25.5 q21.5 -13.5 48.5 -13.5 q67 0 106.5 70 q39.5 70 39.5 198 q0 45 -10.5 68 q-10.5 23 -25 31 q-14.5 8 -26.5 8 q-29 0 -50 -17 q-21 -17 -37 -44.5 q-16 -27.5 -28 -58.5 l10 89 q34 43 68.5 70 q34.5 27 84.5 27 q38 0 70 -19 q32 -19 51 -57 q19 -38 19 -97 q0 -94 -35 -165.5 q-35 -71.5 -95.5 -112 q-60.5 -40.5 -137.5 -40.5 Z" /><glyph glyph-name="germandbls" unicode="ß" d="M-41 -228 q-32 0 -58.5 10 q-26.5 10 -42 28.5 q-15.5 18.5 -15.5 45.5 q0 24 13.5 41 q13.5 17 38.5 17 q27 0 37.5 -15 q10.5 -15 15 -34 q4.5 -19 10 -34 q5.5 -15 19.5 -15 q16 0 29.5 18 q13.5 18 24 46 q10.5 28 19 59.5 q8.5 31.5 13.5 59.5 q5 28 8 44 l68 435 q14 79 47.5 130.5 q33.5 51.5 86.5 77 q53 25.5 125 25.5 q83 0 129.5 -32 q46.5 -32 46.5 -99 q0 -39 -17 -70.5 q-17 -31.5 -55.5 -56.5 q-38.5 -25 -102.5 -45 l0 -4 q31 -6 62.5 -19.5 q31.5 -13.5 57.5 -35 q26 -21.5 42.5 -54 q16.5 -32.5 16.5 -79.5 q0 -58 -20.5 -100 q-20.5 -42 -54.5 -69 q-34 -27 -75 -40.5 q-41 -13.5 -83 -13.5 q-54 0 -82 23 q-28 23 -28 57 q0 24 13.5 40 q13.5 16 37.5 16 q24 0 34.5 -14.5 q10.5 -14.5 15 -32.5 q4.5 -18 12 -32.5 q7.5 -14.5 26.5 -14.5 q24 0 41.5 18 q17.5 18 28 54.5 q10.5 36.5 10.5 91.5 q0 59 -14 94.5 q-14 35.5 -44 54.5 q-30 19 -77 28 l7 51 q55 12 84 31 q29 19 39.5 47.5 q10.5 28.5 10.5 66.5 q0 46 -15.5 71.5 q-15.5 25.5 -63.5 25.5 q-34 0 -56 -14 q-22 -14 -35 -40 q-13 -26 -19 -63 l-74 -469 q-5 -30 -14.5 -70 q-9.5 -40 -27.5 -82 q-18 -42 -44.5 -78.5 q-26.5 -36.5 -63.5 -58.5 q-37 -22 -88 -22 ZM143 420 l-98 0 l7 51 l98 0 l-7 -51 Z" /><glyph glyph-name="uni01AD" unicode="&#x1ad;" d="M130 -13 q-37 0 -57.5 16.5 q-20.5 16.5 -20.5 52.5 q0 13 2.5 29.5 q2.5 16.5 5.5 30.5 l65 304 l-59 0 l6 35 q21 10 40.5 19 q19.5 9 39.5 22 q12 50 31 86 q19 36 49 65 q33 31 75.5 48 q42.5 17 96.5 17 q33 0 59 -6.5 q26 -6.5 41.5 -22 q15.5 -15.5 15.5 -43.5 q0 -29 -17.5 -42.5 q-17.5 -13.5 -38.5 -13.5 q-21 0 -32.5 13 q-11.5 13 -20.5 29.5 q-9 16.5 -22 29.5 q-13 13 -37 13 q-28 0 -46.5 -19.5 q-18.5 -19.5 -28.5 -64.5 l-95 -452 q0 0 -3.5 -18.5 q-3.5 -18.5 -3.5 -31.5 q0 -9 3.5 -15 q3.5 -6 15.5 -6 q18 0 35 11.5 q17 11.5 40 40.5 l27 -20 q-14 -20 -36 -45 q-22 -25 -53.5 -43.5 q-31.5 -18.5 -76.5 -18.5 ZM345 420 l-114 0 l8 48 l116 0 l-10 -48 Z" /><glyph glyph-name="uni0288" unicode="&#x288;" d="M186 -228 q-85 0 -121.5 39 q-36.5 39 -36.5 111 q0 26 4.5 53 q4.5 27 9.5 56 l82 389 l-58 0 l5 35 q37 17 61.5 32 q24.5 15 46 40 q21.5 25 49.5 66 l50 0 q-26 -126 -49.5 -236.5 q-23.5 -110.5 -44 -208.5 q-20.5 -98 -38.5 -188 q-3 -17 -6.5 -38.5 q-3.5 -21.5 -3.5 -41.5 q0 -27 8.5 -45 q8.5 -18 31.5 -18 q20 0 32.5 12.5 q12.5 12.5 22.5 28.5 q10 16 23 29 q13 13 35 13 q16 0 29.5 -9.5 q13.5 -9.5 13.5 -31.5 q0 -31 -19.5 -50 q-19.5 -19 -52.5 -28 q-33 -9 -74 -9 ZM340 420 l-110 0 l8 48 l112 0 l-10 -48 Z" /><glyph glyph-name="tbar" unicode="&#x167;" d="M135 -12 q-36 0 -56.5 16 q-20.5 16 -20.5 53 q0 13 2 29.5 q2 16.5 5 29.5 l65 304 l-59 0 l6 35 q37 17 61 32 q24 15 46 40 q22 25 50 66 l50 0 l-28 -125 l98 0 l-10 -48 l-96 0 l-60 -286 q0 0 -4 -18.5 q-4 -18.5 -4 -31.5 q0 -9 4 -15 q4 -6 16 -6 q18 0 34.5 11.5 q16.5 11.5 40.5 40.5 l27 -20 q-15 -20 -36.5 -45 q-21.5 -25 -53.5 -43.5 q-32 -18.5 -77 -18.5 ZM328 269 l-285 0 l8 48 l287 0 l-10 -48 Z" /><glyph glyph-name="uogonek" unicode="&#x173;" d="M394 -219 q-43 0 -67.5 22 q-24.5 22 -24.5 59 q0 30 14.5 53 q14.5 23 37 40.5 q22.5 17.5 43.5 30.5 l0 5 q-35 2 -52 15.5 q-17 13.5 -17 41.5 q0 22 5.5 44.5 q5.5 22.5 12.5 52.5 l-11 0 q-11 -18 -29.5 -44.5 q-18.5 -26.5 -43.5 -52 q-25 -25.5 -58.5 -42.5 q-33.5 -17 -75.5 -17 q-42 0 -59 23 q-17 23 -17 59 q0 18 3.5 38 q3.5 20 7.5 36 l50 214 q0 0 1.5 7.5 q1.5 7.5 3 18 q1.5 10.5 1.5 17.5 q0 12 -8 20 q-8 8 -26 8 q-12 0 -21 -1 q-9 -1 -12 -1 l0 37 l161 11 l44 0 l-71 -310 q-2 -7 -4 -20.5 q-2 -13.5 -2 -24.5 q0 -19 6.5 -31 q6.5 -12 20.5 -12 q19 0 40 15.5 q21 15.5 41 41.5 q20 26 38.5 58 q18.5 32 32 65.5 q13.5 33.5 19.5 63.5 l33 151 l120 0 l-72 -350 q0 0 -3 -16 q-3 -16 -3 -27 q0 -6 4 -11.5 q4 -5.5 16 -5.5 q17 0 32.5 11 q15.5 11 26 23 q10.5 12 12.5 15 l27 -20 q-18 -29 -39 -51.5 q-21 -22.5 -50 -36.5 q-22 -14 -44.5 -29 q-22.5 -15 -37 -35.5 q-14.5 -20.5 -14.5 -50.5 q0 -26 12.5 -37.5 q12.5 -11.5 35.5 -11.5 q27 0 43 7.5 q16 7.5 40 23.5 l17 -24 q-33 -29 -64.5 -47.5 q-31.5 -18.5 -75.5 -18.5 Z" /><glyph glyph-name="uhorn" unicode="&#x1b0;" d="M128 -11 q-42 0 -59 23 q-17 23 -17 59 q0 18 3.5 38 q3.5 20 7.5 36 l50 214 q0 0 1.5 7.5 q1.5 7.5 3 18 q1.5 10.5 1.5 17.5 q0 12 -8 20 q-8 8 -26 8 q-12 0 -21 -1 q-9 -1 -12 -1 l0 37 l161 11 l44 0 l-71 -310 q-2 -7 -4 -20.5 q-2 -13.5 -2 -24.5 q0 -19 6.5 -31 q6.5 -12 20.5 -12 q19 0 40 15.5 q21 15.5 41 41.5 q20 26 38.5 58 q18.5 32 32 65.5 q13.5 33.5 19.5 63.5 l33 151 l65 0 q37 0 55 5.5 q18 5.5 24.5 15 q6.5 9.5 6.5 19.5 q0 16 -8 30 q-8 14 -8 31 q0 28 17 39 q17 11 35 11 q20 0 34.5 -13 q14.5 -13 14.5 -46 q0 -22 -11.5 -48.5 q-11.5 -26.5 -38 -47.5 q-26.5 -21 -73.5 -26 l-65 -320 q0 0 -3 -16 q-3 -16 -3 -27 q0 -6 4 -11.5 q4 -5.5 16 -5.5 q17 0 32.5 11 q15.5 11 26 23 q10.5 12 12.5 15 l27 -20 q-18 -29 -40 -52.5 q-22 -23.5 -51.5 -37 q-29.5 -13.5 -72.5 -13.5 q-40 0 -59.5 14.5 q-19.5 14.5 -19.5 44.5 q0 22 5.5 44.5 q5.5 22.5 12.5 52.5 l-11 0 q-11 -18 -29.5 -44.5 q-18.5 -26.5 -43.5 -52 q-25 -25.5 -58.5 -42.5 q-33.5 -17 -75.5 -17 Z" /><glyph glyph-name="uni0289" unicode="&#x289;" d="M134 -11 q-43 0 -59.5 23 q-16.5 23 -16.5 59 q0 18 3 38 q3 20 7 36 l51 214 q0 0 1.5 7.5 q1.5 7.5 3 18 q1.5 10.5 1.5 17.5 q0 12 -8.5 20 q-8.5 8 -25.5 8 q-12 0 -21 -1 q-9 -1 -12 -1 l0 37 l160 11 l45 0 l-71 -310 q-2 -7 -4.5 -20.5 q-2.5 -13.5 -2.5 -24.5 q0 -19 7 -31 q7 -12 21 -12 q19 0 39.5 15.5 q20.5 15.5 41 41.5 q20.5 26 39 58 q18.5 32 31.5 65.5 q13 33.5 20 63.5 l33 151 l119 0 l-72 -350 q0 0 -3 -16 q-3 -16 -3 -27 q0 -6 4.5 -11.5 q4.5 -5.5 16.5 -5.5 q17 0 32 11 q15 11 26 23 q11 12 13 15 l27 -20 q-19 -29 -40.5 -52.5 q-21.5 -23.5 -51 -37 q-29.5 -13.5 -72.5 -13.5 q-40 0 -59.5 14.5 q-19.5 14.5 -19.5 44.5 q0 22 5 44.5 q5 22.5 12 52.5 l-10 0 q-12 -18 -30 -44.5 q-18 -26.5 -43.5 -52 q-25.5 -25.5 -58.5 -42.5 q-33 -17 -75 -17 ZM563 252 l-538 0 l10 48 l538 0 l-10 -48 Z" /><glyph glyph-name="uni028B" unicode="&#x28b;" d="M207 -10 q-51 0 -83 15 q-32 15 -46.5 42 q-14.5 27 -14.5 65 q0 12 1.5 27 q1.5 15 5.5 31 l42 195 q4 20 4 33 q0 18 -10 24 q-10 6 -32 6 q-4 0 -9.5 -0.5 q-5.5 -0.5 -10.5 -0.5 l2 37 l161 13 l37 0 l-59 -279 q-3 -13 -5 -27 q-2 -14 -2 -31 q0 -33 18 -53 q18 -20 61 -20 q42 0 72.5 17.5 q30.5 17.5 50.5 45.5 q20 28 29.5 63 q9.5 35 9.5 70 q0 35 -9.5 58.5 q-9.5 23.5 -21.5 41 q-12 17.5 -21.5 33 q-9.5 15.5 -9.5 33.5 q0 23 13.5 39.5 q13.5 16.5 41.5 16.5 q31 0 47.5 -21 q16.5 -21 22.5 -52 q6 -31 6 -60 q0 -76 -18.5 -142 q-18.5 -66 -55 -115.5 q-36.5 -49.5 -90.5 -77 q-54 -27.5 -127 -27.5 Z" /><glyph glyph-name="uni0250" unicode="&#x250;" d="M225 -12 q-77 0 -124.5 25.5 q-47.5 25.5 -47.5 76.5 q0 13 2.5 28.5 q2.5 15.5 5.5 28.5 l48 212 q3 11 4 23 q1 12 1 20 q0 15 -8.5 22 q-8.5 7 -26.5 7 q-10 0 -20 -1 q-10 -1 -10 -1 l-1 36 l156 11 l39 0 l-13 -58 l10 0 l-6 -20 l-58 -258 q-2 -12 -4 -25.5 q-2 -13.5 -2 -25.5 q0 -30 12.5 -45 q12.5 -15 42.5 -15 q25 0 40 9.5 q15 9.5 23.5 26.5 q8.5 17 13.5 39 q7 28 24.5 43 q17.5 15 42.5 15 q18 0 32 -12 q14 -12 14 -36 q0 -32 -23 -61 q-23 -29 -66 -47 q-43 -18 -101 -18 ZM175 182 l5 35 q65 12 106.5 29 q41.5 17 61.5 43.5 q20 26.5 20 65.5 q0 32 -13 47 q-13 15 -34 15 q-21 0 -45.5 -10.5 q-24.5 -10.5 -57.5 -37.5 l7 42 q38 32 73.5 50.5 q35.5 18.5 84.5 18.5 q37 0 62.5 -12 q25.5 -12 38 -35 q12.5 -23 12.5 -55 q0 -42 -19.5 -72 q-19.5 -30 -52.5 -50.5 q-33 -20.5 -75 -34.5 q-42 -14 -87 -23 q-45 -9 -87 -16 Z" /><glyph glyph-name="uni0252" unicode="&#x252;" d="M261 -12 q-39 0 -62.5 15.5 q-23.5 15.5 -39.5 37.5 l-6 0 l-38 -47 l-70 0 l76 363 q3 14 4.5 25.5 q1.5 11.5 1.5 21.5 q0 13 -7.5 20 q-7.5 7 -25.5 7 q-8 0 -18 -1 q-10 -1 -13 -1 l0 36 l154 11 l38 0 l-21 -85 l5 0 q36 47 71 68 q35 21 81 21 q36 0 65.5 -18 q29.5 -18 48 -56 q18.5 -38 18.5 -98 q0 -76 -22.5 -135.5 q-22.5 -59.5 -61 -100.5 q-38.5 -41 -84.5 -62.5 q-46 -21.5 -94 -21.5 ZM265 29 q31 0 55.5 22.5 q24.5 22.5 42.5 61 q18 38.5 27 85.5 q9 47 9 95 q0 64 -17.5 90 q-17.5 26 -46.5 26 q-26 0 -48.5 -17.5 q-22.5 -17.5 -38.5 -46 q-16 -28.5 -25 -63.5 q-4 -19 -10.5 -50.5 q-6.5 -31.5 -12 -62.5 q-5.5 -31 -5.5 -51 q0 -20 7.5 -41 q7.5 -21 23 -34.5 q15.5 -13.5 39.5 -13.5 Z" /><glyph glyph-name="uni1D00" unicode="&#x1d00;" d="M117 0 l-175 0 l8 39 q21 0 35.5 4.5 q14.5 4.5 28.5 19.5 q14 15 33 45 l232 370 l78 0 l77 -377 q8 -35 20 -48.5 q12 -13.5 45 -13.5 l-8 -39 l-238 0 l8 39 q19 0 36 4.5 q17 4.5 17 26.5 q0 7 -1.5 16 q-1.5 9 -3.5 19 l-47 267 l-3 0 l-163 -274 q-8 -14 -12.5 -22 q-4.5 -8 -4.5 -18 q0 -11 10.5 -15 q10.5 -4 35.5 -4 l-8 -39 ZM342 154 l-239 0 l9 39 l231 0 l-1 -39 Z" /><glyph glyph-name="uni0180" unicode="&#x180;" d="M205 -13 q-92 0 -172 37 l114 573 q1 3 2.5 14.5 q1.5 11.5 1.5 20.5 q0 17 -10.5 22.5 q-10.5 5.5 -25.5 5.5 q-8 0 -19.5 -0.5 q-11.5 -0.5 -11.5 -0.5 l0 36 l153 10 l45 0 l-61 -299 l7 0 q24 24 44.5 39.5 q20.5 15.5 41.5 22.5 q21 7 48 7 q59 0 100 -43.5 q41 -43.5 41 -133.5 q0 -66 -19.5 -123 q-19.5 -57 -57.5 -99 q-38 -42 -93.5 -65.5 q-55.5 -23.5 -127.5 -23.5 ZM234 41 q48 0 80 34.5 q32 34.5 48 93 q16 58.5 16 129.5 q0 66 -19 89.5 q-19 23.5 -44 23.5 q-27 0 -48.5 -16 q-21.5 -16 -37.5 -39.5 q-16 -23.5 -25 -45.5 l-45 -237 q10 -9 30.5 -20.5 q20.5 -11.5 44.5 -11.5 ZM413 531 l-349 0 l10 47 l349 0 l-10 -47 Z" /><glyph glyph-name="uni0299" unicode="&#x299;" d="M246 0 l-270 0 l7 39 q36 0 52.5 6 q16.5 6 23 21.5 q6.5 15.5 11.5 41.5 l54 254 q2 11 3.5 20.5 q1.5 9.5 1.5 16.5 q0 19 -13 26 q-13 7 -48 7 l8 39 l232 0 q27 0 56.5 -4 q29.5 -4 55 -14 q25.5 -10 42 -29.5 q16.5 -19.5 16.5 -52.5 q0 -37 -18 -60.5 q-18 -23.5 -49 -38 q-31 -14.5 -68 -24.5 l-1 -4 q27 -4 53.5 -14 q26.5 -10 44 -31.5 q17.5 -21.5 17.5 -58.5 q0 -38 -18 -64.5 q-18 -26.5 -48 -43 q-30 -16.5 -68 -24.5 q-38 -8 -77 -8 ZM214 41 q21 0 41 5 q20 5 36.5 17 q16.5 12 27 32.5 q10.5 20.5 10.5 50.5 q0 31 -14.5 48 q-14.5 17 -35.5 24 q-21 7 -43 7 l-53 0 l7 42 l67 0 q50 0 75 27.5 q25 27.5 25 69.5 q0 34 -18 49.5 q-18 15.5 -51 15.5 q-13 0 -24 -0.5 q-11 -0.5 -11 -0.5 l-80 -384 q4 -1 16 -2 q12 -1 25 -1 Z" /><glyph glyph-name="uni0255" unicode="&#x255;" d="M73 -120 l-38 17 q27 47 56.5 99 q29.5 52 64 98 q34.5 46 74 74.5 q39.5 28.5 86.5 28.5 q37 0 58.5 -19.5 q21.5 -19.5 21.5 -52.5 q0 -33 -23 -64.5 q-23 -31.5 -66 -52 q-43 -20.5 -102 -20.5 q-65 0 -103 25 q-38 25 -54.5 66.5 q-16.5 41.5 -16.5 90.5 q0 62 21.5 118 q21.5 56 59.5 99.5 q38 43.5 88 68 q50 24.5 107 24.5 q54 0 91 -24 q37 -24 37 -73 q0 -30 -17 -54 q-17 -24 -51 -24 q-22 0 -35 11 q-13 11 -13 33 q0 20 8.5 36.5 q8.5 16.5 8.5 27.5 q0 11 -11 19 q-11 8 -33 8 q-34 0 -61 -21.5 q-27 -21.5 -44.5 -57 q-17.5 -35.5 -27 -81 q-9.5 -45.5 -9.5 -94.5 q0 -76 23 -105 q23 -29 68 -29 q46 0 76.5 21 q30.5 21 30.5 48 q0 13 -7.5 24 q-7.5 11 -28.5 11 q-33 0 -66 -26.5 q-33 -26.5 -64 -67.5 q-31 -41 -58.5 -89.5 q-27.5 -48.5 -50.5 -92.5 Z" /><glyph glyph-name="uni0297" unicode="&#x297;" d="M220 -184 q-63 0 -109 32.5 q-46 32.5 -70 87 q-24 54.5 -24 122.5 q0 83 23 158.5 q23 75.5 63.5 135 q40.5 59.5 96 94 q55.5 34.5 121.5 34.5 q63 0 97 -26.5 q34 -26.5 34 -71.5 q0 -34 -17 -57.5 q-17 -23.5 -52 -23.5 q-21 0 -33.5 11.5 q-12.5 11.5 -12.5 28.5 q0 27 8 43 q8 16 8 30 q0 10 -10 18 q-10 8 -33 8 q-36 0 -64 -24.5 q-28 -24.5 -49 -63.5 q-21 -39 -34.5 -84.5 q-13.5 -45.5 -20.5 -89.5 q-7 -44 -7 -77 q0 -98 30 -154.5 q30 -56.5 99 -56.5 q45 0 79.5 20 q34.5 20 57.5 48 l24 -20 q-17 -27 -45.5 -55.5 q-28.5 -28.5 -68 -47.5 q-39.5 -19 -91.5 -19 Z" /><glyph glyph-name="uni0221" unicode="&#x221;" d="M345 -128 l-36 15 q19 35 41.5 76 q22.5 41 49 80.5 q26.5 39.5 56.5 71.5 q30 32 63.5 52 q33.5 20 71.5 20 q34 0 55 -17.5 q21 -17.5 21 -49.5 q0 -37 -28 -66.5 q-28 -29.5 -75.5 -47.5 q-47.5 -18 -107.5 -18 q-42 0 -71.5 9.5 q-29.5 9.5 -44.5 28 q-15 18.5 -15 45.5 q0 10 2.5 22 q2.5 12 12.5 31 l43 -48 l-66 0 q-34 -44 -67.5 -66.5 q-33.5 -22.5 -78.5 -22.5 q-49 0 -80 23.5 q-31 23.5 -45 63.5 q-14 40 -14 91 q0 64 19.5 121.5 q19.5 57.5 55 101 q35.5 43.5 81.5 68 q46 24.5 98 24.5 q32 0 55 -9 q23 -9 41 -27 l4 0 l30 154 q0 0 1.5 11 q1.5 11 1.5 21 q0 13 -6 22 q-6 9 -29 9 q-9 0 -20 -1 q-11 -1 -11 -1 l0 35 l161 11 l37 0 l-111 -568 q-3 -14 -6 -26.5 q-3 -12.5 -3 -23.5 q0 -18 11.5 -32.5 q11.5 -14.5 46.5 -14.5 q36 0 66 12 q30 12 48.5 30 q18.5 18 18.5 37 q0 12 -8.5 20 q-8.5 8 -27.5 8 q-33 0 -66.5 -25.5 q-33.5 -25.5 -64.5 -67 q-31 -41.5 -59 -90 q-28 -48.5 -51 -92.5 ZM221 63 q41 0 66 28.5 q25 28.5 41 81.5 q10 31 17.5 66.5 q7.5 35.5 11 66 q3.5 30.5 3.5 44.5 q0 20 -7.5 40.5 q-7.5 20.5 -23 34 q-15.5 13.5 -40.5 13.5 q-32 0 -56.5 -23.5 q-24.5 -23.5 -41.5 -62 q-17 -38.5 -26 -85.5 q-9 -47 -9 -95 q0 -65 17 -87 q17 -22 48 -22 Z" /><glyph glyph-name="uni1D81" unicode="&#x1d81;" d="M170 -13 q-60 0 -99 42.5 q-39 42.5 -39 135.5 q0 67 20.5 124 q20.5 57 56 100 q35.5 43 81 67 q45.5 24 96.5 24 q32 0 55 -9 q23 -9 41 -27 l4 0 l30 154 q0 0 1.5 11 q1.5 11 1.5 21 q0 13 -6 22 q-6 9 -29 9 q-9 0 -20 -1 q-11 -1 -11 -1 l0 35 l161 11 l37 0 l-114 -583 q0 0 -2.5 -15 q-2.5 -15 -2.5 -24 q0 -11 7 -15.5 q7 -4.5 16 -4.5 q21 0 40.5 17.5 q19.5 17.5 29.5 31.5 l27 -20 q-16 -23 -37.5 -47 q-21.5 -24 -51 -40 q-29.5 -16 -70.5 -16 q-37 0 -53.5 16.5 q-16.5 16.5 -16.5 42.5 q0 7 0.5 14.5 q0.5 7.5 1.5 13.5 l-8 0 q-34 -44 -68 -66.5 q-34 -22.5 -79 -22.5 ZM349 -223 q-40 0 -65 15 q-25 15 -25 48 q0 23 12 35 q12 12 30 12 q20 0 29.5 -10.5 q9.5 -10.5 14.5 -24 q5 -13.5 12 -23.5 q7 -10 21 -10 q16 0 32 10.5 q16 10.5 31 37.5 q15 27 26 76 l14 67 l-11 9 l82 73 l-30 -133 q-11 -49 -30.5 -90.5 q-19.5 -41.5 -53.5 -66.5 q-34 -25 -89 -25 ZM217 63 q28 0 51 15 q23 15 39 40 q16 25 23 54 q14 59 22 106 q8 47 8 70 q0 24 -8 44 q-8 20 -23.5 33 q-15.5 13 -39.5 13 q-31 0 -56 -23.5 q-25 -23.5 -42 -62.5 q-17 -39 -26 -85.5 q-9 -46.5 -9 -92.5 q0 -67 17 -89 q17 -22 44 -22 Z" /><glyph glyph-name="uni1E9F" unicode="&#x1e9f;" d="M236 -12 q-64 0 -110 27 q-46 27 -71 73 q-25 46 -25 103 q0 60 24.5 104.5 q24.5 44.5 63 76.5 q38.5 32 81 53 q42.5 21 77.5 34 l28 -31 q-40 -18 -73 -51 q-33 -33 -53 -82 q-20 -49 -20 -118 q0 -36 7.5 -69.5 q7.5 -33.5 26.5 -55 q19 -21.5 53 -21.5 q30 0 53.5 17.5 q23.5 17.5 39 45.5 q15.5 28 23.5 62 q8 34 8 68 q0 57 -18 97.5 q-18 40.5 -45 72 q-27 31.5 -53.5 59 q-26.5 27.5 -44.5 57.5 q-18 30 -18 69 q0 59 48.5 98.5 q48.5 39.5 144.5 39.5 q57 0 92 -13.5 q35 -13.5 52 -34 q17 -20.5 17 -42.5 q0 -17 -12.5 -34 q-12.5 -17 -42.5 -17 q-22 0 -32.5 10 q-10.5 10 -16 24.5 q-5.5 14.5 -11.5 29.5 q-6 15 -19 25.5 q-13 10.5 -40 10.5 q-36 0 -55 -18.5 q-19 -18.5 -19 -47.5 q0 -25 14.5 -49 q14.5 -24 37.5 -47 q23 -23 47 -49 q24 -24 46.5 -55.5 q22.5 -31.5 37.5 -70.5 q15 -39 15 -88 q0 -54 -19.5 -101.5 q-19.5 -47.5 -54 -83.5 q-34.5 -36 -81.5 -57 q-47 -21 -103 -21 Z" /><glyph glyph-name="uni0258" unicode="&#x258;" d="M166 -11 q-42 0 -70.5 14 q-28.5 14 -46.5 34 q-18 20 -27.5 41 q-9.5 21 -15.5 36 l30 14 q19 -37 45 -55.5 q26 -18.5 62 -18.5 q39 0 68 19.5 q29 19.5 47.5 53.5 q18.5 34 27.5 78 q9 44 9 93 q0 71 -18 105 q-18 34 -52 34 q-24 0 -37.5 -14.5 q-13.5 -14.5 -19.5 -36 q-6 -21.5 -6 -43.5 q0 -37 13.5 -60.5 q13.5 -23.5 37 -33.5 q23.5 -10 49.5 -10 q19 0 38 4 q19 4 32 9 l14 -32 q-27 -11 -57.5 -17 q-30.5 -6 -61.5 -6 q-47 0 -89 14.5 q-42 14.5 -67.5 44 q-25.5 29.5 -25.5 75.5 q0 44 24.5 77.5 q24.5 33.5 66.5 52.5 q42 19 94 19 q57 0 100.5 -23.5 q43.5 -23.5 68 -68.5 q24.5 -45 24.5 -110 q0 -59 -20 -111.5 q-20 -52.5 -56 -92.5 q-36 -40 -82.5 -62.5 q-46.5 -22.5 -98.5 -22.5 Z" /><glyph glyph-name="uni0259" unicode="&#x259;" d="M149 -13 q-35 0 -66 10 q-31 10 -50 33 q-19 23 -19 62 q0 53 38.5 90.5 q38.5 37.5 106 62.5 q67.5 25 155.5 39 l-5 -36 q-45 -8 -85.5 -25.5 q-40.5 -17.5 -65 -49.5 q-24.5 -32 -24.5 -82 q0 -27 9.5 -44 q9.5 -17 32.5 -17 q25 0 48 23.5 q23 23.5 40.5 62 q17.5 38.5 27 83.5 q9.5 45 9.5 87 q0 64 -24 92.5 q-24 28.5 -74 28.5 q-38 0 -69 -17 q-31 -17 -59 -55 l-25 20 q30 48 64 75.5 q34 27.5 71 39 q37 11.5 72 11.5 q49 0 81.5 -16.5 q32.5 -16.5 50.5 -43.5 q18 -27 25.5 -59.5 q7.5 -32.5 7.5 -65.5 q0 -59 -20 -114 q-20 -55 -56.5 -99 q-36.5 -44 -86.5 -70 q-50 -26 -110 -26 Z" /><glyph glyph-name="uni025A" unicode="&#x25a;" d="M149 -13 q-35 0 -66 10.5 q-31 10.5 -50 33.5 q-19 23 -19 61 q0 55 38 91 q38 36 108 63 q70 27 164 52 l-4 -37 q-51 -17 -93.5 -36.5 q-42.5 -19.5 -67.5 -50.5 q-25 -31 -25 -83 q0 -27 9.5 -44 q9.5 -17 32.5 -17 q24 0 46.5 23 q22.5 23 40.5 61 q18 38 28 82.5 q10 44.5 10 87.5 q0 61 -23 92 q-23 31 -75 31 q-38 0 -69 -17 q-31 -17 -59 -55 l-25 20 q30 48 64 75.5 q34 27.5 71 39 q37 11.5 72 11.5 q49 0 81.5 -16.5 q32.5 -16.5 50.5 -43.5 q18 -27 25.5 -59.5 q7.5 -32.5 7.5 -65.5 q0 -59 -20 -114 q-20 -55 -56.5 -99 q-36.5 -44 -86.5 -70 q-50 -26 -110 -26 ZM548 207 q-41 0 -59.5 23 q-18.5 23 -18.5 52 q0 15 3 27 l-2 1 l-84 -29 l9 39 l125 47 l19 -18 q-3 -8 -6 -17 q-3 -9 -3 -21 q0 -16 8 -28.5 q8 -12.5 30 -12.5 q23 0 39.5 16.5 q16.5 16.5 17.5 48.5 l28 4 l0 -13 q0 -25 -11 -53 q-11 -28 -34 -47 q-23 -19 -61 -19 Z" /><glyph glyph-name="uni025B" unicode="&#x25b;" d="M186 -12 q-48 0 -86 14.5 q-38 14.5 -60.5 43.5 q-22.5 29 -22.5 72 q0 41 20.5 68.5 q20.5 27.5 54 42.5 q33.5 15 70.5 20 l0 6 q-36 10 -65 31 q-29 21 -29 63 q0 42 29 71.5 q29 29.5 76.5 44.5 q47.5 15 101.5 15 q46 0 81.5 -11 q35.5 -11 56 -33 q20.5 -22 20.5 -55 q0 -28 -16 -47 q-16 -19 -43 -19 q-19 0 -34.5 10 q-15.5 10 -15.5 32 q0 15 6 28 q6 13 6 23 q0 15 -17.5 24 q-17.5 9 -41.5 9 q-40 0 -60.5 -26.5 q-20.5 -26.5 -20.5 -61.5 q0 -35 20 -55.5 q20 -20.5 53 -20.5 l39 0 l-11 -51 l-35 0 q-58 0 -84.5 -30.5 q-26.5 -30.5 -26.5 -67.5 q0 -35 21 -53.5 q21 -18.5 59 -18.5 q36 0 64.5 13.5 q28.5 13.5 49.5 31.5 q21 18 34 34 l26 -20 q-20 -34 -50 -63 q-30 -29 -71.5 -46.5 q-41.5 -17.5 -97.5 -17.5 Z" /><glyph glyph-name="uni025C" unicode="&#x25c;" d="M174 -11 q-55 -1 -93 11.5 q-38 12.5 -57 35 q-19 22.5 -19 51.5 q0 24 14.5 41.5 q14.5 17.5 44.5 17.5 q25 0 35.5 -11.5 q10.5 -11.5 14.5 -28.5 q4 -17 8 -34.5 q4 -17.5 16 -29 q12 -11.5 40 -11.5 q36 0 61.5 27.5 q25.5 27.5 25.5 74.5 q0 30 -11 47.5 q-11 17.5 -28 27.5 q-17 10 -36 14 q-19 4 -35 4 l-24 0 l11 51 l25 0 q20 0 43 5 q23 5 42.5 16 q19.5 11 32.5 28 q13 17 13 41 q0 31 -20.5 43.5 q-20.5 12.5 -49.5 12.5 q-39 0 -74.5 -19.5 q-35.5 -19.5 -65.5 -50.5 l-24 20 q34 50 86 78.5 q52 28.5 118 28.5 q45 0 79 -13 q34 -13 54 -36.5 q20 -23.5 20 -56.5 q0 -30 -15.5 -50.5 q-15.5 -20.5 -39.5 -33.5 q-24 -13 -50 -20.5 q-26 -7.5 -49 -12.5 l0 -7 q32 -4 62 -18 q30 -14 49.5 -38.5 q19.5 -24.5 19.5 -61.5 q0 -40 -22 -67 q-22 -27 -57 -44 q-35 -17 -73.5 -24.5 q-38.5 -7.5 -71.5 -7.5 Z" /><glyph glyph-name="uni025D" unicode="&#x25d;" d="M174 -11 q-53 -2 -91 11 q-38 13 -58 35.5 q-20 22.5 -20 51.5 q0 24 14.5 41.5 q14.5 17.5 44.5 17.5 q24 0 35 -11.5 q11 -11.5 15 -28.5 q4 -17 8.5 -34.5 q4.5 -17.5 16 -29 q11.5 -11.5 37.5 -11.5 q40 0 64.5 29 q24.5 29 24.5 72 q0 30 -11 48 q-11 18 -28 28 q-17 10 -35.5 14 q-18.5 4 -35.5 4 l-24 0 l11 51 l25 0 q20 0 43 5 q23 5 42.5 16 q19.5 11 32.5 28 q13 17 13 41 q0 31 -20.5 43.5 q-20.5 12.5 -48.5 12.5 q-39 0 -75 -19.5 q-36 -19.5 -66 -50.5 l-24 20 q34 50 86 78.5 q52 28.5 118 28.5 q45 0 79 -13 q34 -13 54 -36.5 q20 -23.5 20 -55.5 q0 -7 -1.5 -13.5 q-1.5 -6.5 -4.5 -12.5 l1 -1 l85 38 l20 -19 q-3 -8 -6 -17 q-3 -9 -3 -21 q0 -16 8 -28 q8 -12 30 -12 q23 0 39.5 16.5 q16.5 16.5 17.5 47.5 l28 4 l0 -13 q0 -25 -11 -52.5 q-11 -27.5 -34 -47 q-23 -19.5 -61 -19.5 q-41 0 -59.5 23 q-18.5 23 -18.5 53 q0 11 3 23 l-2 1 l-100 -43 q-25 -10 -47 -16 q-22 -6 -38 -9 l0 -7 q32 -4 62 -18 q30 -14 49.5 -38.5 q19.5 -24.5 19.5 -61.5 q0 -40 -21.5 -67 q-21.5 -27 -55.5 -43.5 q-34 -16.5 -73 -24 q-39 -7.5 -74 -8.5 Z" /><glyph glyph-name="uni029A" unicode="&#x29a;" d="M211 -11 q-53 0 -97.5 13 q-44.5 13 -71 41.5 q-26.5 28.5 -26.5 71.5 q0 44 20.5 71.5 q20.5 27.5 53.5 42.5 q33 15 71 20 l1 6 q-37 10 -65.5 30.5 q-28.5 20.5 -28.5 63.5 q0 42 28 71 q28 29 76.5 44.5 q48.5 15.5 108.5 15.5 q58 0 108 -21 q50 -21 81 -66 q31 -45 31 -117 q0 -50 -16 -101 q-16 -51 -50.5 -93 q-34.5 -42 -89.5 -67.5 q-55 -25.5 -134 -25.5 ZM227 34 q35 0 62.5 22.5 q27.5 22.5 46 60.5 q18.5 38 28 84 q9.5 46 9.5 94 q0 69 -24.5 106.5 q-24.5 37.5 -70.5 37.5 q-30 0 -48.5 -13 q-18.5 -13 -26.5 -32.5 q-8 -19.5 -8 -37.5 q0 -39 20.5 -59 q20.5 -20 55.5 -20 l25 0 l-11 -51 l-32 0 q-52 0 -78 -28 q-26 -28 -26 -72 q0 -39 19 -65.5 q19 -26.5 59 -26.5 Z" /><glyph glyph-name="uni025E" unicode="&#x25e;" d="M258 -12 q-77 0 -126.5 27.5 q-49.5 27.5 -73.5 75.5 q-24 48 -24 110 q0 76 34.5 139.5 q34.5 63.5 101.5 101.5 q67 38 165 38 q49 0 89 -11.5 q40 -11.5 63.5 -35 q23.5 -23.5 23.5 -59.5 q0 -32 -14 -53 q-14 -21 -36.5 -33.5 q-22.5 -12.5 -48.5 -20 q-26 -7.5 -50 -12.5 l-1 -7 q31 -4 60 -17 q29 -13 48 -37 q19 -24 19 -62 q0 -40 -21.5 -67.5 q-21.5 -27.5 -56 -44.5 q-34.5 -17 -75 -24.5 q-40.5 -7.5 -77.5 -7.5 ZM261 34 q24 0 45.5 10 q21.5 10 35 32 q13.5 22 13.5 57 q0 39 -16 58.5 q-16 19.5 -39 27 q-23 7.5 -45 7.5 l-22 0 l12 51 l21 0 q27 0 55.5 8.5 q28.5 8.5 47.5 29 q19 20.5 19 52.5 q0 30 -20 50 q-20 20 -56 20 q-36 0 -63.5 -21 q-27.5 -21 -47 -56.5 q-19.5 -35.5 -29.5 -80.5 q-10 -45 -10 -93 q0 -51 11.5 -85 q11.5 -34 34 -50.5 q22.5 -16.5 53.5 -16.5 Z" /><glyph glyph-name="uni1D07" unicode="&#x1d07;" d="M391 0 l-415 0 l8 39 q32 0 48 4.5 q16 4.5 24.5 19.5 q8.5 15 14.5 45 l54 252 q2 12 3.5 21.5 q1.5 9.5 1.5 16.5 q0 19 -13 26.5 q-13 7.5 -48 7.5 l8 39 l406 0 l-24 -131 l-34 0 q1 36 -5.5 54.5 q-6.5 18.5 -27 24.5 q-20.5 6 -61.5 6 l-78 0 l-80 -381 l70 0 q33 0 57 5 q24 5 42.5 16.5 q18.5 11.5 33.5 32 q15 20.5 32 50.5 l35 0 l-52 -148 ZM349 154 l-37 0 q5 24 5 38 q0 19 -14 23 q-14 4 -52 4 l-85 0 l9 42 l85 0 q35 0 51 4 q16 4 23.5 18 q7.5 14 13.5 42 l37 0 l-36 -171 Z" /><glyph glyph-name="uni0262" unicode="&#x262;" d="M245 -11 q-99 0 -155.5 53 q-56.5 53 -56.5 151 q0 62 22.5 114 q22.5 52 62 91 q39.5 39 91 60.5 q51.5 21.5 111.5 21.5 q38 0 60.5 -7 q22.5 -7 36.5 -14.5 q14 -7.5 27 -7.5 q10 0 15.5 7.5 q5.5 7.5 15.5 23.5 l33 0 l-36 -174 l-41 0 q4 39 -8.5 68.5 q-12.5 29.5 -38 45.5 q-25.5 16 -62.5 16 q-47 0 -83 -30.5 q-36 -30.5 -57 -84.5 q-21 -54 -21 -125 q0 -81 27 -122.5 q27 -41.5 73 -41.5 q21 0 43 7.5 q22 7.5 35 19.5 l13 68 q2 9 3 16.5 q1 7.5 1 13.5 q0 18 -11.5 24.5 q-11.5 6.5 -42.5 6.5 l7 36 l216 0 l-7 -36 q-32 0 -44 -10.5 q-12 -10.5 -18 -44.5 l-17 -89 q-43 -24 -90 -40.5 q-47 -16.5 -104 -16.5 Z" /><glyph glyph-name="uni029B" unicode="&#x29b;" d="M245 -11 q-99 0 -155.5 53 q-56.5 53 -56.5 152 q0 62 22 114.5 q22 52.5 61.5 91 q39.5 38.5 91.5 59.5 q52 21 112 21 q40 0 62.5 -7 q22.5 -7 35.5 -15 q13 -8 22 -8 q16 0 23 30 q12 54 26.5 95.5 q14.5 41.5 42 65.5 q27.5 24 76.5 24 q40 0 61.5 -16.5 q21.5 -16.5 21.5 -45.5 q0 -24 -14 -36 q-14 -12 -33 -12 q-19 0 -27.5 10 q-8.5 10 -12.5 23 q-4 13 -10 23 q-6 10 -20 10 q-26 0 -40.5 -44.5 q-14.5 -44.5 -31.5 -122.5 l-30 -146 l-41 0 q4 41 -9 70 q-13 29 -39 44.5 q-26 15.5 -62 15.5 q-39 0 -69 -19.5 q-30 -19.5 -50 -53.5 q-20 -34 -30.5 -77.5 q-10.5 -43.5 -10.5 -92.5 q0 -79 25.5 -120 q25.5 -41 74.5 -41 q22 0 43.5 7.5 q21.5 7.5 34.5 19.5 l13 68 q2 8 3 15.5 q1 7.5 1 14.5 q0 17 -11.5 24 q-11.5 7 -42.5 7 l7 36 l216 0 l-7 -36 q-32 0 -44 -11.5 q-12 -11.5 -18 -43.5 l-17 -89 q-43 -24 -90 -40.5 q-47 -16.5 -104 -16.5 Z" /><glyph glyph-name="uni0263" unicode="&#x263;" d="M157 -229 q-50 0 -73.5 25.5 q-23.5 25.5 -23.5 60.5 q0 33 17 65.5 q17 32.5 45 64 q28 31.5 59 57.5 l20 -40 q-52 -52 -71.5 -84 q-19.5 -32 -19.5 -57 q0 -19 10 -33.5 q10 -14.5 30 -14.5 q20 0 34.5 17.5 q14.5 17.5 14.5 50.5 q0 25 -7 53.5 q-7 28.5 -11 47.5 l-14 3 l0 35 l-61 309 q-5 26 -12 47.5 q-7 21.5 -21.5 35.5 q-14.5 14 -44.5 14 q-8 0 -18.5 -1 q-10.5 -1 -12.5 -1 l0 38 l152 11 l37 0 q12 -19 19.5 -37.5 q7.5 -18.5 13 -45 q5.5 -26.5 13.5 -66.5 l22 -127 l15 -128 q7 -18 14.5 -45 q7.5 -27 12 -55 q4.5 -28 4.5 -53 q0 -50 -20.5 -82.5 q-20.5 -32.5 -53.5 -48.5 q-33 -16 -69 -16 ZM268 39 l-20 75 l23 0 q66 93 101.5 143.5 q35.5 50.5 35.5 79.5 q0 19 -11.5 33.5 q-11.5 14.5 -23.5 29.5 q-12 15 -12 37 q0 21 14.5 34 q14.5 13 40.5 13 q35 0 52.5 -23 q17.5 -23 17.5 -60 q0 -28 -13 -65.5 q-13 -37.5 -47 -88.5 q-21 -36 -49 -73.5 q-28 -37.5 -56.5 -72 q-28.5 -34.5 -52.5 -62.5 Z" /><glyph glyph-name="uniA727" unicode="&#xa727;" d="M196 -225 q-30 0 -56 9 q-26 9 -41.5 28 q-15.5 19 -15.5 46 q0 23 13 40.5 q13 17.5 40 17.5 q26 0 36.5 -14.5 q10.5 -14.5 14.5 -33.5 q4 -19 9.5 -33.5 q5.5 -14.5 20.5 -14.5 q17 0 31.5 19 q14.5 19 26.5 51 q12 32 22 69 q10 37 19 73 l64 275 q0 0 3 16.5 q3 16.5 3 33.5 q0 17 -5 27.5 q-5 10.5 -19 10.5 q-19 0 -41 -19.5 q-22 -19.5 -45 -51.5 q-23 -32 -44.5 -68.5 q-21.5 -36.5 -38.5 -71 q-17 -34.5 -28 -59.5 l30 149 q15 25 36 60 q21 35 49.5 68.5 q28.5 33.5 67 55.5 q38.5 22 86.5 22 q44 0 60.5 -20 q16.5 -20 16.5 -55 q0 -19 -3.5 -38.5 q-3.5 -19.5 -6.5 -33.5 l-55 -240 q-10 -43 -24 -88 q-14 -45 -33.5 -86.5 q-19.5 -41.5 -46.5 -73.5 q-27 -32 -63 -51 q-36 -19 -83 -19 ZM145 0 l-120 0 l128 601 q0 0 2 11.5 q2 11.5 2 22.5 q0 11 -8.5 18.5 q-8.5 7.5 -24.5 7.5 q-10 0 -21 -1 q-11 -1 -11 -1 l0 36 l156 11 l43 0 l-74 -314 l-27 -108 l19 0 l-64 -284 Z" /><glyph glyph-name="uni0267" unicode="&#x267;" d="M143 0 l-120 0 l100 496 q13 66 50 115 q37 49 92.5 76 q55.5 27 124.5 27 q30 0 55.5 -7 q25.5 -7 41.5 -22 q16 -15 16 -42 q0 -30 -17 -43 q-17 -13 -39 -13 q-21 0 -32 13 q-11 13 -20 30 q-9 17 -21.5 29.5 q-12.5 12.5 -35.5 12.5 q-26 0 -50.5 -22.5 q-24.5 -22.5 -35.5 -74.5 l-42 -193 l-21 -98 l17 0 l-63 -284 ZM194 -225 q-30 0 -56 9 q-26 9 -41.5 28 q-15.5 19 -15.5 46 q0 23 13 40.5 q13 17.5 40 17.5 q26 0 36.5 -14.5 q10.5 -14.5 14.5 -33.5 q4 -19 9.5 -33.5 q5.5 -14.5 21.5 -14.5 q16 0 30.5 19 q14.5 19 26.5 51 q12 32 22.5 69 q10.5 37 18.5 73 l64 275 q0 0 3 16.5 q3 16.5 3 33.5 q0 17 -5 27.5 q-5 10.5 -19 10.5 q-19 0 -41 -19.5 q-22 -19.5 -44.5 -50.5 q-22.5 -31 -42.5 -65 q-20 -34 -35.5 -64 q-15.5 -30 -22.5 -48 l19 126 q15 25 36 60 q21 35 49.5 68.5 q28.5 33.5 67 55.5 q38.5 22 86.5 22 q44 0 60.5 -20 q16.5 -20 16.5 -55 q0 -19 -3.5 -38.5 q-3.5 -19.5 -6.5 -33.5 l-55 -240 q-10 -43 -24 -88 q-14 -45 -33.5 -86.5 q-19.5 -41.5 -46.5 -73.5 q-27 -32 -63 -51 q-36 -19 -83 -19 Z" /><glyph glyph-name="uni0266" unicode="&#x266;" d="M143 0 l-119 0 l99 496 q14 66 51 115 q37 49 92.5 76 q55.5 27 123.5 27 q30 0 55.5 -7 q25.5 -7 41.5 -22 q16 -15 16 -42 q0 -30 -17 -43 q-17 -13 -38 -13 q-22 0 -33 13 q-11 13 -20 30 q-9 17 -21.5 29.5 q-12.5 12.5 -34.5 12.5 q-27 0 -51 -22.5 q-24 -22.5 -35 -74.5 l-39 -179 l-25 -112 l18 0 l-64 -284 ZM397 -11 q-34 0 -51.5 8.5 q-17.5 8.5 -23.5 22 q-6 13.5 -6 28.5 q0 13 2 26 q2 13 3 17 l58 227 q0 0 3.5 15.5 q3.5 15.5 3.5 29.5 q0 13 -5.5 22.5 q-5.5 9.5 -19.5 9.5 q-19 0 -42 -19.5 q-23 -19.5 -45.5 -50.5 q-22.5 -31 -42.5 -65 q-20 -34 -35 -64 q-15 -30 -22 -48 l20 126 q14 24 34.5 59 q20.5 35 49 68.5 q28.5 33.5 67 56 q38.5 22.5 87.5 22.5 q32 0 49 -10.5 q17 -10.5 23.5 -27.5 q6.5 -17 6.5 -37 q0 -20 -3.5 -42 q-3.5 -22 -6.5 -33 l-55 -224 q0 0 -2 -7.5 q-2 -7.5 -2 -15.5 q0 -20 20 -20 q26 0 43.5 18.5 q17.5 18.5 28.5 30.5 l27 -20 q-9 -13 -21.5 -30.5 q-12.5 -17.5 -31 -34 q-18.5 -16.5 -45.5 -27.5 q-27 -11 -66 -11 Z" /><glyph glyph-name="uni0265" unicode="&#x265;" d="M475 -220 l-208 0 l60 274 l19 91 l-11 0 q-11 -18 -29.5 -44.5 q-18.5 -26.5 -43.5 -52 q-25 -25.5 -58.5 -42.5 q-33.5 -17 -75.5 -17 q-42 0 -59 23 q-17 23 -17 59 q0 18 3.5 38 q3.5 20 7.5 36 l50 214 q0 0 1.5 7.5 q1.5 7.5 3 18 q1.5 10.5 1.5 17.5 q0 12 -8 20 q-8 8 -26 8 q-12 0 -21 -1 q-9 -1 -12 -1 l0 37 l161 11 l44 0 l-71 -310 q-2 -7 -4 -20.5 q-2 -13.5 -2 -24.5 q0 -19 6.5 -31 q6.5 -12 20.5 -12 q19 0 40 15.5 q21 15.5 41 41.5 q20 26 38.5 58 q18.5 32 32 65.5 q13.5 33.5 19.5 63.5 l33 151 l120 0 l-118 -573 q0 0 -1.5 -9 q-1.5 -9 -1.5 -22 q0 -26 13 -39 q13 -13 57 -13 l-5 -37 Z" /><glyph glyph-name="uni02AE" unicode="&#x2ae;" d="M559 -220 l-209 0 l56 254 l24 111 l-11 0 q-10 -18 -28 -44 q-18 -26 -43.5 -51.5 q-25.5 -25.5 -59 -43 q-33.5 -17.5 -74.5 -17.5 q-43 0 -60.5 23 q-17.5 23 -17.5 58 q0 18 3.5 38.5 q3.5 20.5 7.5 36.5 l40 171 q6 26 9.5 43.5 q3.5 17.5 3.5 31.5 q0 22 -9 33.5 q-9 11.5 -26 11.5 q-21 0 -33.5 -13 q-12.5 -13 -22 -30 q-9.5 -17 -23.5 -29.5 q-14 -12.5 -37 -12.5 q-19 0 -31 10.5 q-12 10.5 -12 31.5 q0 30 22 49 q22 19 55.5 28.5 q33.5 9.5 68.5 9.5 q42 0 76.5 -14 q34.5 -14 55.5 -43.5 q21 -29.5 21 -75.5 q0 -20 -3.5 -40 q-3.5 -20 -10.5 -51 l-21 -90 q-1 -7 -3.5 -20.5 q-2.5 -13.5 -2.5 -24.5 q0 -19 6.5 -31 q6.5 -12 21.5 -12 q18 0 38.5 15.5 q20.5 15.5 41.5 41.5 q21 26 39 58 q18 32 31.5 65.5 q13.5 33.5 20.5 63.5 l33 151 l120 0 l-119 -574 q0 0 -1.5 -8.5 q-1.5 -8.5 -1.5 -21.5 q0 -26 13 -39 q13 -13 57 -13 l-5 -37 Z" /><glyph glyph-name="uni02AF" unicode="&#x2af;" d="M550 -229 q-82 0 -120 39.5 q-38 39.5 -38 113.5 q0 29 4.5 56 q4.5 27 13.5 71 l20 94 l-11 0 q-11 -18 -29.5 -44.5 q-18.5 -26.5 -43.5 -52 q-25 -25.5 -58.5 -42.5 q-33.5 -17 -75.5 -17 q-42 0 -59 23 q-17 23 -17 59 q0 18 3.5 38 q3.5 20 7.5 36 l40 171 q6 26 9.5 43.5 q3.5 17.5 3.5 31.5 q0 22 -9 33.5 q-9 11.5 -26 11.5 q-21 0 -33.5 -13 q-12.5 -13 -22 -30 q-9.5 -17 -23.5 -29.5 q-14 -12.5 -37 -12.5 q-19 0 -31 10.5 q-12 10.5 -12 31.5 q0 30 22 49 q22 19 55.5 28.5 q33.5 9.5 68.5 9.5 q42 0 76.5 -14 q34.5 -14 55.5 -43.5 q21 -29.5 21 -75.5 q0 -20 -3.5 -40 q-3.5 -20 -10.5 -51 l-21 -90 q-1 -7 -3.5 -20.5 q-2.5 -13.5 -2.5 -24.5 q0 -19 6.5 -31 q6.5 -12 21.5 -12 q18 0 39 15.5 q21 15.5 41.5 41.5 q20.5 26 38.5 58 q18 32 31.5 65.5 q13.5 33.5 20.5 63.5 l33 151 l120 0 l-105 -505 q-5 -24 -8.5 -46.5 q-3.5 -22.5 -3.5 -42.5 q0 -28 8.5 -45.5 q8.5 -17.5 30.5 -17.5 q21 0 33 13 q12 13 21.5 29 q9.5 16 22.5 29 q13 13 35 13 q15 0 28.5 -10 q13.5 -10 13.5 -30 q0 -31 -20.5 -50.5 q-20.5 -19.5 -52.5 -29 q-32 -9.5 -69 -9.5 Z" /><glyph glyph-name="uni029C" unicode="&#x29c;" d="M541 0 l-249 0 l8 39 q27 0 41.5 4.5 q14.5 4.5 22.5 19.5 q8 15 14 45 l54 253 q2 13 3.5 22.5 q1.5 9.5 1.5 16.5 q0 18 -11 25 q-11 7 -41 7 l8 39 l248 0 l-8 -39 q-33 0 -49.5 -6 q-16.5 -6 -23.5 -21.5 q-7 -15.5 -13 -43.5 l-54 -253 q-3 -12 -4.5 -21 q-1.5 -9 -1.5 -16 q0 -20 14 -26 q14 -6 48 -6 l-8 -39 ZM226 0 l-250 0 l8 39 q32 0 48 4.5 q16 4.5 24.5 19.5 q8.5 15 14.5 45 l54 253 q2 12 3.5 21.5 q1.5 9.5 1.5 16.5 q0 18 -13 25.5 q-13 7.5 -48 7.5 l8 39 l248 0 l-8 -39 q-28 0 -43 -6 q-15 -6 -21.5 -21.5 q-6.5 -15.5 -12.5 -43.5 l-54 -253 q-3 -13 -4.5 -22 q-1.5 -9 -1.5 -17 q0 -18 12.5 -24 q12.5 -6 41.5 -6 l-8 -39 ZM436 221 l-265 0 l7 44 l264 0 l-6 -44 Z" /><glyph glyph-name="uni0195" unicode="&#x195;" d="M483 -12 q-77 0 -113 36.5 q-36 36.5 -36 92.5 q0 12 2 24.5 q2 12.5 4 23.5 l36 153 q0 0 3.5 15 q3.5 15 3.5 31 q0 13 -5.5 22 q-5.5 9 -19.5 9 q-19 0 -41 -19.5 q-22 -19.5 -44 -51 q-22 -31.5 -41 -65 q-19 -33.5 -33.5 -63.5 q-14.5 -30 -22.5 -48 l18 124 q18 30 39 65.5 q21 35.5 49 68.5 q28 33 64.5 53.5 q36.5 20.5 85.5 20.5 q43 0 59.5 -24 q16.5 -24 16.5 -52 q0 -20 -4 -41.5 q-4 -21.5 -6 -32.5 l-29 -121 q-3 -13 -7 -35.5 q-4 -22.5 -4 -40.5 q0 -20 6 -37.5 q6 -17.5 21.5 -28.5 q15.5 -11 46.5 -11 q40 0 67.5 18.5 q27.5 18.5 44.5 48 q17 29.5 25 64 q8 34.5 8 67.5 q0 42 -9 67.5 q-9 25.5 -20.5 42.5 q-11.5 17 -20.5 32 q-9 15 -9 34 q0 25 16 39.5 q16 14.5 40 14.5 q27 0 43.5 -19.5 q16.5 -19.5 23.5 -53 q7 -33.5 7 -76.5 q0 -67 -16 -129 q-16 -62 -48.5 -111.5 q-32.5 -49.5 -82.5 -78 q-50 -28.5 -118 -28.5 ZM145 0 l-120 0 l128 601 q0 0 2 11.5 q2 11.5 2 20.5 q0 28 -34 28 q-9 0 -20 -1 q-11 -1 -11 -1 l0 36 l156 11 l43 0 l-72 -310 l-29 -112 l19 0 l-64 -284 Z" /><glyph glyph-name="uni026A" unicode="&#x26a;" d="M234 0 l-258 0 l8 39 q32 0 48 4.5 q16 4.5 24.5 19.5 q8.5 15 14.5 45 l54 253 q6 28 5 43 q-1 15 -14.5 21.5 q-13.5 6.5 -46.5 6.5 l8 39 l257 0 l-8 -39 q-33 0 -49.5 -6 q-16.5 -6 -23.5 -21.5 q-7 -15.5 -13 -43.5 l-54 -253 q-6 -30 -4.5 -45 q1.5 -15 15.5 -19.5 q14 -4.5 45 -4.5 l-8 -39 Z" /><glyph glyph-name="uni029D" unicode="&#x29d;" d="M-47 -228 q-28 0 -52.5 10 q-24.5 10 -39.5 29.5 q-15 19.5 -15 48.5 q0 36 22 62 q22 26 59.5 40.5 q37.5 14.5 82.5 14.5 q49 0 90.5 -14.5 q41.5 -14.5 73.5 -35.5 q32 -21 51 -40 l-29 -27 q-34 32 -83 53.5 q-49 21.5 -104 21.5 q-30 0 -55.5 -8 q-25.5 -8 -41.5 -24.5 q-16 -16.5 -16 -40.5 q0 -26 16.5 -37 q16.5 -11 34.5 -11 q34 0 55 28.5 q21 28.5 34.5 78.5 q13.5 50 25.5 113 l64 337 q0 0 1.5 9.5 q1.5 9.5 1.5 22.5 q0 10 -6 19 q-6 9 -26 9 q-13 0 -23.5 -1 q-10.5 -1 -10.5 -1 l0 36 l159 11 l41 0 l-73 -401 q-7 -36 -17.5 -78 q-10.5 -42 -27.5 -81.5 q-17 -39.5 -42.5 -72 q-25.5 -32.5 -62 -52 q-36.5 -19.5 -87.5 -19.5 ZM216 548 q-33 0 -52 18.5 q-19 18.5 -19 49.5 q0 32 19 51 q19 19 52 19 q34 0 52.5 -19 q18.5 -19 18.5 -50 q0 -32 -18.5 -50.5 q-18.5 -18.5 -52.5 -18.5 Z" /><glyph glyph-name="uni025F" unicode="&#x25f;" d="M-33 -221 q-55 0 -89 21.5 q-34 21.5 -34 61.5 q0 23 13 41 q13 18 39 18 q27 0 37.5 -15 q10.5 -15 14.5 -33.5 q4 -18.5 9 -33.5 q5 -15 20 -15 q15 0 27 14 q12 14 22 37 q10 23 17.5 51.5 q7.5 28.5 14 57.5 q6.5 29 11.5 56 l63 331 q0 0 1.5 9.5 q1.5 9.5 1.5 22.5 q0 10 -6 19 q-6 9 -26 9 q-13 0 -23.5 -1 q-10.5 -1 -10.5 -1 l0 36 l159 11 l40 0 l-71 -396 q-7 -36 -17.5 -77.5 q-10.5 -41.5 -26.5 -81 q-16 -39.5 -41 -72 q-25 -32.5 -60.5 -51.5 q-35.5 -19 -84.5 -19 ZM298 229 l-270 0 l9 47 l270 0 l-9 -47 Z" /><glyph glyph-name="uni1D84" unicode="&#x1d84;" d="M148 0 l-120 0 l118 599 q0 0 1.5 9 q1.5 9 1.5 21 q0 10 -5.5 21 q-5.5 11 -25.5 11 q-13 0 -23 -1 q-10 -1 -10 -1 l0 35 l163 11 l35 0 l-94 -472 l-3 -31 l-38 -202 ZM335 -227 q-41 0 -66 15.5 q-25 15.5 -25 47.5 q0 23 12 35 q12 12 30 12 q20 0 29.5 -10 q9.5 -10 14.5 -24 q5 -14 12 -24 q7 -10 21 -10 q16 0 32.5 10.5 q16.5 10.5 31 37.5 q14.5 27 25.5 77 l14 69 l-11 6 l84 82 l-32 -142 q-11 -49 -30.5 -91 q-19.5 -42 -53.5 -66.5 q-34 -24.5 -88 -24.5 ZM381 -10 q-36 0 -56.5 15.5 q-20.5 15.5 -31 36.5 q-10.5 21 -17.5 37 l-57 158 l86 64 l78 -181 q11 -24 22.5 -40 q11.5 -16 32.5 -16 q27 0 42 14.5 q15 14.5 32 36.5 l27 -18 q-6 -12 -18 -29.5 q-12 -17.5 -30.5 -35.5 q-18.5 -18 -45 -30 q-26.5 -12 -64.5 -12 ZM233 229 l-62 -50 l6 68 l21 0 l152 128 q9 8 14.5 17 q5.5 9 5.5 19 q0 13 -11.5 20.5 q-11.5 7.5 -34.5 8.5 l3 31 l229 0 l-3 -31 q-46 -1 -75 -20 q-29 -19 -55 -41 l-124 -102 l-66 -48 Z" /><glyph glyph-name="uni029E" unicode="&#x29e;" d="M471 -220 l-207 0 l92 460 l4 31 l38 202 l120 0 l-109 -573 q0 0 -1.5 -9 q-1.5 -9 -1.5 -23 q0 -25 13 -38 q13 -13 57 -13 l-5 -37 ZM217 0 l-229 0 l3 31 q46 2 75 20.5 q29 18.5 55 39.5 l127 106 l61 45 l66 52 l-7 -68 l-20 0 l-154 -130 q-9 -8 -14.5 -17 q-5.5 -9 -5.5 -18 q0 -13 11 -21 q11 -8 35 -9 l-3 -31 ZM327 236 l-85 -64 l-78 180 q-12 28 -23.5 43 q-11.5 15 -35.5 15 q-22 0 -39 -12.5 q-17 -12.5 -32 -31.5 l-28 17 q9 14 28.5 37.5 q19.5 23.5 51.5 42.5 q32 19 76 19 q37 0 57.5 -13.5 q20.5 -13.5 32 -34 q11.5 -20.5 18.5 -42.5 l57 -156 Z" /><glyph glyph-name="uni026C" unicode="&#x26c;" d="M176 -11 q-45 0 -62.5 17 q-17.5 17 -17.5 45 q0 11 2 26.5 q2 15.5 5 32.5 q3 17 7 34 l92 455 q0 0 1.5 10.5 q1.5 10.5 1.5 20.5 q0 16 -6.5 23.5 q-6.5 7.5 -28.5 7.5 q-9 0 -18.5 -1 q-9.5 -1 -9.5 -1 l0 35 l163 11 l34 0 l-114 -579 q0 -3 -1.5 -11.5 q-1.5 -8.5 -2.5 -17.5 q-1 -9 -1 -15 q0 -10 6 -14.5 q6 -4.5 16 -4.5 q24 0 42 18 q18 18 29 31 l27 -20 q-17 -24 -37.5 -48 q-20.5 -24 -50.5 -39.5 q-30 -15.5 -76 -15.5 ZM165 223 q-73 0 -110 31 q-37 31 -37 81 q0 40 21 67.5 q21 27.5 53.5 42 q32.5 14.5 68.5 14.5 q9 0 18.5 -1.5 q9.5 -1.5 19.5 -5.5 l-16 -32 q-4 2 -8.5 2.5 q-4.5 0.5 -10.5 0.5 q-18 0 -36.5 -9 q-18.5 -9 -30.5 -26.5 q-12 -17.5 -12 -41.5 q0 -32 23.5 -48.5 q23.5 -16.5 69.5 -16.5 q52 0 91 16.5 q39 16.5 64.5 37 q25.5 20.5 35.5 32.5 l22 -21 q-12 -19 -32 -41 q-20 -22 -48 -40.5 q-28 -18.5 -64.5 -30 q-36.5 -11.5 -81.5 -11.5 Z" /><glyph glyph-name="uni0234" unicode="&#x234;" d="M80 -128 l-36 15 q19 35 41 76 q22 41 49 80.5 q27 39.5 57 71.5 q30 32 63.5 52 q33.5 20 70.5 20 q35 0 56 -17.5 q21 -17.5 21 -49.5 q0 -37 -28 -66.5 q-28 -29.5 -75.5 -47.5 q-47.5 -18 -107.5 -18 q-45 0 -77 10.5 q-32 10.5 -49 32 q-17 21.5 -17 52.5 q0 16 4 35.5 q4 19.5 9 42.5 l88 438 q0 0 1.5 10.5 q1.5 10.5 1.5 22.5 q0 10 -5.5 19.5 q-5.5 9.5 -25.5 9.5 q-13 0 -22.5 -1 q-9.5 -1 -9.5 -1 l0 35 l164 11 l34 0 l-113 -572 q-2 -11 -5 -23.5 q-3 -12.5 -3 -23.5 q0 -20 12 -33 q12 -13 45 -13 q36 0 66.5 12 q30.5 12 48.5 30 q18 18 18 37 q0 12 -8 20 q-8 8 -27 8 q-33 0 -66.5 -25.5 q-33.5 -25.5 -64.5 -67 q-31 -41.5 -59.5 -90 q-28.5 -48.5 -50.5 -92.5 Z" /><glyph glyph-name="uni1D85" unicode="&#x1d85;" d="M121 -11 q-44 0 -61 17.5 q-17 17.5 -17 43.5 q0 18 4.5 42.5 q4.5 24.5 9.5 51.5 l92 455 q0 0 1.5 10.5 q1.5 10.5 1.5 22.5 q0 10 -5.5 19.5 q-5.5 9.5 -25.5 9.5 q-13 0 -22.5 -1 q-9.5 -1 -9.5 -1 l0 35 l164 11 l34 0 l-115 -579 q0 -4 -2.5 -19.5 q-2.5 -15.5 -2.5 -24.5 q0 -10 6 -14.5 q6 -4.5 15 -4.5 q25 0 42.5 18 q17.5 18 29.5 31 l27 -20 q-16 -24 -38.5 -48 q-22.5 -24 -53 -39.5 q-30.5 -15.5 -74.5 -15.5 ZM83 -227 q-40 0 -64.5 15.5 q-24.5 15.5 -24.5 47.5 q0 23 12 35 q12 12 30 12 q20 0 29.5 -10 q9.5 -10 14.5 -24 q5 -14 12 -24 q7 -10 21 -10 q16 0 32 10.5 q16 10.5 31 37.5 q15 27 26 77 l15 70 l-12 9 l82 73 l-30 -137 q-11 -49 -30.5 -91 q-19.5 -42 -53.5 -66.5 q-34 -24.5 -90 -24.5 Z" /><glyph glyph-name="uni026D" unicode="&#x26d;" d="M180 -228 q-86 0 -123.5 39 q-37.5 39 -37.5 111 q0 23 4 50 q4 27 9 54 l117 573 q0 0 1.5 10.5 q1.5 10.5 1.5 22.5 q0 10 -5.5 19.5 q-5.5 9.5 -25.5 9.5 q-13 0 -22.5 -1 q-9.5 -1 -9.5 -1 l0 35 l164 11 l34 0 l-148 -737 q-1 -9 -4 -24.5 q-3 -15.5 -5 -32.5 q-2 -17 -2 -31 q0 -27 9 -45.5 q9 -18.5 30 -18.5 q21 0 34 13 q13 13 23 29 q10 16 23.5 28.5 q13.5 12.5 36.5 12.5 q15 0 28.5 -9.5 q13.5 -9.5 13.5 -30.5 q0 -31 -20 -50 q-20 -19 -53 -28 q-33 -9 -73 -9 Z" /><glyph glyph-name="uni029F" unicode="&#x29f;" d="M376 0 l-400 0 l8 39 q30 0 47 6 q17 6 25 19.5 q8 13.5 14 37.5 l55 259 q2 13 4 22.5 q2 9.5 2 16.5 q0 17 -13.5 24 q-13.5 7 -48.5 7 l8 40 l257 0 l-8 -40 q-32 0 -48.5 -6.5 q-16.5 -6.5 -23.5 -21.5 q-7 -15 -13 -42 l-54 -247 q-3 -16 -5 -25 q-2 -9 -2 -15 q0 -18 10.5 -23.5 q10.5 -5.5 35.5 -5.5 l29 0 q30 0 50.5 11.5 q20.5 11.5 40 38 q19.5 26.5 43.5 71.5 l41 0 l-54 -166 Z" /><glyph glyph-name="uni019B" unicode="&#x19b;" d="M387 -11 q-30 0 -46 17 q-16 17 -24 46.5 q-8 29.5 -10 67.5 q-2 38 -2 80 q0 42 0.5 72.5 q0.5 30.5 0.5 60.5 l-6 0 q-9 -13 -27 -41.5 q-18 -28.5 -41.5 -66 q-23.5 -37.5 -47.5 -78 q-24 -40.5 -47.5 -79 q-23.5 -38.5 -40.5 -68.5 l-133 0 l3 25 q55 71 113.5 146 q58.5 75 116 150 q57.5 75 107.5 142 q-4 83 -26 122 q-22 39 -59 39 q-23 0 -41.5 -12.5 q-18.5 -12.5 -38.5 -29.5 l-26 20 q10 25 29 49.5 q19 24.5 44 41 q25 16.5 54 16.5 q59 0 87 -70 q28 -70 32 -219 q3 -98 6 -165 q3 -67 9 -109 q6 -42 19 -60.5 q13 -18.5 36 -18.5 q22 0 40.5 14 q18.5 14 32.5 31 l28 -20 q-10 -18 -25 -36 q-15 -18 -34 -33 q-19 -15 -40.5 -24.5 q-21.5 -9.5 -42.5 -9.5 ZM463 587 l-288 -120 l-17 43 l288 119 l17 -42 Z" /><glyph glyph-name="uni0271" unicode="&#x271;" d="M479 -225 q-31 0 -56.5 9 q-25.5 9 -41 28 q-15.5 19 -15.5 46 q0 23 12.5 40.5 q12.5 17.5 40.5 17.5 q26 0 36.5 -14.5 q10.5 -14.5 14.5 -33.5 q4 -19 9.5 -33.5 q5.5 -14.5 20.5 -14.5 q17 0 31 19 q14 19 26.5 51 q12.5 32 22.5 69 q10 37 19 73 l64 275 q0 0 3 16.5 q3 16.5 3 33.5 q0 17 -5 27.5 q-5 10.5 -18 10.5 q-16 0 -37 -20 q-21 -20 -43.5 -51.5 q-22.5 -31.5 -43 -68 q-20.5 -36.5 -36.5 -71 q-16 -34.5 -23 -58.5 l13 165 l26 0 q19 34 42 68 q23 34 50 61.5 q27 27.5 58.5 43.5 q31.5 16 68.5 16 q41 0 56.5 -20 q15.5 -20 15.5 -55 q0 -19 -3 -38.5 q-3 -19.5 -6 -33.5 l-55 -240 q-10 -43 -24 -88 q-14 -45 -33.5 -86.5 q-19.5 -41.5 -46.5 -73.5 q-27 -32 -63 -51 q-36 -19 -83 -19 ZM164 0 l-120 0 l80 371 q0 0 2 11 q2 11 2 21 q0 14 -7 21 q-7 7 -27 7 q-8 0 -19.5 -1 q-11.5 -1 -11.5 -1 l0 36 l162 11 l31 0 l-49 -199 l-8 -124 l-35 -153 ZM435 0 l-121 0 q14 51 24.5 89.5 q10.5 38.5 18 67.5 q7.5 29 13.5 54.5 q6 25.5 11.5 50 q5.5 24.5 12.5 54.5 q0 1 2.5 15.5 q2.5 14.5 2.5 27.5 q0 16 -5 26 q-5 10 -19 10 q-22 0 -48 -26 q-26 -26 -52 -68 q-26 -42 -48.5 -89.5 q-22.5 -47.5 -37.5 -90.5 l6 171 l27 0 q14 26 35 58 q21 32 48.5 62 q27.5 30 62 49.5 q34.5 19.5 76.5 19.5 q31 0 46.5 -10.5 q15.5 -10.5 21.5 -27 q6 -16.5 6 -33.5 q0 -20 -4 -40 q-4 -20 -5 -23 l-20 -67 l-18 -126 l-36 -154 Z" /><glyph glyph-name="uni026F" unicode="&#x26f;" d="M129 -11 q-43 0 -60.5 23 q-17.5 23 -17.5 59 q0 18 3.5 38 q3.5 20 7.5 36 l51 210 q0 0 1.5 7.5 q1.5 7.5 3 18 q1.5 10.5 1.5 17.5 q0 14 -9 22 q-9 8 -28 8 q-9 0 -18 -1 q-9 -1 -12 -1 l0 37 l160 11 l44 0 l-71 -308 q-1 -7 -3.5 -20.5 q-2.5 -13.5 -2.5 -24.5 q0 -19 6.5 -31 q6.5 -12 21.5 -12 q20 0 43 21 q23 21 45 57.5 q22 36.5 42.5 82 q20.5 45.5 35.5 95.5 l-45 -183 q-8 -13 -24.5 -39.5 q-16.5 -26.5 -41 -54.5 q-24.5 -28 -57.5 -48 q-33 -20 -76 -20 ZM399 -11 q-32 0 -49.5 11.5 q-17.5 11.5 -24 30 q-6.5 18.5 -6.5 37.5 q0 12 1.5 22.5 q1.5 10.5 5 23 q3.5 12.5 7.5 31.5 l-22 0 l24 50 l64 278 l120 0 l-65 -307 q-2 -7 -4 -20.5 q-2 -13.5 -2 -25.5 q0 -19 6 -30.5 q6 -11.5 21 -11.5 q17 0 36 15.5 q19 15.5 37.5 41.5 q18.5 26 35.5 57.5 q17 31.5 30 65.5 q13 34 19 64 l-16 -177 l-27 0 q-11 -18 -27.5 -44.5 q-16.5 -26.5 -40 -52 q-23.5 -25.5 -54 -42.5 q-30.5 -17 -69.5 -17 ZM662 -11 q-40 0 -59.5 14.5 q-19.5 14.5 -19.5 45.5 q0 22 5.5 51 q5.5 29 13.5 62 q8 33 15 67 l8 56 l41 188 l120 0 l-73 -350 q0 0 -3 -16 q-3 -16 -3 -26 q0 -7 4 -12.5 q4 -5.5 17 -5.5 q17 0 32.5 11 q15.5 11 26 23 q10.5 12 12.5 15 l27 -20 q-19 -29 -40.5 -52.5 q-21.5 -23.5 -51 -37 q-29.5 -13.5 -72.5 -13.5 Z" /><glyph glyph-name="uni0270" unicode="&#x270;" d="M731 -220 l-208 0 l81 381 l29 161 l33 151 l121 0 l-118 -573 q0 0 -1.5 -9 q-1.5 -9 -1.5 -22 q0 -26 13 -39 q13 -13 57 -13 l-5 -37 ZM127 -11 q-42 0 -59 23 q-17 23 -17 59 q0 18 3.5 38 q3.5 20 7.5 36 l51 210 q0 0 1.5 7.5 q1.5 7.5 3 18 q1.5 10.5 1.5 17.5 q0 13 -8.5 21.5 q-8.5 8.5 -25.5 8.5 q-12 0 -21 -1 q-9 -1 -12 -1 l0 37 l160 11 l44 0 l-71 -308 q-1 -7 -3.5 -20.5 q-2.5 -13.5 -2.5 -24.5 q0 -19 6.5 -31 q6.5 -12 21.5 -12 q16 0 33.5 13.5 q17.5 13.5 35.5 37 q18 23.5 33.5 52.5 q15.5 29 29 59.5 q13.5 30.5 21.5 59.5 l-30 -147 q-11 -16 -28 -43.5 q-17 -27.5 -41.5 -55 q-24.5 -27.5 -57.5 -46.5 q-33 -19 -76 -19 ZM399 -11 q-32 0 -49.5 12 q-17.5 12 -24 30.5 q-6.5 18.5 -6.5 38.5 q0 10 1.5 20 q1.5 10 5 23 q3.5 13 7.5 32 l-22 0 l21 35 l67 293 l120 0 l-65 -307 q-2 -7 -4 -20.5 q-2 -13.5 -2 -24.5 q0 -19 6 -31 q6 -12 20 -12 q18 0 37 15.5 q19 15.5 38 41.5 q19 26 35.5 58 q16.5 32 29.5 65.5 q13 33.5 19 63.5 l-16 -177 l-27 0 q-11 -18 -27.5 -44.5 q-16.5 -26.5 -40 -52 q-23.5 -25.5 -54 -42.5 q-30.5 -17 -69.5 -17 Z" /><glyph glyph-name="uni0235" unicode="&#x235;" d="M369 -128 l-35 15 q19 35 41 76 q22 41 49 80.5 q27 39.5 57 71.5 q30 32 63.5 52 q33.5 20 70.5 20 q35 0 56 -17.5 q21 -17.5 21 -49.5 q0 -37 -28 -66.5 q-28 -29.5 -76 -47.5 q-48 -18 -108 -18 q-44 0 -76 10.5 q-32 10.5 -48.5 31.5 q-16.5 21 -16.5 51 q0 10 1.5 19.5 q1.5 9.5 6.5 29.5 l48 178 q0 0 3.5 16 q3.5 16 3.5 35 q0 17 -4.5 26.5 q-4.5 9.5 -17.5 9.5 q-20 0 -42 -20 q-22 -20 -44.5 -52 q-22.5 -32 -42.5 -67 q-20 -35 -34 -65.5 q-14 -30.5 -21 -47.5 l17 124 q14 23 34.5 58.5 q20.5 35.5 49 71 q28.5 35.5 67 59.5 q38.5 24 88.5 24 q44 0 59.5 -22.5 q15.5 -22.5 15.5 -52.5 q0 -23 -3.5 -41 q-3.5 -18 -6.5 -30 l-56 -218 q-3 -11 -4 -18.5 q-1 -7.5 -1 -13.5 q0 -18 12.5 -31 q12.5 -13 47.5 -13 q34 0 63.5 12 q29.5 12 48 30 q18.5 18 18.5 37 q0 12 -8 20 q-8 8 -27 8 q-33 0 -66.5 -25.5 q-33.5 -25.5 -64.5 -67 q-31 -41.5 -59.5 -90 q-28.5 -48.5 -51.5 -92.5 ZM164 0 l-119 0 l79 371 q0 0 2 11 q2 11 2 20 q0 14 -7.5 21.5 q-7.5 7.5 -25.5 7.5 q-9 0 -20 -1 q-11 -1 -11 -1 l0 36 l154 11 l38 0 l-49 -200 l22 0 l-65 -276 Z" /><glyph glyph-name="uni0272" unicode="&#x272;" d="M-47 -228 q-52 0 -85 22 q-33 22 -33 63 q0 22 13 39.5 q13 17.5 39 17.5 q26 0 36.5 -15 q10.5 -15 15 -34 q4.5 -19 10 -33.5 q5.5 -14.5 21.5 -14.5 q13 0 24 13 q11 13 20.5 34.5 q9.5 21.5 17.5 48 q8 26.5 14 53 q6 26.5 10 47.5 l71 358 q0 0 1.5 10 q1.5 10 1.5 21 q0 12 -7 20.5 q-7 8.5 -26 8.5 q-10 0 -20.5 -1 q-10.5 -1 -10.5 -1 l0 36 l155 11 l38 0 l-49 -200 l18 0 l-49 -219 q-11 -46 -25 -89 q-14 -43 -32 -78.5 q-18 -35.5 -42 -62 q-24 -26.5 -55.5 -41 q-31.5 -14.5 -71.5 -14.5 ZM416 -11 q-46 0 -63 18 q-17 18 -17 45 q0 12 2.5 22.5 q2.5 10.5 3.5 14.5 l59 219 q0 0 3.5 16 q3.5 16 3.5 33 q0 16 -5 27 q-5 11 -19 11 q-19 0 -41 -20 q-22 -20 -45 -51.5 q-23 -31.5 -43.5 -67 q-20.5 -35.5 -35.5 -66 q-15 -30.5 -23 -48.5 l20 125 q13 23 34 58.5 q21 35.5 49.5 71 q28.5 35.5 67.5 59.5 q39 24 90 24 q46 0 61 -23 q15 -23 15 -53 q0 -20 -3.5 -38 q-3.5 -18 -6.5 -32 l-59 -228 q0 0 -1.5 -7.5 q-1.5 -7.5 -1.5 -15.5 q0 -20 21 -20 q24 0 41.5 17.5 q17.5 17.5 28.5 31.5 l28 -20 q-6 -9 -18 -25.5 q-12 -16.5 -31 -35 q-19 -18.5 -47 -30.5 q-28 -12 -68 -12 Z" /><glyph glyph-name="uni0273" unicode="&#x273;" d="M476 -229 q-80 0 -118.5 39.5 q-38.5 39.5 -38.5 112.5 q0 24 4.5 52.5 q4.5 28.5 12.5 63.5 l63 269 q0 0 3.5 16 q3.5 16 3.5 33 q0 16 -5 27 q-5 11 -20 11 q-18 0 -40.5 -20 q-22.5 -20 -45 -51.5 q-22.5 -31.5 -42.5 -66.5 q-20 -35 -35 -66 q-15 -31 -22 -49 l18 125 q13 23 33.5 58.5 q20.5 35.5 49 71 q28.5 35.5 67.5 59.5 q39 24 89 24 q46 0 61.5 -22.5 q15.5 -22.5 15.5 -53.5 q0 -21 -3.5 -39 q-3.5 -18 -5.5 -31 l-82 -366 q-6 -24 -9.5 -46.5 q-3.5 -22.5 -3.5 -41.5 q0 -29 8.5 -46.5 q8.5 -17.5 30.5 -17.5 q21 0 33 13 q12 13 21.5 29 q9.5 16 22.5 29 q13 13 34 13 q16 0 29.5 -9.5 q13.5 -9.5 13.5 -33.5 q0 -28 -20 -47 q-20 -19 -52.5 -29 q-32.5 -10 -70.5 -10 ZM164 0 l-119 0 l79 371 q0 0 1.5 11 q1.5 11 1.5 20 q0 14 -7 21.5 q-7 7.5 -25 7.5 q-9 0 -20 -1 q-11 -1 -11 -1 l0 36 l154 11 l38 0 l-49 -200 l22 0 l-65 -276 Z" /><glyph glyph-name="uni019E" unicode="&#x19e;" d="M510 -220 l-229 0 l116 530 q0 0 3.5 18 q3.5 18 3.5 34 q0 12 -3.5 22.5 q-3.5 10.5 -18.5 10.5 q-19 0 -41.5 -20 q-22.5 -20 -45.5 -51.5 q-23 -31.5 -42.5 -66.5 q-19.5 -35 -34.5 -66 q-15 -31 -22 -49 l17 124 q15 26 36 62 q21 36 50 71 q29 35 67.5 58 q38.5 23 88.5 23 q45 0 60 -21 q15 -21 15 -53 q0 -20 -3 -38.5 q-3 -18.5 -6 -33.5 l-91 -429 q-1 -4 -2.5 -15.5 q-1.5 -11.5 -1.5 -20.5 q0 -22 18 -37 q18 -15 73 -15 l-7 -37 ZM164 0 l-119 0 l79 371 q0 0 1.5 11 q1.5 11 1.5 20 q0 14 -7 21.5 q-7 7.5 -25 7.5 q-9 0 -20 -1 q-11 -1 -11 -1 l0 36 l154 11 l38 0 l-49 -200 l22 0 l-65 -276 Z" /><glyph glyph-name="eng" unicode="&#x14b;" d="M215 -228 q-30 0 -55.5 9 q-25.5 9 -41 28 q-15.5 19 -15.5 46 q0 23 12.5 40.5 q12.5 17.5 40.5 17.5 q26 0 36.5 -14.5 q10.5 -14.5 14.5 -33.5 q4 -19 9 -33.5 q5 -14.5 21 -14.5 q16 0 30.5 19.5 q14.5 19.5 26.5 51 q12 31.5 22.5 68.5 q10.5 37 18.5 73 l64 278 q0 0 3.5 16.5 q3.5 16.5 3.5 33.5 q0 17 -5 27.5 q-5 10.5 -20 10.5 q-18 0 -40.5 -20.5 q-22.5 -20.5 -45 -52 q-22.5 -31.5 -43 -66.5 q-20.5 -35 -35.5 -66 q-15 -31 -21 -49 l17 125 q15 27 36 62.5 q21 35.5 50 70.5 q29 35 67.5 58 q38.5 23 87.5 23 q44 0 60 -20 q16 -20 16 -55 q0 -19 -3 -38.5 q-3 -19.5 -6 -33.5 l-56 -243 q-10 -43 -24 -88 q-14 -45 -33.5 -86.5 q-19.5 -41.5 -46.5 -73.5 q-27 -32 -63 -51 q-36 -19 -83 -19 ZM164 0 l-119 0 l79 371 q0 0 2 11 q2 11 2 20 q0 14 -7.5 21.5 q-7.5 7.5 -26.5 7.5 q-8 0 -19 -1 q-11 -1 -11 -1 l0 36 l154 11 l38 0 l-49 -200 l21 0 l-64 -276 Z" /><glyph glyph-name="uni0274" unicode="&#x274;" d="M426 -6 l-78 0 l-195 357 l-16 23 q-12 25 -21.5 37.5 q-9.5 12.5 -22 16.5 q-12.5 4 -34.5 4 l8 39 l160 0 l177 -321 l28 0 l-34 -51 l52 245 q3 13 5 24 q2 11 2 20 q0 21 -13 32.5 q-13 11.5 -48 11.5 l8 39 l195 0 l-8 -39 q-48 0 -65.5 -23 q-17.5 -23 -25.5 -66 l-74 -349 ZM159 0 l-192 0 l8 38 q29 0 46 6.5 q17 6.5 27 24.5 q10 18 17 51 l62 293 l45 -79 l-14 0 l-43 -214 q-3 -13 -4.5 -23.5 q-1.5 -10.5 -1.5 -18.5 q0 -24 13.5 -32 q13.5 -8 44.5 -8 l-8 -38 Z" /><glyph glyph-name="uni0254" unicode="&#x254;" d="M147 -13 q-38 0 -70 10 q-32 10 -51 32 q-19 22 -19 57 q0 31 17 53.5 q17 22.5 51 22.5 q22 0 34.5 -11 q12.5 -11 12.5 -34 q0 -15 -4.5 -34 q-4.5 -19 -4.5 -28 q0 -12 10.5 -19.5 q10.5 -7.5 31.5 -7.5 q38 0 64.5 23.5 q26.5 23.5 44 61.5 q17.5 38 25.5 81.5 q8 43.5 8 84.5 q0 50 -11.5 78.5 q-11.5 28.5 -31.5 40 q-20 11.5 -49 11.5 q-44 0 -76.5 -20.5 q-32.5 -20.5 -53.5 -46.5 l-27 17 q17 28 44 56 q27 28 66.5 46.5 q39.5 18.5 91.5 18.5 q65 0 102.5 -28.5 q37.5 -28.5 54 -74 q16.5 -45.5 16.5 -95.5 q0 -83 -35.5 -150 q-35.5 -67 -97.5 -106 q-62 -39 -143 -39 Z" /><glyph glyph-name="uni0276" unicode="&#x276;" d="M217 -9 q-63 0 -104.5 25.5 q-41.5 25.5 -61 70 q-19.5 44.5 -19.5 101.5 q0 84 38.5 149.5 q38.5 65.5 106 104 q67.5 38.5 152.5 38.5 q25 0 46.5 -3.5 q21.5 -3.5 35.5 -5.5 l320 0 l-23 -131 l-34 0 q0 35 -6 53.5 q-6 18.5 -26 25.5 q-20 7 -62 7 l-74 0 l-80 -382 l60 0 q35 0 60 5 q25 5 43.5 16.5 q18.5 11.5 34 31.5 q15.5 20 31.5 51 l35 0 l-52 -148 l-330 0 q-15 -2 -40 -5.5 q-25 -3.5 -51 -3.5 ZM240 34 q26 0 50.5 16 q24.5 16 31.5 49 l57 263 q1 6 1.5 11.5 q0.5 5.5 0.5 10.5 q0 26 -15.5 40 q-15.5 14 -48.5 14 q-48 0 -83.5 -33 q-35.5 -33 -55 -92.5 q-19.5 -59.5 -19.5 -140.5 q0 -36 7.5 -68 q7.5 -32 25 -51 q17.5 -19 48.5 -19 ZM596 154 l-37 0 q2 9 3 17 q1 8 1 14 q0 23 -16 28.5 q-16 5.5 -52 5.5 l-73 0 l10 42 l72 0 q31 0 48.5 3.5 q17.5 3.5 27 17 q9.5 13.5 15.5 42.5 l37 0 l-36 -170 Z" /><glyph glyph-name="uni02A0" unicode="&#x2a0;" d="M459 -220 l-209 0 l63 282 l-11 0 q-25 -32 -48.5 -48 q-23.5 -16 -44.5 -21.5 q-21 -5.5 -40 -5.5 q-72 0 -105.5 50.5 q-33.5 50.5 -33.5 128.5 q0 70 23 128 q23 58 61 99.5 q38 41.5 84 64 q46 22.5 93 22.5 q40 0 63 -13 q23 -13 30 -23 l5 0 l8 37 q14 65 45.5 117 q31.5 52 82 83 q50.5 31 120.5 31 q50 0 83.5 -17.5 q33.5 -17.5 33.5 -53.5 q0 -26 -17 -40 q-17 -14 -36 -14 q-21 0 -32.5 12 q-11.5 12 -20.5 27.5 q-9 15.5 -21 28 q-12 12.5 -32 12.5 q-29 0 -49 -28 q-20 -28 -31 -85 l-126 -654 q0 0 -1.5 -9 q-1.5 -9 -1.5 -22 q0 -26 13 -39 q13 -13 57 -13 l-5 -37 ZM218 63 q26 0 47 13.5 q21 13.5 37.5 38.5 q16.5 25 26.5 57 q8 29 15 62.5 q7 33.5 11 64.5 q4 31 4 49 q0 37 -18 63.5 q-18 26.5 -52 26.5 q-39 0 -69 -37.5 q-30 -37.5 -46.5 -98.5 q-16.5 -61 -16.5 -130 q0 -53 12.5 -81 q12.5 -28 48.5 -28 Z" /><glyph glyph-name="uni027D" unicode="&#x27d;" d="M194 -228 q-81 0 -119.5 38.5 q-38.5 38.5 -38.5 109.5 q0 32 6 63 q6 31 14 71 l61 285 q3 15 6 32 q3 17 3 30 q0 14 -6.5 22 q-6.5 8 -26.5 8 q-8 0 -19.5 -1 q-11.5 -1 -11.5 -1 l0 36 l152 11 l40 0 l-43 -194 l14 0 l-69 -314 q-6 -23 -9.5 -44 q-3.5 -21 -3.5 -43 q0 -27 8.5 -45.5 q8.5 -18.5 30.5 -18.5 q21 0 32.5 12.5 q11.5 12.5 21.5 28.5 q10 16 23 29 q13 13 35 13 q15 0 28.5 -10 q13.5 -10 13.5 -30 q0 -31 -20 -50.5 q-20 -19.5 -52.5 -28.5 q-32.5 -9 -69.5 -9 ZM177 93 l41 178 q12 25 26.5 60 q14.5 35 33.5 69 q19 34 46.5 56.5 q27.5 22.5 65.5 22.5 q29 0 47 -16.5 q18 -16.5 18 -51.5 q0 -35 -20 -53.5 q-20 -18.5 -43 -18.5 q-20 0 -30 10.5 q-10 10.5 -13.5 20.5 q-3.5 10 -5.5 10 q-18 0 -38 -23 q-20 -23 -40 -59.5 q-20 -36.5 -37.5 -77 q-17.5 -40.5 -30.5 -74.5 q-13 -34 -20 -53 Z" /><glyph glyph-name="uni027C" unicode="&#x27c;" d="M232 -220 l-234 0 l120 559 q3 15 6 32 q3 17 3 29 q0 15 -7 23 q-7 8 -27 8 q-8 0 -19 -1 q-11 -1 -11 -1 l0 36 l152 11 l41 0 l-44 -194 l16 0 l-81 -374 q-1 -7 -2.5 -19 q-1.5 -12 -1.5 -21 q0 -12 7.5 -24.5 q7.5 -12.5 28.5 -20 q21 -7.5 61 -7.5 l-8 -36 ZM184 106 l36 166 q9 18 19.5 44 q10.5 26 24 54 q13.5 28 31.5 53 q18 25 41 40.5 q23 15.5 53 15.5 q30 0 48.5 -16 q18.5 -16 18.5 -50 q0 -38 -20 -56 q-20 -18 -43 -18 q-19 0 -29.5 10.5 q-10.5 10.5 -14 20.5 q-3.5 10 -5.5 10 q-18 0 -38 -23.5 q-20 -23.5 -39 -59.5 q-19 -36 -35.5 -75 q-16.5 -39 -29.5 -70.5 q-13 -31.5 -18 -45.5 Z" /><glyph glyph-name="uni0279" unicode="&#x279;" d="M263 -11 q-44 0 -61.5 18.5 q-17.5 18.5 -17.5 47.5 q0 12 3 28 q3 16 10.5 41.5 q7.5 25.5 19.5 66.5 l-15 0 l61 282 l123 0 l-74 -339 q-2 -11 -5 -27 q-3 -16 -3 -23 q0 -10 6 -15.5 q6 -5.5 16 -5.5 q23 0 41.5 17.5 q18.5 17.5 29.5 31.5 l27 -20 q-6 -9 -18 -26 q-12 -17 -31 -35 q-19 -18 -46.5 -30 q-27.5 -12 -65.5 -12 ZM41 -11 q-30 0 -49 16.5 q-19 16.5 -19 50.5 q0 38 20.5 56 q20.5 18 43.5 18 q20 0 29.5 -10.5 q9.5 -10.5 13.5 -20.5 q4 -10 6 -10 q18 0 37.5 23.5 q19.5 23.5 38 59 q18.5 35.5 34.5 73 q16 37.5 26.5 65 q10.5 27.5 13.5 34.5 l-26 -143 q-9 -18 -19.5 -44.5 q-10.5 -26.5 -24 -55.5 q-13.5 -29 -31.5 -54.5 q-18 -25.5 -41 -41.5 q-23 -16 -53 -16 Z" /><glyph glyph-name="uni027B" unicode="&#x27b;" d="M320 -229 q-81 0 -120.5 40 q-39.5 40 -39.5 109 q0 32 6.5 61 q6.5 29 13.5 56 l42 169 l-9 27 l51 240 l123 -1 l-106 -505 q-5 -23 -8.5 -45.5 q-3.5 -22.5 -3.5 -42.5 q0 -28 9 -45.5 q9 -17.5 30 -17.5 q21 0 33 13 q12 13 22 29 q10 16 22.5 29 q12.5 13 34.5 13 q15 0 29 -9.5 q14 -9.5 14 -33.5 q0 -28 -20.5 -47.5 q-20.5 -19.5 -53 -29 q-32.5 -9.5 -69.5 -9.5 ZM40 -11 q-29 0 -48 16.5 q-19 16.5 -19 50.5 q0 38 20.5 56 q20.5 18 43.5 18 q19 0 29 -10.5 q10 -10.5 14 -20.5 q4 -10 5 -10 q18 0 38 23.5 q20 23.5 39.5 60.5 q19.5 37 37 78 q17.5 41 30.5 75.5 q13 34.5 20 52.5 l-16 -188 l-28 0 q-11 -26 -25.5 -60.5 q-14.5 -34.5 -33.5 -66.5 q-19 -32 -45 -53.5 q-26 -21.5 -62 -21.5 Z" /><glyph glyph-name="uni027A" unicode="&#x27a;" d="M266 -11 q-48 0 -64 19.5 q-16 19.5 -16 45.5 q0 7 1.5 16 q1.5 9 6 26.5 q4.5 17.5 14.5 50.5 q10 33 26 87 l0 92 l57 272 q0 1 1.5 11.5 q1.5 10.5 1.5 21.5 q0 13 -6 21.5 q-6 8.5 -27 8.5 q-11 0 -21 -1 q-10 -1 -10 -1 l0 35 l166 11 l37 0 l-117 -567 q-3 -15 -5 -29.5 q-2 -14.5 -2 -22.5 q0 -12 5 -17.5 q5 -5.5 17 -5.5 q23 0 41 17.5 q18 17.5 29 31.5 l28 -20 q-7 -10 -19 -27 q-12 -17 -31.5 -34.5 q-19.5 -17.5 -46.5 -29.5 q-27 -12 -66 -12 ZM40 -11 q-29 0 -48 16 q-19 16 -19 50 q0 37 20.5 55.5 q20.5 18.5 43.5 18.5 q20 0 30 -10.5 q10 -10.5 13.5 -21 q3.5 -10.5 5.5 -10.5 q18 0 38 24.5 q20 24.5 39 60.5 q19 36 35.5 74 q16.5 38 27.5 66 q11 28 13 35 l-1 -153 l-29 0 q-10 -23 -24.5 -58 q-14.5 -35 -34.5 -68.5 q-20 -33.5 -47 -56 q-27 -22.5 -63 -22.5 Z" /><glyph glyph-name="uni027E" unicode="&#x27e;" d="M139 0 l-123 0 l52 237 q16 73 51.5 128 q35.5 55 85.5 85 q50 30 109 30 q50 0 81.5 -20.5 q31.5 -20.5 31.5 -56.5 q0 -27 -16.5 -40 q-16.5 -13 -36.5 -13 q-21 0 -32 13 q-11 13 -18.5 29.5 q-7.5 16.5 -17.5 29.5 q-10 13 -29 13 q-23 0 -41 -23 q-18 -23 -29 -76 l-68 -336 Z" /><glyph glyph-name="uni027F" unicode="&#x27f;" d="M214 -11 q-45 0 -64 18 q-19 18 -19 49 q0 11 2 23 q2 12 5 24 l51 205 q6 25 10 47.5 q4 22.5 4 37.5 q0 43 -34 43 q-20 0 -32.5 -13 q-12.5 -13 -22 -30 q-9.5 -17 -23 -30 q-13.5 -13 -36.5 -13 q-18 0 -31.5 10.5 q-13.5 10.5 -13.5 33.5 q0 27 19.5 46.5 q19.5 19.5 52.5 29.5 q33 10 74 10 q45 0 79 -13.5 q34 -13.5 53.5 -42.5 q19.5 -29 19.5 -77 q0 -20 -3 -44 q-3 -24 -8 -44 l-36 -141 q-2 -8 -3.5 -17.5 q-1.5 -9.5 -1.5 -15.5 q0 -12 5 -17 q5 -5 15 -5 q17 0 30.5 9 q13.5 9 24 20.5 q10.5 11.5 16.5 19.5 l28 -20 q-15 -22 -35.5 -46 q-20.5 -24 -50.5 -40.5 q-30 -16.5 -75 -16.5 Z" /><glyph glyph-name="uni0280" unicode="&#x280;" d="M195 207 l9 40 l35 -1 q58 3 90.5 32.5 q32.5 29.5 32.5 76.5 q0 27 -9.5 43.5 q-9.5 16.5 -26.5 23.5 q-17 7 -37 7 q-9 0 -18.5 -0.5 q-9.5 -0.5 -18.5 -2.5 l-68 -318 q-2 -11 -3.5 -20.5 q-1.5 -9.5 -1.5 -17.5 q0 -18 11.5 -24.5 q11.5 -6.5 45.5 -6.5 l-8 -39 l-252 0 l8 39 q31 0 47.5 4 q16.5 4 24.5 19 q8 15 15 45 l56 266 q2 8 3.5 15.5 q1.5 7.5 0.5 12.5 q0 16 -12.5 23 q-12.5 7 -49.5 8 l8 39 l231 0 q53 0 91.5 -11 q38.5 -11 59.5 -35.5 q21 -24.5 21 -65.5 q0 -33 -14 -57 q-14 -24 -35.5 -40.5 q-21.5 -16.5 -46 -26.5 q-24.5 -10 -45.5 -15 l0 -4 q13 -6 21 -19 q8 -13 22.5 -42 q14.5 -29 42.5 -83 q12 -22 28.5 -27.5 q16.5 -5.5 41.5 -5.5 l-7 -39 l-162 0 q-19 48 -32.5 83 q-13.5 35 -22.5 60 q-9 25 -16 39 q-6 14 -14 19.5 q-8 5.5 -21 5.5 l-25 0 Z" /><glyph glyph-name="uni0281" unicode="&#x281;" d="M208 0 l-232 0 l8 39 q33 1 49.5 6 q16.5 5 23.5 18 q7 13 11 35 l56 264 q2 12 3.5 21 q1.5 9 1.5 16 q0 18 -13 25.5 q-13 7.5 -48 7.5 l8 39 l247 0 l-7 -39 q-29 0 -43.5 -6 q-14.5 -6 -21 -20 q-6.5 -14 -12.5 -39 l-69 -323 q8 -1 17.5 -1.5 q9.5 -0.5 18.5 -0.5 q36 0 61.5 14.5 q25.5 14.5 39 39 q13.5 24.5 13.5 54.5 q0 32 -17.5 53.5 q-17.5 21.5 -59.5 21.5 l-44 -3 l8 42 l23 0 q15 0 24.5 5.5 q9.5 5.5 22.5 19.5 q11 11 24 28 q13 17 30.5 39 q17.5 22 40.5 51 q23 29 51 64 l171 0 l-9 -40 q-26 0 -45 -4.5 q-19 -4.5 -41 -29.5 q-37 -43 -60 -69.5 q-23 -26.5 -38 -41 q-15 -14.5 -27.5 -22.5 q-12.5 -8 -28.5 -16 l-2 -3 q42 -11 71.5 -38.5 q29.5 -27.5 29.5 -74.5 q0 -37 -21 -62.5 q-21 -25.5 -55.5 -41 q-34.5 -15.5 -76 -22 q-41.5 -6.5 -83.5 -6.5 Z" /><glyph glyph-name="uni0282" unicode="&#x282;" d="M89 -228 q-62 0 -85 29.5 q-23 29.5 -23 76.5 q0 19 3.5 39 q3.5 20 7.5 41 l42 210 l35 0 q8 -66 27 -103 q19 -37 70 -37 q34 0 53.5 16 q19.5 16 19.5 48 q0 32 -20 57.5 q-20 25.5 -53 59.5 q-35 36 -60.5 69 q-25.5 33 -25.5 79 q0 56 40.5 89.5 q40.5 33.5 107.5 33.5 q36 0 65.5 -9 q29.5 -9 47.5 -20 l4 0 l26 28 l27 0 l-22 -160 l-34 0 q-4 58 -25.5 90 q-21.5 32 -65.5 32 q-31 0 -46 -15 q-15 -15 -15 -37 q0 -26 20.5 -51.5 q20.5 -25.5 55.5 -61.5 q37 -39 63 -74.5 q26 -35.5 26 -80.5 q0 -40 -23 -70.5 q-23 -30.5 -64 -47.5 q-41 -17 -94 -17 q-40 0 -67.5 9.5 q-27.5 9.5 -46.5 20.5 l-5 0 l-16 -78 q-4 -19 -6 -33.5 q-2 -14.5 -2 -26.5 q0 -38 13.5 -51 q13.5 -13 29.5 -13 q16 0 26.5 10.5 q10.5 10.5 20 24 q9.5 13.5 21.5 24.5 q12 11 31 11 q14 0 24 -8.5 q10 -8.5 10 -27.5 q0 -24 -16 -41.5 q-16 -17.5 -43 -26 q-27 -8.5 -59 -8.5 Z" /><glyph glyph-name="uni1D8A" unicode="&#x1d8a;" d="M170 -14 q-40 0 -68.5 9 q-28.5 9 -48.5 20 l-4 0 l-21 -26 l-31 0 l33 179 l35 0 q8 -66 27 -103 q19 -37 70 -37 q34 0 53.5 16 q19.5 16 19.5 48 q0 32 -19.5 57.5 q-19.5 25.5 -53.5 58.5 q-23 25 -43 46.5 q-20 21.5 -32.5 45.5 q-12.5 24 -12.5 54 q0 57 40.5 91.5 q40.5 34.5 109.5 34.5 q36 0 66 -9 q30 -9 47 -20 l4 0 l26 28 l27 0 l-22 -160 l-34 0 q-4 58 -25.5 90 q-21.5 32 -65.5 32 q-32 0 -47.5 -16 q-15.5 -16 -15.5 -38 q0 -17 10 -33.5 q10 -16.5 27.5 -35 q17.5 -18.5 40.5 -43.5 q38 -39 63.5 -73 q25.5 -34 25.5 -81 q0 -40 -23 -70.5 q-23 -30.5 -63.5 -47.5 q-40.5 -17 -94.5 -17 ZM141 -228 q-39 0 -65 16 q-26 16 -26 47 q0 23 12.5 35 q12.5 12 30.5 12 q20 0 29 -10.5 q9 -10.5 14.5 -24 q5.5 -13.5 12.5 -23.5 q7 -10 20 -10 q17 0 33 10.5 q16 10.5 30.5 37.5 q14.5 27 25.5 77 l14 65 l-24 19 l96 81 l-31 -150 q-10 -50 -29.5 -91.5 q-19.5 -41.5 -53.5 -66 q-34 -24.5 -89 -24.5 Z" /><glyph glyph-name="longs" unicode="&#x17f;" d="M-31 -228 q-53 0 -85.5 22 q-32.5 22 -32.5 64 q0 22 13 39 q13 17 37 17 q27 0 38.5 -15 q11.5 -15 15.5 -34 q4 -19 9.5 -34 q5.5 -15 19.5 -15 q16 0 28.5 18 q12.5 18 22 46 q9.5 28 16.5 59 q7 31 11.5 59 q4.5 28 7.5 44 l62 391 q8 59 19 105 q11 46 30 80 q14 25 35 46 q21 21 55 34.5 q34 13.5 86 13.5 q34 0 61 -9.5 q27 -9.5 43 -28.5 q16 -19 16 -49 q0 -25 -16 -38.5 q-16 -13.5 -38 -13.5 q-25 0 -35.5 15.5 q-10.5 15.5 -14.5 35.5 q-4 19 -9 35 q-5 16 -21 16 q-28 0 -47 -36 q-19 -36 -29 -99 l-71 -458 q-5 -30 -14.5 -70 q-9.5 -40 -25.5 -82 q-16 -42 -41 -78 q-25 -36 -61 -58 q-36 -22 -85 -22 ZM142 417 l-99 0 l7 51 l97 0 l-5 -51 Z" /><glyph glyph-name="uni1E9C" unicode="&#x1e9c;" d="M-17 -228 q-54 0 -86.5 22 q-32.5 22 -32.5 64 q0 22 13 39 q13 17 38 17 q26 0 37.5 -15 q11.5 -15 15.5 -34 q4 -19 9.5 -34 q5.5 -15 19.5 -15 q16 0 28.5 18 q12.5 18 22 46 q9.5 28 16.5 59 q7 31 12 59 q5 28 7 44 l61 387 q7 49 13.5 82.5 q6.5 33.5 15 58.5 q8.5 25 21.5 48 q14 25 35 46 q21 21 55 34.5 q34 13.5 86 13.5 q34 0 61 -9.5 q27 -9.5 43 -28.5 q16 -19 16 -49 q0 -25 -16 -38.5 q-16 -13.5 -38 -13.5 q-26 0 -36 16.5 q-10 16.5 -14 35.5 q-4 20 -9.5 35 q-5.5 15 -20.5 15 q-28 0 -47 -36 q-19 -36 -29 -99 l-71 -458 q-4 -30 -13.5 -70 q-9.5 -40 -26 -82 q-16.5 -42 -41.5 -78 q-25 -36 -61 -58 q-36 -22 -84 -22 ZM166 279 l-124 -76 l-24 40 l150 93 l51 30 l124 74 l23 -40 l-157 -97 l-43 -24 ZM155 417 l-99 0 l7 51 l97 0 l-5 -51 Z" /><glyph glyph-name="uni1E9D" unicode="&#x1e9d;" d="M-31 -228 q-53 0 -85.5 22 q-32.5 22 -32.5 64 q0 22 13 39 q13 17 37 17 q27 0 38.5 -15 q11.5 -15 15.5 -34 q4 -19 9.5 -34 q5.5 -15 19.5 -15 q16 0 28.5 18 q12.5 18 22 46 q9.5 28 16.5 59 q7 31 11.5 59 q4.5 28 7.5 44 l62 392 q8 55 19 102.5 q11 47.5 30 81.5 q14 25 35 46 q21 21 55 34.5 q34 13.5 86 13.5 q34 0 61 -9.5 q27 -9.5 43 -28.5 q16 -19 16 -49 q0 -25 -16 -38.5 q-16 -13.5 -38 -13.5 q-25 0 -35.5 15.5 q-10.5 15.5 -14.5 35.5 q-4 19 -9 35 q-5 16 -21 16 q-28 0 -47 -36 q-19 -36 -29 -99 l-71 -458 q-5 -30 -14.5 -70 q-9.5 -40 -25.5 -82 q-16 -42 -41 -78 q-25 -36 -61 -58 q-36 -22 -85 -22 ZM142 417 l-99 0 l7 51 l97 0 l-5 -51 ZM353 528 l-291 0 l8 47 l292 0 l-9 -47 Z" /><glyph glyph-name="uni01AB" unicode="&#x1ab;" d="M129 -12 q-36 0 -56.5 16 q-20.5 16 -20.5 53 q0 13 2.5 29.5 q2.5 16.5 5.5 29.5 l65 304 l-59 0 l6 35 q36 17 60.5 32 q24.5 15 46 40 q21.5 25 49.5 66 l50 0 l-96 -459 q0 0 -3.5 -18.5 q-3.5 -18.5 -3.5 -31.5 q0 -9 3.5 -15 q3.5 -6 15.5 -6 q18 0 35 11.5 q17 11.5 40 40.5 l27 -20 q-15 -21 -38.5 -46.5 q-23.5 -25.5 -55 -43 q-31.5 -17.5 -73.5 -17.5 ZM91 -227 q-38 0 -63 15.5 q-25 15.5 -25 48.5 q0 22 12 34 q12 12 31 12 q20 0 29 -10 q9 -10 14 -24 q5 -14 12 -24 q7 -10 23 -10 q13 0 29 10 q16 10 31.5 37.5 q15.5 27.5 26.5 77.5 l16 74 l-12 7 l81 74 l-30 -140 q-10 -49 -29.5 -91 q-19.5 -42 -54 -66.5 q-34.5 -24.5 -91.5 -24.5 ZM340 420 l-109 0 l8 48 l111 0 l-10 -48 Z" /><glyph glyph-name="uni0236" unicode="&#x236;" d="M88 -128 l-35 15 q18 35 40.5 76 q22.5 41 49 80.5 q26.5 39.5 56.5 71.5 q30 32 63.5 52 q33.5 20 71.5 20 q34 0 55 -17.5 q21 -17.5 21 -49.5 q0 -37 -28 -66.5 q-28 -29.5 -76 -47.5 q-48 -18 -108 -18 q-44 0 -76 10.5 q-32 10.5 -49 31.5 q-17 21 -17 51 q0 11 1.5 22.5 q1.5 11.5 5.5 25.5 l62 295 l-59 0 l6 34 q37 17 61 31.5 q24 14.5 45.5 38.5 q21.5 24 49.5 65 l50 0 l-97 -466 q-1 -3 -4 -17.5 q-3 -14.5 -3 -24.5 q0 -19 12.5 -32 q12.5 -13 47.5 -13 q34 0 64 12 q30 12 48.5 30 q18.5 18 18.5 37 q0 12 -8.5 20 q-8.5 8 -27.5 8 q-33 0 -66.5 -25.5 q-33.5 -25.5 -64.5 -67 q-31 -41.5 -59 -90 q-28 -48.5 -51 -92.5 ZM341 424 l-110 0 l8 47 l112 0 l-10 -47 Z" /><glyph glyph-name="uni0287" unicode="&#x287;" d="M94 -122 l-50 0 l96 459 q0 0 4 19 q4 19 4 32 q0 9 -4 15 q-4 6 -18 6 q-16 0 -32.5 -10 q-16.5 -10 -39.5 -38 l-27 20 q14 19 35.5 42.5 q21.5 23.5 53 40 q31.5 16.5 75.5 16.5 q37 0 57.5 -16 q20.5 -16 20.5 -53 q0 -13 -2 -29 q-2 -16 -5 -30 l-64 -302 l59 0 l-6 -35 q-36 -15 -60.5 -31 q-24.5 -16 -46.5 -40 q-22 -24 -50 -66 ZM84 3 l-112 0 l10 47 l110 0 l-8 -47 Z" /><glyph glyph-name="uni1D1C" unicode="&#x1d1c;" d="M241 -11 q-62 0 -102 18.5 q-40 18.5 -59 50.5 q-19 32 -19 69 q0 20 2.5 36.5 q2.5 16.5 4.5 27.5 l37 172 q3 15 4 24 q1 9 1 15 q0 19 -13.5 24.5 q-13.5 5.5 -48.5 5.5 l8 39 l255 0 l-8 -37 q-31 0 -46.5 -4.5 q-15.5 -4.5 -22.5 -18.5 q-7 -14 -13 -45 l-36 -165 q-4 -17 -6.5 -32.5 q-2.5 -15.5 -2.5 -33.5 q0 -21 10.5 -39.5 q10.5 -18.5 33 -30.5 q22.5 -12 59.5 -12 q44 0 71 16 q27 16 41.5 44.5 q14.5 28.5 21.5 64.5 l33 164 q3 17 5.5 30 q2.5 13 2.5 23 q0 22 -13.5 30 q-13.5 8 -46.5 8 l8 38 l197 0 l-8 -38 q-32 0 -49.5 -7.5 q-17.5 -7.5 -27 -26 q-9.5 -18.5 -16.5 -55.5 l-29 -142 q-13 -66 -36.5 -114 q-23.5 -48 -68.5 -73.5 q-45 -25.5 -123 -25.5 Z" /><glyph glyph-name="uni028D" unicode="&#x28d;" d="M83 -11 q-26 0 -41.5 14 q-15.5 14 -22.5 38 q-7 24 -7 53 q0 84 34 155 q34 71 90 128 q56 57 121 97 l87 0 q3 -59 5 -114 q2 -55 4.5 -110 q2.5 -55 5.5 -115 l6 0 l158 339 l118 0 q3 -110 8 -188.5 q5 -78.5 13 -142.5 q4 -34 10.5 -56.5 q6.5 -22.5 26.5 -22.5 q21 0 40 17.5 q19 17.5 30 31.5 l28 -20 q-16 -23 -36.5 -46.5 q-20.5 -23.5 -47.5 -39.5 q-27 -16 -67 -16 q-29 0 -50.5 14.5 q-21.5 14.5 -36 52.5 q-14.5 38 -22.5 107 q-8 69 -9 177 l5 49 l-5 0 l-180 -392 l-97 0 q-6 92 -11.5 179.5 q-5.5 87.5 -7.5 182.5 l2 49 l-5 0 q-48 -39 -80 -79.5 q-32 -40.5 -47.5 -81.5 q-15.5 -41 -15.5 -82 q0 -29 8 -46.5 q8 -17.5 18 -28.5 q10 -11 17.5 -23 q7.5 -12 7.5 -31 q0 -26 -16.5 -37.5 q-16.5 -11.5 -37.5 -11.5 Z" /><glyph glyph-name="uni1D8D" unicode="&#x1d8d;" d="M325 -11 q-36 0 -57.5 24.5 q-21.5 24.5 -32.5 73.5 l-27 111 l-11 24 l-28 100 q-12 41 -24 63 q-12 22 -29.5 30 q-17.5 8 -47.5 8 q-15 0 -23.5 -1 q-8.5 -1 -11.5 -2 l0 39 l136 16 l58 0 q16 -21 27 -48.5 q11 -27.5 21 -67.5 l11 -63 l11 -23 l26 -85 q18 -63 32 -86 q14 -23 33 -23 q17 0 33 15 q16 15 34 40 l27 -19 q-13 -17 -28.5 -38.5 q-15.5 -21.5 -34.5 -41.5 q-19 -20 -42 -33 q-23 -13 -52 -13 ZM29 -10 q-35 0 -50 17 q-15 17 -15 37 q0 21 12.5 34 q12.5 13 32.5 13 q15 0 32 -6 q17 -6 31 -6 q14 0 25 10 q11 10 29 38 l74 118 l23 -59 l-19 0 l-55 -101 q-21 -37 -47.5 -66 q-26.5 -29 -72.5 -29 ZM275 -228 q-40 0 -65 15.5 q-25 15.5 -25 48.5 q0 23 12.5 34.5 q12.5 11.5 31.5 11.5 q19 0 28 -10 q9 -10 14 -23.5 q5 -13.5 12.5 -24 q7.5 -10.5 23.5 -10.5 q21 0 46 27 q25 27 40 98 l17 80 l-11 8 l83 88 l-34 -161 q-10 -48 -29 -89.5 q-19 -41.5 -53.5 -67 q-34.5 -25.5 -90.5 -25.5 ZM358 352 l-64 -102 l-22 58 l18 0 l43 77 q16 28 34 50 q18 22 41 34.5 q23 12.5 53 12.5 q33 0 46 -14.5 q13 -14.5 13 -35.5 q0 -26 -15.5 -40 q-15.5 -14 -35.5 -14 q-18 0 -30 7.5 q-12 7.5 -28 7.5 q-16 0 -28 -10 q-12 -10 -25 -31 Z" /><glyph glyph-name="uni028E" unicode="&#x28e;" d="M75 -11 q-35 0 -53.5 23.5 q-18.5 23.5 -18.5 61.5 q0 39 18 80 q18 41 45.5 84 q27.5 43 57.5 85 q25 37 40.5 60 q15.5 23 27 39.5 q11.5 16.5 24 34 q12.5 17.5 32.5 44.5 q53 75 90.5 121.5 q37.5 46.5 71 68 q33.5 21.5 73.5 21.5 q41 0 68 -20.5 q27 -20.5 27 -52.5 q0 -26 -15 -40 q-15 -14 -38 -14 q-19 0 -31.5 10 q-12.5 10 -20 23.5 q-7.5 13.5 -14 23.5 q-6.5 10 -16.5 10 q-9 0 -18.5 -7 q-9.5 -7 -23 -24 q-13.5 -17 -34 -48.5 q-20.5 -31.5 -51.5 -80.5 q-31 -49 -74 -120 l-24 0 l-104 -156 q-15 -22 -23.5 -42.5 q-8.5 -20.5 -8.5 -36.5 q0 -19 12 -34 q12 -15 23.5 -30 q11.5 -15 11.5 -37 q0 -21 -14.5 -34 q-14.5 -13 -39.5 -13 ZM375 -11 q-30 0 -52.5 15 q-22.5 15 -38 49.5 q-15.5 34.5 -27.5 93.5 l-22 126 l-10 115 l89 125 l68 -350 q9 -45 18.5 -72.5 q9.5 -27.5 31.5 -27.5 q19 0 36.5 17 q17.5 17 30.5 34 l28 -20 q-15 -22 -35.5 -46.5 q-20.5 -24.5 -48.5 -41.5 q-28 -17 -68 -17 Z" /><glyph glyph-name="uni028F" unicode="&#x28f;" d="M314 0 l-258 0 l8 39 q33 0 49 4.5 q16 4.5 23 18.5 q7 14 14 43 l15 70 l-65 158 q-19 48 -30 68.5 q-11 20.5 -23 25.5 q-12 5 -34 5 l8 39 l235 0 l-7 -42 q-30 0 -40.5 -5.5 q-10.5 -5.5 -10.5 -15.5 q0 -4 2.5 -11 q2.5 -7 7.5 -21 l38 -94 l13 -50 l5 0 l105 155 q14 20 14 27 q0 8 -8 12 q-8 4 -32 4 l7 41 l174 0 l-8 -39 q-27 0 -44.5 -7 q-17.5 -7 -31.5 -22 q-14 -15 -34 -43 l-126 -184 l-15 -71 q-3 -11 -4 -20.5 q-1 -9.5 -1 -15.5 q0 -20 14 -25 q14 -5 48 -5 l-8 -39 Z" /><glyph glyph-name="uni0291" unicode="&#x291;" d="M143 -146 l-37 18 q26 47 56 99 q30 52 64.5 97.5 q34.5 45.5 74.5 74.5 q40 29 85 29 q39 0 60.5 -20.5 q21.5 -20.5 21.5 -56.5 q0 -31 -20 -63.5 q-20 -32.5 -58 -55 q-38 -22.5 -95 -22.5 q-46 0 -75 9 q-29 9 -51.5 21 q-22.5 12 -44.5 21 q-22 9 -54 9 q-19 0 -32.5 -6 q-13.5 -6 -31.5 -22 l-31 33 l343 348 l0 6 l-151 0 q-25 0 -39 -8.5 q-14 -8.5 -23.5 -26.5 q-9.5 -18 -20.5 -47 l-41 0 l40 180 l369 0 l-1 -50 l-306 -308 l0 -7 q35 -3 58 -17 q23 -14 40.5 -30 q17.5 -16 36 -28.5 q18.5 -12.5 44.5 -12.5 q39 0 67.5 22.5 q28.5 22.5 28.5 53.5 q0 15 -9.5 25.5 q-9.5 10.5 -29.5 10.5 q-31 0 -63.5 -25.5 q-32.5 -25.5 -63.5 -67 q-31 -41.5 -59 -89.5 q-28 -48 -52 -94 Z" /><glyph glyph-name="uni0290" unicode="&#x290;" d="M443 -228 q-60 0 -82 28 q-22 28 -22 69 q0 19 3 41 q3 22 7 39 l6 32 l-13 9 l47 18 q-21 -18 -45.5 -27.5 q-24.5 -9.5 -61.5 -9.5 q-37 0 -63 6.5 q-26 6.5 -47 15 q-21 8.5 -44 15 q-23 6.5 -53 6.5 q-20 0 -35 -5 q-15 -5 -34 -23 l-31 33 l343 348 l0 6 l-151 0 q-25 0 -39 -8.5 q-14 -8.5 -23.5 -26.5 q-9.5 -18 -20.5 -47 l-41 0 l40 180 l369 0 l-1 -50 l-306 -308 l0 -7 q27 -3 47 -16 q20 -13 38 -28.5 q18 -15.5 37 -26.5 q19 -11 44 -11 q32 0 51 18.5 q19 18.5 32 45.5 l34 -7 l-31 -145 q-4 -18 -6.5 -33 q-2.5 -15 -2.5 -30 q0 -27 10 -43 q10 -16 29 -16 q16 0 27 10.5 q11 10.5 20 24 q9 13.5 21 24.5 q12 11 30 11 q14 0 25 -8.5 q11 -8.5 11 -28.5 q0 -36 -34 -55.5 q-34 -19.5 -84 -19.5 Z" /><glyph glyph-name="uni1D8E" unicode="&#x1d8e;" d="M251 -228 q-41 0 -66.5 15.5 q-25.5 15.5 -25.5 47.5 q0 23 12.5 35 q12.5 12 30.5 12 q20 0 29.5 -10.5 q9.5 -10.5 14.5 -24 q5 -13.5 12 -23.5 q7 -10 21 -10 q16 0 31.5 10.5 q15.5 10.5 30 38 q14.5 27.5 24.5 77.5 l6 34 l-2 2 q-29 -9 -58 -9 q-40 0 -73 7 q-33 7 -61.5 16.5 q-28.5 9.5 -54 16.5 q-25.5 7 -52.5 7 q-19 0 -32.5 -6 q-13.5 -6 -31.5 -22 l-31 33 l343 348 l0 6 l-151 0 q-25 0 -39 -8.5 q-14 -8.5 -23.5 -26.5 q-9.5 -18 -20.5 -47 l-41 0 l40 180 l369 0 l-1 -50 l-306 -308 l0 -7 q36 -3 61 -17 q25 -14 44.5 -31 q19.5 -17 39.5 -29.5 q20 -12.5 45 -12.5 q25 0 42 11.5 q17 11.5 34 45.5 l31 -7 l-19 -102 q-11 -55 -30.5 -98.5 q-19.5 -43.5 -53 -68.5 q-33.5 -25 -88.5 -25 Z" /><glyph glyph-name="uni0292" unicode="&#x292;" d="M95 -227 q-41 0 -79 10 q-38 10 -62.5 31.5 q-24.5 21.5 -24.5 55.5 q0 23 14 41 q14 18 43 18 q30 0 41.5 -19 q11.5 -19 18.5 -40 q8 -23 22 -40 q14 -17 47 -17 q41 0 72.5 27 q31.5 27 49 71 q17.5 44 17.5 95 q0 64 -26 94 q-26 30 -68 30 q-19 0 -30 -4 q-11 -4 -15 -6 l-30 27 l229 220 l0 6 l-150 0 q-25 0 -39 -8.5 q-14 -8.5 -23.5 -26.5 q-9.5 -18 -20.5 -47 l-41 0 l40 180 l369 0 l-1 -50 l-266 -252 l2 -3 q5 1 11.5 1.5 q6.5 0.5 16.5 0.5 q47 0 85.5 -18.5 q38.5 -18.5 61.5 -55.5 q23 -37 23 -93 q0 -55 -23 -97.5 q-23 -42.5 -63 -71.5 q-40 -29 -91.5 -44 q-51.5 -15 -109.5 -15 Z" /><glyph glyph-name="uni0293" unicode="&#x293;" d="M94 -227 q-42 0 -73.5 12 q-31.5 12 -49 34.5 q-17.5 22.5 -17.5 53.5 q0 31 20 52.5 q20 21.5 55 33 q35 11.5 80 11.5 q61 0 111 -18 q50 -18 88.5 -43 q38.5 -25 63 -48 q24.5 -23 33.5 -33 l-27 -26 q-21 26 -60.5 56 q-39.5 30 -93 52 q-53.5 22 -117.5 22 q-50 0 -77.5 -15.5 q-27.5 -15.5 -27.5 -41.5 q0 -32 28.5 -45.5 q28.5 -13.5 66.5 -13.5 q51 0 86.5 26.5 q35.5 26.5 53.5 70.5 q18 44 18 97 q0 64 -26 93.5 q-26 29.5 -67 29.5 q-19 0 -30.5 -4 q-11.5 -4 -15.5 -6 l-30 27 l229 217 l0 6 l-149 0 q-26 0 -40 -8.5 q-14 -8.5 -23.5 -26.5 q-9.5 -18 -20.5 -47 l-41 0 l40 180 l369 0 l-1 -50 l-266 -249 l10 -13 l-25 7 q16 3 26 4 q10 1 18 1 q47 0 86 -19 q39 -19 62.5 -55 q23.5 -36 23.5 -87 q0 -63 -27 -108.5 q-27 -45.5 -70.5 -73.5 q-43.5 -28 -94 -41.5 q-50.5 -13.5 -98.5 -13.5 Z" /><glyph glyph-name="uni01BA" unicode="&#x1ba;" d="M84 -227 q-63 0 -99 26.5 q-36 26.5 -36 73.5 q0 42 25 67.5 q25 25.5 61 41 q36 15.5 69 24.5 q18 6 42.5 15 q24.5 9 48.5 23.5 q24 14.5 40 36.5 q16 22 16 52 q0 29 -17 46.5 q-17 17.5 -53 17.5 q-13 0 -25.5 -2 q-12.5 -2 -19.5 -4 l-33 30 l174 148 l0 6 l-122 0 q-25 0 -39 -8.5 q-14 -8.5 -23.5 -26.5 q-9.5 -18 -20.5 -47 l-41 0 l39 178 l339 0 l-1 -50 l-210 -179 l17 -14 l-57 -1 q25 10 47 13 q22 3 40 3 q67 0 103.5 -31 q36.5 -31 36.5 -82 q0 -37 -17.5 -62.5 q-17.5 -25.5 -48 -43 q-30.5 -17.5 -68 -29 q-37.5 -11.5 -76.5 -20.5 q-61 -12 -100.5 -23.5 q-39.5 -11.5 -59 -27.5 q-19.5 -16 -19.5 -46 q0 -31 20.5 -47.5 q20.5 -16.5 53.5 -16.5 q27 0 42 9.5 q15 9.5 24 23.5 q9 14 16.5 28 q7.5 14 18 23.5 q10.5 9.5 29.5 9.5 q20 0 33 -11.5 q13 -11.5 13 -33.5 q0 -30 -25 -50 q-25 -20 -62.5 -30 q-37.5 -10 -74.5 -10 Z" /><glyph glyph-name="uni0283" unicode="&#x283;" d="M-47 -228 q-54 0 -86.5 22 q-32.5 22 -32.5 64 q0 22 13 39 q13 17 38 17 q27 0 38 -15 q11 -15 15.5 -34 q4.5 -19 9.5 -34 q5 -15 19 -15 q16 0 28.5 18 q12.5 18 22.5 46.5 q10 28.5 16.5 60 q6.5 31.5 11.5 59.5 q5 28 7 44 l59 369 q9 57 16 95 q7 38 16 64 q9 26 20 46 q15 25 36 46 q21 21 55 34.5 q34 13.5 86 13.5 q34 0 61 -9.5 q27 -9.5 42.5 -28.5 q15.5 -19 15.5 -49 q0 -25 -15.5 -38.5 q-15.5 -13.5 -37.5 -13.5 q-26 0 -36 15.5 q-10 15.5 -14 33.5 q-4 21 -9 37 q-5 16 -22 16 q-27 0 -46 -36 q-19 -36 -30 -99 l-70 -456 q-5 -31 -14.5 -71.5 q-9.5 -40.5 -26 -82.5 q-16.5 -42 -41.5 -78 q-25 -36 -60.5 -58 q-35.5 -22 -84.5 -22 Z" /><glyph glyph-name="uni0284" unicode="&#x284;" d="M-39 -228 q-53 0 -85.5 22 q-32.5 22 -32.5 64 q0 22 13 39 q13 17 37 17 q27 0 38 -15 q11 -15 15.5 -34 q4.5 -19 9.5 -34 q5 -15 19 -15 q16 0 28.5 18 q12.5 18 22.5 46.5 q10 28.5 16.5 60 q6.5 31.5 11.5 59.5 q5 28 8 44 l58 369 q9 57 16.5 95 q7.5 38 16 64 q8.5 26 20.5 46 q14 25 35 46 q21 21 55 34.5 q34 13.5 86 13.5 q34 0 61 -9.5 q27 -9.5 43 -28.5 q16 -19 16 -49 q0 -25 -16 -38.5 q-16 -13.5 -38 -13.5 q-25 0 -35.5 15.5 q-10.5 15.5 -14.5 33.5 q-4 21 -9 37 q-5 16 -21 16 q-28 0 -47 -36 q-19 -36 -29 -99 l-71 -456 q-5 -31 -14.5 -71.5 q-9.5 -40.5 -26 -82.5 q-16.5 -42 -41 -78 q-24.5 -36 -60.5 -58 q-36 -22 -85 -22 ZM269 3 l-307 0 l10 48 l308 0 l-11 -48 Z" /><glyph glyph-name="uni0286" unicode="&#x286;" d="M-53 -228 q-48 0 -77 22 q-29 22 -29 64 q0 39 24 64 q24 25 63 37.5 q39 12.5 83 12.5 q56 0 98.5 -15.5 q42.5 -15.5 71.5 -36 q29 -20.5 45 -36.5 l-26 -28 q-27 27 -77 51 q-50 24 -116 24 q-33 0 -60 -8 q-27 -8 -42 -23 q-15 -15 -15 -37 q0 -23 15 -34.5 q15 -11.5 37 -11.5 q35 0 55.5 28.5 q20.5 28.5 33 80.5 q12.5 52 23.5 122 l55 351 q10 61 17.5 101.5 q7.5 40.5 16.5 68 q9 27.5 21 49.5 q13 23 34 44 q21 21 54.5 35.5 q33.5 14.5 83.5 14.5 q54 0 89 -21 q35 -21 35 -64 q0 -27 -15.5 -40.5 q-15.5 -13.5 -36.5 -13.5 q-22 0 -32.5 10.5 q-10.5 10.5 -15 25.5 q-4.5 15 -7 30.5 q-2.5 15.5 -8.5 25.5 q-6 10 -19 10 q-28 0 -47 -36 q-19 -36 -29 -99 q-5 -34 -11 -69.5 q-6 -35.5 -12 -75.5 q-6 -40 -13 -86 q-7 -46 -15.5 -100 q-8.5 -54 -18.5 -119 q-9 -52 -22 -100 q-13 -48 -32.5 -87.5 q-19.5 -39.5 -45.5 -69 q-26 -29.5 -59.5 -45.5 q-33.5 -16 -73.5 -16 Z" /><glyph glyph-name="uni01AA" unicode="&#x1aa;" d="M220 -228 q-87 0 -123.5 39 q-36.5 39 -36.5 109 q0 14 1.5 29.5 q1.5 15.5 5.5 38 q4 22.5 10 57.5 q4 23 10.5 56.5 q6.5 33.5 14 74 q7.5 40.5 16 84.5 q8.5 44 17.5 88 q9 44 17 84 q8 40 14 73 q5 20 9.5 43.5 q4.5 23.5 4.5 46.5 q0 30 -12.5 49.5 q-12.5 19.5 -47.5 19.5 q-33 0 -58 -20 q-25 -20 -25 -61 q0 -30 17 -52.5 q17 -22.5 57 -22.5 q17 0 35.5 4.5 q18.5 4.5 37.5 12.5 l-8 -39 q-15 -10 -35 -15.5 q-20 -5.5 -41 -5.5 q-53 0 -82 32 q-29 32 -29 81 q0 56 39 94.5 q39 38.5 109 38.5 q54 0 86 -23 q32 -23 46.5 -59.5 q14.5 -36.5 14.5 -79.5 q0 -29 -5 -62 q-5 -33 -11 -64 l-80 -423 q-6 -32 -10 -54 q-4 -22 -5.5 -38 q-1.5 -16 -1.5 -29 q0 -27 8.5 -45 q8.5 -18 30.5 -18 q20 0 32.5 13 q12.5 13 23 29 q10.5 16 24.5 28.5 q14 12.5 35 12.5 q16 0 29.5 -9 q13.5 -9 13.5 -33 q0 -28 -20 -47 q-20 -19 -53.5 -28.5 q-33.5 -9.5 -74.5 -9.5 Z" /><glyph glyph-name="uni0285" unicode="&#x285;" d="M278 -228 q-86 0 -122.5 39 q-36.5 39 -36.5 109 q0 14 1.5 30 q1.5 16 5 38.5 q3.5 22.5 10.5 56.5 l53 262 q5 25 9.5 48 q4.5 23 4.5 38 q0 43 -34 43 q-20 0 -32 -13 q-12 -13 -22 -30 q-10 -17 -23.5 -30 q-13.5 -13 -36.5 -13 q-21 0 -33 12 q-12 12 -12 32 q0 27 20 46.5 q20 19.5 53.5 29.5 q33.5 10 73.5 10 q44 0 78 -13.5 q34 -13.5 53.5 -42.5 q19.5 -29 19.5 -76 q0 -21 -3.5 -45 q-3.5 -24 -7.5 -44 l-50 -259 q-6 -32 -10.5 -54 q-4.5 -22 -6 -38 q-1.5 -16 -1.5 -29 q0 -27 9 -45 q9 -18 30 -18 q21 0 33.5 13 q12.5 13 23 29 q10.5 16 24 28.5 q13.5 12.5 35.5 12.5 q16 0 29.5 -9 q13.5 -9 13.5 -33 q0 -28 -20 -47 q-20 -19 -53.5 -28.5 q-33.5 -9.5 -75.5 -9.5 Z" /><glyph glyph-name="uni1D98" unicode="&#x1d98;" d="M35 -228 q-61 0 -84 29.5 q-23 29.5 -23 75.5 q0 21 3 41 q3 20 7 40 l21 104 q5 21 15.5 36.5 q10.5 15.5 35.5 15.5 q23 0 33.5 -14 q10.5 -14 14.5 -32 q4 -18 10 -32 q6 -14 22 -14 q20 0 34 23 q14 23 23.5 56 q9.5 33 15.5 66 q6 33 9 53 l38 241 q8 48 17.5 86 q9.5 38 27.5 71 q22 38 61 66 q39 28 109 28 q56 0 91 -21 q35 -21 35 -63 q0 -28 -15 -41.5 q-15 -13.5 -38 -13.5 q-21 0 -31.5 10.5 q-10.5 10.5 -14.5 25.5 q-4 15 -7 30.5 q-3 15.5 -9 25.5 q-6 10 -20 10 q-25 0 -44.5 -35 q-19.5 -35 -30.5 -100 l-39 -256 q-5 -30 -14 -69.5 q-9 -39.5 -25 -80 q-16 -40.5 -41 -75.5 q-25 -35 -62 -56.5 q-37 -21.5 -87 -21.5 q-21 0 -40.5 5 q-19.5 5 -34.5 17 l-13 -65 q-3 -16 -5.5 -31.5 q-2.5 -15.5 -2.5 -30.5 q0 -36 14 -49 q14 -13 29 -13 q17 0 27.5 10.5 q10.5 10.5 19.5 24 q9 13.5 20.5 24.5 q11.5 11 30.5 11 q13 0 24.5 -8 q11.5 -8 11.5 -29 q0 -35 -35 -55 q-35 -20 -84 -20 Z" /><glyph glyph-name="eth" unicode="ð" d="M223 -12 q-95 0 -142.5 55 q-47.5 55 -47.5 146 q0 80 33 143.5 q33 63.5 89 100 q56 36.5 123 36.5 q37 0 61 -10 q24 -10 38 -24 l5 3 q0 33 -10 71.5 q-10 38.5 -31 73 q-21 34.5 -51 56 q-30 21.5 -71 21.5 q-24 0 -44 -7 q-20 -7 -33 -15 l-17 27 q27 21 58 32.5 q31 11.5 71 11.5 q72 0 128 -39.5 q56 -39.5 88 -113 q32 -73.5 32 -178.5 q0 -47 -8 -100 q-8 -53 -27 -104.5 q-19 -51.5 -51 -93 q-32 -41.5 -79 -67 q-47 -25.5 -114 -25.5 ZM231 31 q30 0 54 21.5 q24 21.5 41 58.5 q17 37 26.5 83.5 q9.5 46.5 9.5 96.5 q0 38 -6.5 69 q-6.5 31 -23 49 q-16.5 18 -45.5 18 q-30 0 -53.5 -19 q-23.5 -19 -40 -53 q-16.5 -34 -25 -79.5 q-8.5 -45.5 -8.5 -99.5 q0 -39 5.5 -72 q5.5 -33 21.5 -53 q16 -20 44 -20 ZM518 643 l-288 -117 l-17 42 l288 117 l17 -42 Z" /><glyph glyph-name="thorn" unicode="þ" d="M215 -220 l-235 0 l170 818 q1 2 2.5 13 q1.5 11 1.5 20 q0 17 -9.5 23 q-9.5 6 -26.5 6 q-8 0 -19.5 -0.5 q-11.5 -0.5 -11.5 -0.5 l0 36 l154 10 l44 0 l-41 -202 l-21 -108 l-12 -64 l-84 -423 q-1 -7 -2.5 -19.5 q-1.5 -12.5 -1.5 -18.5 q0 -21 20 -37.5 q20 -16.5 81 -16.5 l-9 -36 ZM247 -11 q-40 0 -65.5 11.5 q-25.5 11.5 -39.5 18.5 l10 60 q15 -15 36.5 -27.5 q21.5 -12.5 49.5 -12.5 q45 0 77 34 q32 34 49.5 93 q17.5 59 17.5 133 q0 68 -18.5 92.5 q-18.5 24.5 -44.5 24.5 q-29 0 -52.5 -19 q-23.5 -19 -39.5 -46 q-16 -27 -23 -49 l6 109 l22 0 q24 25 45 40 q21 15 42 22 q21 7 47 7 q59 0 100.5 -43.5 q41.5 -43.5 41.5 -135.5 q0 -69 -21.5 -126 q-21.5 -57 -58 -98.5 q-36.5 -41.5 -83 -64.5 q-46.5 -23 -98.5 -23 Z" /><glyph glyph-name="uni028A" unicode="&#x28a;" d="M231 -11 q-78 0 -123.5 26.5 q-45.5 26.5 -65 67.5 q-19.5 41 -19.5 85 q0 56 30 111.5 q30 55.5 103 106.5 q8 6 13.5 10.5 q5.5 4.5 5.5 11.5 q0 13 -14.5 18 q-14.5 5 -35 7 q-20.5 2 -39.5 2 l8 36 l168 0 l7 -22 q-31 -33 -57.5 -72 q-26.5 -39 -43 -90 q-16.5 -51 -16.5 -122 q0 -36 6.5 -66.5 q6.5 -30.5 23.5 -49 q17 -18.5 49 -18.5 q34 0 57.5 21.5 q23.5 21.5 38.5 56 q15 34.5 22 75 q7 40.5 7 80.5 q0 34 -4.5 68 q-4.5 34 -12.5 65 q-8 31 -18 52 l12 22 l173 0 l-7 -36 q-21 0 -45.5 -2.5 q-24.5 -2.5 -42.5 -9 q-18 -6.5 -18 -21.5 q0 -4 2.5 -8 q2.5 -4 9.5 -12 q14 -17 31.5 -41 q17.5 -24 31 -56.5 q13.5 -32.5 13.5 -74.5 q0 -55 -27 -106 q-27 -51 -82.5 -83 q-55.5 -32 -140.5 -32 Z" /><glyph glyph-name="uni028C" unicode="&#x28c;" d="M76 -13 q-25 0 -40.5 13 q-15.5 13 -22.5 36 q-7 23 -7 52 q0 66 22 122.5 q22 56.5 60 104 q38 47.5 86 87 q48 39.5 100 71.5 l84 0 q2 -62 4.5 -121.5 q2.5 -59.5 7 -112.5 q4.5 -53 9.5 -97 q5 -39 13 -58.5 q8 -19.5 27 -19.5 q21 0 39 16.5 q18 16.5 30 31.5 l27 -20 q-14 -21 -34 -45 q-20 -24 -48 -41 q-28 -17 -67 -17 q-48 0 -75 37 q-27 37 -36.5 118.5 q-9.5 81.5 -8.5 212.5 l5 49 l-5 0 q-48 -38 -85.5 -77 q-37.5 -39 -59 -79.5 q-21.5 -40.5 -21.5 -86.5 q0 -27 8 -44 q8 -17 18 -28.5 q10 -11.5 18 -24 q8 -12.5 8 -30.5 q0 -26 -16.5 -37.5 q-16.5 -11.5 -39.5 -11.5 Z" /><glyph glyph-name="uni0294" unicode="&#x294;" d="M170 0 l-119 0 l67 320 q62 16 109 44.5 q47 28.5 74 74 q27 45.5 27 109.5 q0 53 -22.5 87 q-22.5 34 -73.5 34 q-35 0 -51 -13 q-16 -13 -23 -32.5 q-7 -19.5 -12.5 -39 q-5.5 -19.5 -17 -32.5 q-11.5 -13 -39.5 -13 q-25 0 -37 14 q-12 14 -12 36 q0 40 30 67 q30 27 78.5 41.5 q48.5 14.5 104.5 14.5 q101 0 150.5 -45.5 q49.5 -45.5 49.5 -123.5 q0 -50 -17.5 -87 q-17.5 -37 -45 -64 q-27.5 -27 -59.5 -45 q-32 -18 -60.5 -27.5 q-28.5 -9.5 -47.5 -12.5 l21 51 l-74 -358 Z" /><glyph glyph-name="uni02A1" unicode="&#x2a1;" d="M175 0 l-119 0 l67 320 q62 16 109 44.5 q47 28.5 74 74 q27 45.5 27 109.5 q0 53 -22.5 87 q-22.5 34 -73.5 34 q-35 0 -51 -13 q-16 -13 -23 -32.5 q-7 -19.5 -12.5 -39 q-5.5 -19.5 -17 -32.5 q-11.5 -13 -39.5 -13 q-25 0 -37 14 q-12 14 -12 36 q0 40 30 67 q30 27 78.5 41.5 q48.5 14.5 104.5 14.5 q101 0 150.5 -45.5 q49.5 -45.5 49.5 -123.5 q0 -50 -17.5 -87 q-17.5 -37 -45 -64 q-27.5 -27 -59.5 -45 q-32 -18 -60.5 -27.5 q-28.5 -9.5 -47.5 -12.5 l21 51 l-74 -358 ZM313 179 l-298 0 l8 47 l298 0 l-8 -47 Z" /><glyph glyph-name="uni0295" unicode="&#x295;" d="M260 0 l-119 0 l65 305 q-28 7 -55 22 q-27 15 -50 38 q-23 23 -37 55.5 q-14 32.5 -14 75.5 q0 66 32 114 q32 48 88.5 75 q56.5 27 127.5 27 q78 0 126 -30.5 q48 -30.5 48 -78.5 q0 -25 -14 -41 q-14 -16 -42 -16 q-24 0 -35.5 12 q-11.5 12 -17 30.5 q-5.5 18.5 -11.5 36.5 q-6 18 -19 30.5 q-13 12.5 -40 12.5 q-36 0 -63 -23 q-27 -23 -42 -62 q-15 -39 -15 -86 q0 -77 40 -120 q40 -43 114 -61 l-67 -316 Z" /><glyph glyph-name="uni02A2" unicode="&#x2a2;" d="M260 0 l-119 0 l65 305 q-28 7 -55 22 q-27 15 -50 38 q-23 23 -37 55.5 q-14 32.5 -14 75.5 q0 66 32 114 q32 48 88.5 75 q56.5 27 127.5 27 q78 0 126 -30.5 q48 -30.5 48 -78.5 q0 -25 -14 -41 q-14 -16 -42 -16 q-24 0 -35.5 12 q-11.5 12 -17 30.5 q-5.5 18.5 -11.5 36.5 q-6 18 -19 30.5 q-13 12.5 -40 12.5 q-36 0 -63 -23 q-27 -23 -42 -62 q-15 -39 -15 -86 q0 -77 40 -120 q40 -43 114 -61 l-67 -316 ZM378 179 l-299 0 l9 47 l298 0 l-8 -47 Z" /><glyph glyph-name="uni0296" unicode="&#x296;" d="M160 -12 q-81 0 -124 30 q-43 30 -43 71 q0 24 14 40.5 q14 16.5 41 16.5 q23 0 33.5 -11.5 q10.5 -11.5 16 -28 q5.5 -16.5 11.5 -33.5 q6 -17 19.5 -28.5 q13.5 -11.5 40.5 -11.5 q37 0 65 22.5 q28 22.5 44 62.5 q16 40 16 92 q0 44 -13.5 80 q-13.5 36 -45.5 62.5 q-32 26.5 -87 41.5 l42 204 q1 2 2.5 13 q1.5 11 1.5 21 q0 15 -8 22 q-8 7 -28 7 q-8 0 -18 -1 q-10 -1 -10 -1 l0 35 l165 11 l34 0 l-72 -353 l-30 61 q37 -8 73 -23 q36 -15 64 -39.5 q28 -24.5 45 -59 q17 -34.5 17 -80.5 q0 -65 -34 -115.5 q-34 -50.5 -94 -79 q-60 -28.5 -138 -28.5 Z" /><glyph glyph-name="uni01BE" unicode="&#x1be;" d="M168 -13 q-76 0 -121.5 29.5 q-45.5 29.5 -45.5 74.5 q0 29 17 45 q17 16 41 16 q22 0 32 -13 q10 -13 15 -31 q5 -18 11 -36.5 q6 -18.5 19.5 -31 q13.5 -12.5 40.5 -12.5 q34 0 52 20 q18 20 18 51 q0 29 -14.5 54 q-14.5 25 -36 49 q-21.5 24 -43.5 49 q-22 25 -36.5 52.5 q-14.5 27.5 -14.5 60.5 q0 14 3.5 28 q3.5 14 9.5 28 l-58 0 l6 35 q37 17 61 32 q24 15 46 40 q22 25 51 66 l49 0 l-30 -137 l-1 -21 q-9 -14 -12 -27 q-3 -13 -3 -23 q0 -28 13.5 -50.5 q13.5 -22.5 33.5 -44 q20 -21.5 40 -44 q20 -22.5 34 -50 q14 -27.5 14 -62.5 q0 -40 -22 -74 q-22 -34 -64.5 -53.5 q-42.5 -19.5 -104.5 -19.5 ZM332 420 l-113 0 l11 48 l112 0 l-10 -48 Z" /><glyph glyph-name="uni0264" unicode="&#x264;" d="M205 -12 q-38 0 -63 11.5 q-25 11.5 -38.5 30 q-13.5 18.5 -19 40.5 q-5.5 22 -5.5 43 q0 47 20 98 q20 51 55 98.5 q35 47.5 79.5 85 q44.5 37.5 93 60 q48.5 22.5 95.5 22.5 q30 0 56 -10 q26 -10 42.5 -28 q16.5 -18 16.5 -44 q0 -26 -15.5 -40 q-15.5 -14 -36.5 -14 q-18 0 -27 8.5 q-9 8.5 -13.5 21 q-4.5 12.5 -9 25.5 q-4.5 13 -14.5 21 q-10 8 -30 8 q-28 0 -62 -18 q-34 -18 -69 -49.5 q-35 -31.5 -64.5 -71.5 q-29.5 -40 -47 -82.5 q-17.5 -42.5 -17.5 -84.5 q0 -35 14.5 -58.5 q14.5 -23.5 44.5 -23.5 q28 0 45.5 20 q17.5 20 26 55 q8.5 35 8.5 79 q0 39 -6.5 81.5 q-6.5 42.5 -21 79.5 q-14.5 37 -36.5 60.5 q-22 23.5 -51 23.5 q-20 0 -29.5 -10 q-9.5 -10 -14 -24.5 q-4.5 -14.5 -9.5 -29 q-5 -14.5 -14.5 -24.5 q-9.5 -10 -28.5 -10 q-20 0 -33.5 11.5 q-13.5 11.5 -13.5 34.5 q0 27 19 47.5 q19 20.5 51.5 33 q32.5 12.5 71.5 12.5 q57 0 102 -24.5 q45 -24.5 77 -65.5 q32 -41 48 -91 q16 -50 16 -101 q0 -64 -25.5 -110.5 q-25.5 -46.5 -69 -71.5 q-43.5 -25 -97.5 -25 Z" /><glyph glyph-name="uni01BB" unicode="&#x1bb;" d="M374 0 l-384 0 l13 60 l169 157 q64 60 107 109.5 q43 49.5 65 97 q22 47.5 22 98.5 q0 53 -23 83.5 q-23 30.5 -69 30.5 q-40 0 -81 -25 q-41 -25 -80 -84 l-32 14 q40 78 103 121 q63 43 142 43 q52 0 89 -19.5 q37 -19.5 57 -54 q20 -34.5 20 -80.5 q0 -52 -30 -103 q-30 -51 -83 -105.5 q-53 -54.5 -125 -119.5 l-128 -116 l-1 -8 l65 5 l120 0 q35 0 58 20 q23 20 48 69 l36 0 l-78 -193 ZM472 303 l-410 0 l9 49 l410 0 l-9 -49 Z" /><glyph glyph-name="uni0278" unicode="&#x278;" d="M307 -14 q-128 0 -201.5 53 q-73.5 53 -73.5 153 q0 55 23 107 q23 52 69.5 93.5 q46.5 41.5 115 65.5 q68.5 24 159.5 24 q84 0 147 -23.5 q63 -23.5 98.5 -70 q35.5 -46.5 35.5 -115.5 q0 -58 -25.5 -110 q-25.5 -52 -74.5 -91.5 q-49 -39.5 -118 -62.5 q-69 -23 -155 -23 ZM318 31 q58 0 99.5 17 q41.5 17 68 44.5 q26.5 27.5 42 59.5 q15.5 32 21.5 64.5 q6 32.5 6 59.5 q0 83 -41.5 124.5 q-41.5 41.5 -120.5 41.5 q-62 0 -107 -22.5 q-45 -22.5 -73.5 -60 q-28.5 -37.5 -42 -83 q-13.5 -45.5 -13.5 -90.5 q0 -80 40.5 -117.5 q40.5 -37.5 120.5 -37.5 ZM406 -220 l-202 0 l171 819 q0 0 1 9 q1 9 1 19 q0 17 -7 25.5 q-7 8.5 -25 8.5 q-10 0 -20.5 -1 q-10.5 -1 -10.5 -1 l0 35 l161 11 l36 0 l-166 -796 q-1 -7 -2.5 -18 q-1.5 -11 -1.5 -22 q0 -20 13 -36 q13 -16 57 -16 l-5 -37 Z" /><glyph glyph-name="uni0277" unicode="&#x277;" d="M181 -11 q-42 0 -76.5 20.5 q-34.5 20.5 -55 61.5 q-20.5 41 -20.5 103 q0 72 28 128.5 q28 56.5 77 96 q49 39.5 113 60.5 q64 21 137 21 q87 0 149.5 -29.5 q62.5 -29.5 97 -85 q34.5 -55.5 34.5 -133.5 q0 -76 -30.5 -130.5 q-30.5 -54.5 -79.5 -83.5 q-49 -29 -104 -29 q-57 0 -86.5 27.5 q-29.5 27.5 -42.5 64.5 l-5 0 q-23 -38 -54 -65 q-31 -27 -82 -27 ZM430 40 q30 0 55 25 q25 25 39.5 70.5 q14.5 45.5 14.5 104.5 q0 59 -17 104 q-17 45 -51.5 70 q-34.5 25 -88.5 25 q-63 0 -114.5 -35 q-51.5 -35 -82 -96 q-30.5 -61 -30.5 -140 q0 -30 5 -59.5 q5 -29.5 18 -48 q13 -18.5 35 -18.5 q19 0 36 14.5 q17 14.5 31 37 q14 22.5 24 45.5 q-5 14 -7.5 32 q-2.5 18 -2.5 33 q0 48 20.5 78.5 q20.5 30.5 50.5 30.5 q19 0 33 -14 q14 -14 14 -42 q0 -30 -15.5 -62 q-15.5 -32 -42.5 -64 q4 -21 13 -41.5 q9 -20.5 24.5 -35 q15.5 -14.5 38.5 -14.5 Z" /><glyph glyph-name="uni01C2" unicode="&#x1c2;" d="M191 0 l-102 0 l148 705 l102 0 l-148 -705 ZM370 259 l-351 0 l14 63 l351 0 l-14 -63 ZM402 411 l-351 0 l14 64 l351 0 l-14 -64 Z" /><glyph glyph-name="uni01C0" unicode="&#x1c0;" d="M120 0 l-101 0 l148 705 l101 0 l-148 -705 Z" /><glyph glyph-name="uni01C3" unicode="&#x1c3;" d="M127 198 l-47 0 l40 380 q3 18 4.5 33 q1.5 15 3.5 29 q6 30 23.5 48.5 q17.5 18.5 60.5 18.5 q33 0 46.5 -14.5 q13.5 -14.5 13.5 -34.5 q0 -13 -6 -33 q-6 -20 -14 -47 l-125 -380 ZM78 -8 q-31 0 -49.5 18.5 q-18.5 18.5 -18.5 48.5 q0 30 18 48.5 q18 18.5 51 18.5 q34 0 51 -18.5 q17 -18.5 17 -46.5 q0 -29 -17 -49 q-17 -20 -52 -20 Z" /><glyph glyph-name="uni0298" unicode="&#x298;" d="M338 -13 q-94 0 -160.5 38 q-66.5 38 -101 106 q-34.5 68 -34.5 156 q0 81 28 156 q28 75 80.5 133.5 q52.5 58.5 125.5 93 q73 34.5 163 34.5 q76 0 132.5 -25 q56.5 -25 93 -69 q36.5 -44 54 -99.5 q17.5 -55.5 17.5 -118.5 q0 -82 -29 -155.5 q-29 -73.5 -82.5 -129.5 q-53.5 -56 -126.5 -88 q-73 -32 -160 -32 ZM343 29 q69 0 119 35 q50 35 82.5 92.5 q32.5 57.5 48 127.5 q15.5 70 15.5 140 q0 64 -15 117.5 q-15 53.5 -52.5 86.5 q-37.5 33 -105.5 33 q-71 0 -122 -35.5 q-51 -35.5 -83 -94.5 q-32 -59 -47 -127.5 q-15 -68.5 -15 -135.5 q0 -41 7 -83 q7 -42 26 -77.5 q19 -35.5 53.5 -57 q34.5 -21.5 88.5 -21.5 ZM389 279 q-27 0 -46.5 19.5 q-19.5 19.5 -19.5 47.5 q0 28 19.5 46.5 q19.5 18.5 46.5 18.5 q27 0 46 -18.5 q19 -18.5 19 -46.5 q0 -28 -18.5 -47.5 q-18.5 -19.5 -46.5 -19.5 Z" /><glyph glyph-name="uni02AC" unicode="&#x2ac;" d="M265 365 l-98 0 q-1 54 -3.5 96.5 q-2.5 42.5 -5.5 83.5 q-3 41 -8 87 q-3 25 -8.5 33 q-5.5 8 -24.5 8 q-6 0 -10.5 0 q-4.5 0 -12.5 -2 l0 27 l95 11 l52 0 q5 -45 8 -85.5 q3 -40.5 5.5 -80.5 q2.5 -40 2.5 -84 l-4 -35 l4 0 l128 281 l84 0 q5 -66 8 -127 q3 -61 5 -130 l-2 -31 l4 0 q56 42 82 84 q26 42 26 90 q0 24 -9 36 q-9 12 -18 22.5 q-9 10.5 -9 28.5 q0 19 12.5 27 q12.5 8 27.5 8 q31 0 42.5 -21.5 q11.5 -21.5 11.5 -53.5 q0 -60 -25 -111.5 q-25 -51.5 -66 -92 q-41 -40.5 -90 -69.5 l-76 0 q-3 63 -5 120 q-2 57 -7 120 l-3 0 l-113 -240 ZM187 -8 l-98 0 q-1 54 -3.5 96.5 q-2.5 42.5 -5.5 83.5 q-3 41 -7 87 q-3 25 -8.5 33 q-5.5 8 -24.5 8 q-6 0 -10.5 0 q-4.5 0 -12.5 -2 l0 28 l95 10 l52 0 q4 -45 7 -85.5 q3 -40.5 5.5 -80.5 q2.5 -40 3.5 -84 l-4 -35 l4 0 l128 281 l84 0 q4 -66 7.5 -127 q3.5 -61 5.5 -130 l-2 -31 l3 0 q56 42 82.5 84.5 q26.5 42.5 26.5 89.5 q0 24 -9.5 36 q-9.5 12 -18.5 22.5 q-9 10.5 -9 28.5 q0 19 12.5 27 q12.5 8 27.5 8 q31 0 42.5 -21.5 q11.5 -21.5 11.5 -53.5 q0 -60 -25 -111 q-25 -51 -65.5 -91.5 q-40.5 -40.5 -90.5 -70.5 l-75 0 q-3 63 -5.5 120.5 q-2.5 57.5 -6.5 120.5 l-4 0 l-113 -241 Z" /><glyph glyph-name="uni02AD" unicode="&#x2ad;" d="M143 357 l-56 0 l63 300 l339 0 l-63 -300 l-56 0 l42 206 l-227 0 l-42 -206 ZM67 -6 l-56 0 l63 300 l339 0 l-63 -300 l-56 0 l43 206 l-227 0 l-43 -206 Z" /><glyph glyph-name="uni02A4" unicode="&#x2a4;" d="M171 -13 q-63 0 -101 43.5 q-38 43.5 -38 134.5 q0 65 19.5 122 q19.5 57 55 100.5 q35.5 43.5 81.5 68 q46 24.5 98 24.5 q32 0 55 -9 q23 -9 41 -27 l4 0 l30 154 q0 0 1.5 10.5 q1.5 10.5 1.5 21.5 q0 11 -6 21 q-6 10 -27 10 q-12 0 -22.5 -1 q-10.5 -1 -10.5 -1 l0 35 l161 11 l37 0 l-114 -583 q-1 -4 -2.5 -14.5 q-1.5 -10.5 -1.5 -19.5 q0 -10 4.5 -17.5 q4.5 -7.5 17.5 -7.5 q19 0 37 13.5 q18 13.5 26 22.5 l25 -19 q-12 -18 -31 -39.5 q-19 -21.5 -47.5 -36.5 q-28.5 -15 -71.5 -15 q-41 0 -55 19.5 q-14 19.5 -14 53.5 q0 9 3 24.5 q3 15.5 7 31.5 l49 -42 l-66 0 q-36 -47 -70 -68 q-34 -21 -76 -21 ZM219 63 q41 0 68.5 30 q27.5 30 41.5 80 q11 37 17.5 71.5 q6.5 34.5 10 63 q3.5 28.5 3.5 42.5 q0 22 -7.5 42 q-7.5 20 -23.5 33 q-16 13 -40 13 q-32 0 -56.5 -23.5 q-24.5 -23.5 -41.5 -62.5 q-17 -39 -26 -85.5 q-9 -46.5 -9 -93.5 q0 -66 17 -88 q17 -22 46 -22 ZM515 -227 q-41 0 -78.5 10 q-37.5 10 -62 31.5 q-24.5 21.5 -24.5 54.5 q0 24 14 42 q14 18 42 18 q29 0 41 -17.5 q12 -17.5 19 -36.5 q5 -15 11.5 -29 q6.5 -14 19.5 -23.5 q13 -9.5 37 -9.5 q43 0 74.5 27 q31.5 27 49 71 q17.5 44 17.5 95 q0 63 -25.5 95 q-25.5 32 -65.5 32 q-13 0 -24.5 -2.5 q-11.5 -2.5 -20.5 -7.5 l-30 27 l227 217 l0 6 l-293 0 l-3 98 l431 0 l-2 -50 l-265 -249 l11 -16 l-24 10 q8 2 17 3.5 q9 1.5 24 1.5 q47 0 86 -20.5 q39 -20.5 62 -57.5 q23 -37 23 -86 q0 -59 -22.5 -102.5 q-22.5 -43.5 -63 -73 q-40.5 -29.5 -92.5 -44 q-52 -14.5 -110 -14.5 Z" /><glyph glyph-name="uni02A3" unicode="&#x2a3;" d="M744 -90 q-45 0 -76 11.5 q-31 11.5 -54 28 q-23 16.5 -42.5 33.5 q-19.5 17 -41 28.5 q-21.5 11.5 -50.5 11.5 q-21 0 -31 -5 q-10 -5 -17 -12 q-7 -7 -17.5 -12 q-10.5 -5 -30.5 -5 q-30 0 -45.5 14.5 q-15.5 14.5 -15.5 44.5 q0 7 0.5 14.5 q0.5 7.5 1.5 13.5 l-8 0 q-36 -47 -70 -68 q-34 -21 -76 -21 q-63 0 -101 43 q-38 43 -38 134 q0 66 19.5 123 q19.5 57 55 100.5 q35.5 43.5 81.5 68 q46 24.5 98 24.5 q32 0 55 -9 q23 -9 41 -27 l4 0 l30 154 q0 0 1.5 11 q1.5 11 1.5 21 q0 13 -6 22 q-6 9 -29 9 q-9 0 -20 -1 q-11 -1 -11 -1 l0 35 l161 11 l37 0 l-114 -583 q0 0 -2.5 -15 q-2.5 -15 -2.5 -23 q0 -10 4 -13.5 q4 -3.5 8 -5.5 l298 302 l0 6 l-291 0 l14 98 l411 0 l-2 -50 l-306 -308 l0 -7 q29 -3 48.5 -20 q19.5 -17 34.5 -40 q15 -23 29.5 -45 q14.5 -22 31 -37.5 q16.5 -15.5 39.5 -15.5 q15 0 22 6.5 q7 6.5 7 16.5 q0 11 -6 25 q-6 14 -6 32 q0 23 13 39 q13 16 38 16 q27 0 42 -19.5 q15 -19.5 15 -52.5 q0 -33 -13.5 -53 q-13.5 -20 -34.5 -30.5 q-21 -10.5 -44 -14 q-23 -3.5 -40 -3.5 ZM217 63 q28 0 50.5 15 q22.5 15 39 40 q16.5 25 23.5 54 q14 59 22 106 q8 47 8 70 q0 24 -8 44 q-8 20 -23.5 33 q-15.5 13 -39.5 13 q-31 0 -56 -23.5 q-25 -23.5 -42 -62.5 q-17 -39 -26 -85.5 q-9 -46.5 -9 -93.5 q0 -66 17 -88 q17 -22 44 -22 Z" /><glyph glyph-name="uni02A5" unicode="&#x2a5;" d="M718 -46 q-46 0 -78.5 10.5 q-32.5 10.5 -57.5 23.5 q-25 13 -49 23.5 q-24 10.5 -54 10.5 q-19 0 -29.5 -5 q-10.5 -5 -18 -12 q-7.5 -7 -18 -11.5 q-10.5 -4.5 -30.5 -4.5 q-29 0 -44.5 14.5 q-15.5 14.5 -15.5 44.5 q0 7 0.5 14.5 q0.5 7.5 1.5 13.5 l-8 0 q-36 -47 -70 -68 q-34 -21 -76 -21 q-63 0 -101 43 q-38 43 -38 134 q0 66 19.5 123 q19.5 57 55 100.5 q35.5 43.5 81.5 68 q46 24.5 98 24.5 q32 0 55 -9 q23 -9 41 -27 l4 0 l30 154 q0 0 1.5 10.5 q1.5 10.5 1.5 21.5 q0 11 -6 21 q-6 10 -27 10 q-12 0 -22.5 -1 q-10.5 -1 -10.5 -1 l0 35 l161 11 l37 0 l-114 -583 q0 0 -2.5 -15 q-2.5 -15 -2.5 -24 q0 -9 3.5 -12.5 q3.5 -3.5 8.5 -5.5 l297 302 l0 6 l-304 0 l11 98 l428 0 l-2 -50 l-306 -308 l0 -7 q35 -3 58 -17 q23 -14 40.5 -30 q17.5 -16 36 -28.5 q18.5 -12.5 44.5 -12.5 q39 0 67.5 23.5 q28.5 23.5 28.5 53.5 q0 19 -11 29 q-11 10 -29 10 q-35 0 -68.5 -25.5 q-33.5 -25.5 -65.5 -67.5 l-28 26 q36 46 76.5 75.5 q40.5 29.5 88.5 29.5 q38 0 60.5 -20.5 q22.5 -20.5 22.5 -56.5 q0 -31 -19.5 -63.5 q-19.5 -32.5 -57 -55 q-37.5 -22.5 -94.5 -22.5 ZM565 -129 l-36 13 q14 27 30 55.5 q16 28.5 33 54.5 l34 -14 q-16 -26 -31.5 -54 q-15.5 -28 -29.5 -55 ZM217 63 q28 0 50.5 15 q22.5 15 39 40 q16.5 25 23.5 54 q14 59 22 106 q8 47 8 70 q0 24 -8 44 q-8 20 -23.5 33 q-15.5 13 -39.5 13 q-31 0 -56 -23.5 q-25 -23.5 -42 -62.5 q-17 -39 -26 -85.5 q-9 -46.5 -9 -93.5 q0 -66 17 -88 q17 -22 44 -22 Z" /><glyph glyph-name="uni02A9" unicode="&#x2a9;" d="M-31 -227 q-52 0 -85 21.5 q-33 21.5 -33 64.5 q0 22 13.5 39 q13.5 17 38.5 17 q26 0 37 -15 q11 -15 15.5 -34 q4.5 -19 9.5 -33.5 q5 -14.5 19 -14.5 q17 0 29.5 18.5 q12.5 18.5 22.5 48 q10 29.5 16.5 61.5 q6.5 32 11 60 q4.5 28 6.5 42 l62 390 q8 54 19.5 100.5 q11.5 46.5 30.5 79.5 q14 25 36 46 q22 21 56.5 34.5 q34.5 13.5 85.5 13.5 q35 0 62 -9.5 q27 -9.5 42.5 -28.5 q15.5 -19 15.5 -48 q0 -26 -15.5 -39.5 q-15.5 -13.5 -38.5 -13.5 q-25 0 -35.5 16.5 q-10.5 16.5 -14.5 35.5 q-4 21 -9 35.5 q-5 14.5 -22 14.5 q-26 0 -46.5 -36 q-20.5 -36 -30.5 -99 l-72 -457 q-5 -31 -14.5 -72 q-9.5 -41 -25.5 -82.5 q-16 -41.5 -41 -77 q-25 -35.5 -61 -57 q-36 -21.5 -85 -21.5 ZM463 0 l-119 0 l78 357 q1 6 2.5 15 q1.5 9 1.5 17 q0 13 -7.5 20.5 q-7.5 7.5 -26.5 7.5 l-29 48 l155 11 l37 0 l-49 -200 l22 0 l-65 -276 ZM515 -225 q-31 0 -56.5 9 q-25.5 9 -41 28 q-15.5 19 -15.5 46 q0 23 12.5 40.5 q12.5 17.5 40.5 17.5 q26 0 36.5 -14.5 q10.5 -14.5 14.5 -33.5 q4 -19 9.5 -33.5 q5.5 -14.5 20.5 -14.5 q17 0 31.5 19 q14.5 19 26.5 51 q12 32 22 69 q10 37 19 73 l64 275 q0 0 3 16.5 q3 16.5 3 33.5 q0 17 -5 27.5 q-5 10.5 -19 10.5 q-19 0 -41.5 -20.5 q-22.5 -20.5 -45 -52 q-22.5 -31.5 -43 -66.5 q-20.5 -35 -35 -66 q-14.5 -31 -21.5 -49 l17 125 q15 27 36 62.5 q21 35.5 50 70.5 q29 35 67.5 58 q38.5 23 87.5 23 q44 0 60 -20 q16 -20 16 -55 q0 -19 -3 -38.5 q-3 -19.5 -6 -33.5 l-55 -240 q-10 -43 -24 -88 q-14 -45 -33.5 -86.5 q-19.5 -41.5 -46.5 -73.5 q-27 -32 -63 -51 q-36 -19 -83 -19 ZM467 417 l-424 0 l7 51 l423 0 l-6 -51 Z" /><glyph glyph-name="uni02AA" unicode="&#x2aa;" d="M278 -11 q-112 0 -169.5 25.5 q-57.5 25.5 -57.5 84.5 q0 10 2 22 q2 12 6 34 l90 444 q0 0 1.5 10.5 q1.5 10.5 1.5 20.5 q0 16 -6.5 23.5 q-6.5 7.5 -28.5 7.5 q-9 0 -18.5 -1 q-9.5 -1 -9.5 -1 l0 35 l164 11 l34 0 l-107 -538 q-3 -15 -5 -28.5 q-2 -13.5 -2 -26.5 q0 -42 28 -60 q28 -18 87 -18 q73 0 114 22.5 q41 22.5 41 61.5 q0 27 -20.5 49 q-20.5 22 -60.5 61 q-32 32 -53.5 63 q-21.5 31 -21.5 71 q0 37 19 63.5 q19 26.5 53 40.5 q34 14 76 14 q36 0 66 -9 q30 -9 47 -20 l4 0 l26 28 l27 0 l-22 -160 l-34 0 q-3 55 -24 88.5 q-21 33.5 -67 33.5 q-29 0 -44.5 -14.5 q-15.5 -14.5 -15.5 -35.5 q0 -26 22.5 -53 q22.5 -27 57.5 -60 q28 -27 46.5 -49.5 q18.5 -22.5 28 -44 q9.5 -21.5 9.5 -48.5 q0 -73 -72.5 -110 q-72.5 -37 -211.5 -37 Z" /><glyph glyph-name="uni02AB" unicode="&#x2ab;" d="M470 -90 q-40 0 -69.5 11.5 q-29.5 11.5 -52.5 28 q-23 16.5 -43 33.5 q-20 17 -41.5 28.5 q-21.5 11.5 -48.5 11.5 q-17 0 -27.5 -5 q-10.5 -5 -19 -12 q-8.5 -7 -20 -12 q-11.5 -5 -30.5 -5 q-42 0 -58.5 17.5 q-16.5 17.5 -16.5 43.5 q0 18 3.5 40 q3.5 22 10.5 54 l92 455 q0 0 1.5 10.5 q1.5 10.5 1.5 22.5 q0 10 -5.5 19.5 q-5.5 9.5 -25.5 9.5 q-13 0 -22.5 -1 q-9.5 -1 -9.5 -1 l0 35 l164 11 l34 0 l-115 -579 q0 0 -2.5 -16.5 q-2.5 -16.5 -2.5 -27.5 q0 -10 6 -14.5 q6 -4.5 17 -4.5 l-50 -36 l337 340 l0 6 l-296 0 l16 98 l413 0 l-2 -50 l-305 -308 l0 -7 q27 -3 47 -20 q20 -17 35.5 -40 q15.5 -23 29.5 -45 q14 -22 30 -37.5 q16 -15.5 37 -15.5 q19 0 25.5 6.5 q6.5 6.5 6.5 16.5 q0 12 -6 24.5 q-6 12.5 -6 36.5 q0 15 11.5 33 q11.5 18 39.5 18 q27 0 42 -20.5 q15 -20.5 15 -49.5 q0 -33 -13 -53.5 q-13 -20.5 -34 -31.5 q-21 -11 -45 -14.5 q-24 -3.5 -48 -3.5 Z" /><glyph glyph-name="uni026E" unicode="&#x26e;" d="M250 -227 q-41 0 -79 10 q-38 10 -62 31.5 q-24 21.5 -24 54.5 q0 24 14 42 q14 18 42 18 q24 0 36 -11.5 q12 -11.5 18.5 -28.5 q6.5 -17 13 -35 q6.5 -18 20 -29.5 q13.5 -11.5 39.5 -11.5 q43 0 75 27 q32 27 49.5 70.5 q17.5 43.5 17.5 95.5 q0 63 -25.5 95 q-25.5 32 -65.5 32 q-14 0 -25 -2.5 q-11 -2.5 -20 -7.5 l-30 27 l226 217 l0 6 l-289 0 l0 98 l425 0 l-2 -50 l-266 -249 l2 -3 q5 1 12 1.5 q7 0.5 14 0.5 q47 0 86.5 -20.5 q39.5 -20.5 62.5 -57.5 q23 -37 23 -86 q0 -59 -23 -102.5 q-23 -43.5 -63 -73 q-40 -29.5 -92 -44 q-52 -14.5 -110 -14.5 ZM121 -11 q-44 0 -61 19 q-17 19 -17 45 q0 18 3.5 38.5 q3.5 20.5 10.5 52.5 l92 455 q0 0 1.5 10.5 q1.5 10.5 1.5 22.5 q0 10 -5.5 19.5 q-5.5 9.5 -25.5 9.5 q-13 0 -22.5 -1 q-9.5 -1 -9.5 -1 l0 35 l164 11 l34 0 l-115 -579 q0 -3 -2.5 -16 q-2.5 -13 -2.5 -24 q0 -10 5 -16.5 q5 -6.5 17 -6.5 q21 0 37.5 13 q16.5 13 25.5 23 l26 -19 q-15 -19 -33.5 -40.5 q-18.5 -21.5 -47.5 -36 q-29 -14.5 -76 -14.5 Z" /><glyph glyph-name="uni02A8" unicode="&#x2a8;" d="M156 -11 q-27 0 -50.5 8 q-23.5 8 -37.5 25.5 q-14 17.5 -14 46.5 q0 14 3 31.5 q3 17.5 6 32.5 l62 287 l-59 0 l6 35 q36 17 60.5 32 q24.5 15 46 40 q21.5 25 49.5 66 l50 0 l-30 -137 l-3 -23 l-61 -290 q0 0 -2.5 -16 q-2.5 -16 -2.5 -28 q0 -6 2 -16 q2 -10 10.5 -18 q8.5 -8 26.5 -8 q34 0 73 14 q39 14 78.5 35 q39.5 21 79 42.5 q39.5 21.5 76 35.5 q36.5 14 68.5 14 q37 0 58.5 -20 q21.5 -20 21.5 -55 q0 -31 -23.5 -62.5 q-23.5 -31.5 -66.5 -52 q-43 -20.5 -103 -20.5 q-66 0 -103.5 26 q-37.5 26 -53 67.5 q-15.5 41.5 -15.5 87.5 q0 65 21.5 121.5 q21.5 56.5 59.5 99 q38 42.5 88.5 66.5 q50.5 24 108.5 24 q53 0 89.5 -24.5 q36.5 -24.5 36.5 -69.5 q0 -34 -17 -57.5 q-17 -23.5 -52 -23.5 q-21 0 -34 11.5 q-13 11.5 -13 29.5 q0 25 8.5 39.5 q8.5 14.5 8.5 28.5 q0 10 -10.5 18 q-10.5 8 -31.5 8 q-36 0 -63 -22 q-27 -22 -45 -58 q-18 -36 -26.5 -81 q-8.5 -45 -8.5 -91 q0 -55 11.5 -85 q11.5 -30 32 -41 q20.5 -11 45.5 -11 q28 0 52.5 9.5 q24.5 9.5 40 25.5 q15.5 16 15.5 36 q0 14 -8.5 24 q-8.5 10 -27.5 10 q-29 0 -67 -17 q-38 -17 -82.5 -41.5 q-44.5 -24.5 -92.5 -49.5 q-48 -25 -96.5 -42 q-48.5 -17 -94.5 -17 ZM340 420 l-109 0 l8 48 l111 0 l-10 -48 Z" /><glyph glyph-name="uni02A6" unicode="&#x2a6;" d="M315 -11 q-85 0 -141 10.5 q-56 10.5 -83.5 36.5 q-27.5 26 -29.5 73 q0 20 7 50 l57 265 l-59 0 l6 34 q37 17 61 31.5 q24 14.5 45.5 38.5 q21.5 24 49.5 65 l50 0 l-27 -122 l183 0 l-10 -47 l-181 0 l-52 -247 q0 0 -2 -9.5 q-2 -9.5 -4 -22.5 q-2 -13 -2 -24 q0 -51 32.5 -69 q32.5 -18 103.5 -18 q83 0 128.5 22.5 q45.5 22.5 45.5 60.5 q0 20 -10 36 q-10 16 -26.5 33 q-16.5 17 -37.5 36 q-34 34 -58 66 q-24 32 -24 77 q0 53 39.5 84 q39.5 31 105.5 31 q37 0 66.5 -9 q29.5 -9 46.5 -20 l4 0 l26 28 l28 0 l-23 -160 l-34 0 q-4 58 -25 90 q-21 32 -65 32 q-27 0 -43 -12.5 q-16 -12.5 -16 -33.5 q0 -28 22 -54 q22 -26 56 -61 q26 -26 45 -47 q19 -21 29.5 -41.5 q10.5 -20.5 10.5 -46.5 q0 -44 -29 -79.5 q-29 -35.5 -93.5 -56 q-64.5 -20.5 -172.5 -20.5 Z" /><glyph glyph-name="uni02A7" unicode="&#x2a7;" d="M236 -228 q-54 0 -86.5 22 q-32.5 22 -32.5 64 q0 22 13 39 q13 17 38 17 q27 0 38 -15 q11 -15 15 -34 q4 -19 9.5 -34 q5.5 -15 19.5 -15 q16 0 28.5 18 q12.5 18 22 46.5 q9.5 28.5 16.5 60 q7 31.5 12 59.5 q5 28 7 44 l59 369 q8 57 15.5 95 q7.5 38 16.5 64 q9 26 20 46 q15 25 36 46 q21 21 55 34.5 q34 13.5 86 13.5 q34 0 61 -9.5 q27 -9.5 42.5 -28.5 q15.5 -19 15.5 -49 q0 -25 -15.5 -38.5 q-15.5 -13.5 -38.5 -13.5 q-25 0 -35.5 16.5 q-10.5 16.5 -14.5 36.5 q-4 19 -9 34 q-5 15 -21 15 q-28 0 -46.5 -36 q-18.5 -36 -29.5 -99 l-71 -456 q-4 -31 -13.5 -71.5 q-9.5 -40.5 -26 -82.5 q-16.5 -42 -41.5 -78 q-25 -36 -61 -58 q-36 -22 -84 -22 ZM130 -12 q-37 0 -57.5 16 q-20.5 16 -20.5 53 q0 13 2.5 30 q2.5 17 5.5 29 l65 304 l-59 0 l6 35 q36 17 60.5 32 q24.5 15 46 40 q21.5 25 49.5 66 l50 0 l-28 -125 l190 0 l-10 -48 l-188 0 l-60 -286 q0 0 -3.5 -18.5 q-3.5 -18.5 -3.5 -31.5 q0 -9 3.5 -15 q3.5 -6 15.5 -6 q18 0 35 11.5 q17 11.5 40 40.5 l27 -20 q-14 -20 -36 -45 q-22 -25 -53.5 -43.5 q-31.5 -18.5 -76.5 -18.5 Z" /><glyph glyph-name="ampersand" unicode="&amp;" d="M525 -15 q-51 0 -89 27.5 q-38 27.5 -77 90.5 q-17 30 -36.5 69.5 q-19.5 39.5 -37.5 84.5 q-18 45 -33 89 q-15 44 -23.5 82.5 q-8.5 38.5 -8.5 66.5 q0 52 26 89.5 q26 37.5 71.5 57.5 q45.5 20 102.5 20 q60 0 98 -24.5 q38 -24.5 38 -74.5 q0 -38 -17.5 -70 q-17.5 -32 -62 -61 q-44.5 -29 -129.5 -61 l-6 29 q47 21 76 47.5 q29 26.5 42 55.5 q13 29 13 57 q0 30 -14 50 q-14 20 -46 20 q-39 0 -62.5 -27.5 q-23.5 -27.5 -23.5 -78.5 q0 -32 10.5 -74.5 q10.5 -42.5 28 -88 q17.5 -45.5 38.5 -89 q21 -43.5 41 -76.5 l15 0 l1 -25 q28 -40 58.5 -65.5 q30.5 -25.5 67.5 -25.5 q31 0 57 13.5 q26 13.5 53 43.5 l21 -17 q-32 -62 -83 -98.5 q-51 -36.5 -109 -36.5 ZM163 -16 q-69 0 -109.5 34 q-40.5 34 -40.5 97 q0 51 22 92.5 q22 41.5 75.5 80 q53.5 38.5 148.5 79.5 l8 -32 q-45 -20 -72.5 -49 q-27.5 -29 -40 -63 q-12.5 -34 -12.5 -69 q0 -44 22.5 -70 q22.5 -26 64.5 -26 q36 0 69.5 14 q33.5 14 66.5 41 l20 -30 q-34 -34 -68 -56 q-34 -22 -71 -32.5 q-37 -10.5 -83 -10.5 ZM459 150 l-20 30 q42 68 74 112 q32 44 60 69.5 q28 25.5 54 35.5 q26 10 54 10 q46 0 67.5 -22 q21.5 -22 21.5 -47 q0 -27 -15.5 -40 q-15.5 -13 -35.5 -13 q-17 0 -26.5 7.5 q-9.5 7.5 -15.5 17 q-6 9.5 -13 17.5 q-7 8 -22 8 q-22 0 -43 -15 q-21 -15 -43.5 -40.5 q-22.5 -25.5 -46.5 -59 q-24 -33.5 -50 -70.5 Z" /><glyph glyph-name="uni02B1" unicode="&#x2b1;" d="M180 254 l-102 0 l88 407 q9 43 31.5 80.5 q22.5 37.5 62 60.5 q39.5 23 100.5 23 q42 0 71 -16 q29 -16 29 -51 q0 -22 -13.5 -34.5 q-13.5 -12.5 -33.5 -12.5 q-20 0 -29.5 12 q-9.5 12 -14.5 26.5 q-5 14.5 -11 26.5 q-6 12 -21 12 q-18 0 -36.5 -16.5 q-18.5 -16.5 -30.5 -67.5 l-26 -112 l-28 -105 l15 0 l-51 -233 ZM383 245 q-38 0 -50.5 15.5 q-12.5 15.5 -12.5 33.5 q0 10 2 20 q2 10 3 14 l46 181 q0 0 3 12 q3 12 3 24 q0 11 -4.5 18.5 q-4.5 7.5 -16.5 7.5 q-16 0 -34.5 -16 q-18.5 -16 -36.5 -41 q-18 -25 -34.5 -52.5 q-16.5 -27.5 -28.5 -51.5 q-12 -24 -18 -37 l14 102 q15 25 32.5 54 q17.5 29 40.5 55.5 q23 26.5 53.5 43 q30.5 16.5 71.5 16.5 q37 0 52 -19.5 q15 -19.5 15 -42.5 q0 -16 -3.5 -34 q-3.5 -18 -5.5 -26 l-44 -181 q0 0 -1.5 -5.5 q-1.5 -5.5 -1.5 -13.5 q0 -15 15 -15 q22 0 36 13 q14 13 23 25 l24 -17 q-12 -16 -29 -35.5 q-17 -19.5 -43.5 -33.5 q-26.5 -14 -69.5 -14 Z" /><glyph glyph-name="uni02B4" unicode="&#x2b4;" d="M76 244 q-24 0 -40.5 13.5 q-16.5 13.5 -16.5 41.5 q0 30 17.5 46 q17.5 16 36.5 16 q15 0 23 -8.5 q8 -8.5 11.5 -17 q3.5 -8.5 4.5 -8.5 q15 0 31.5 19.5 q16.5 19.5 32 50.5 q15.5 31 30 64 q14.5 33 25.5 61.5 q11 28.5 16 42.5 l-12 -161 l-26 0 q-9 -19 -20.5 -46 q-11.5 -27 -26 -53 q-14.5 -26 -36 -43.5 q-21.5 -17.5 -50.5 -17.5 ZM259 245 q-28 0 -45 12 q-17 12 -17 41 q0 17 7 48.5 q7 31.5 22 84.5 l4 82 l25 120 l104 0 l-61 -279 q0 0 -2.5 -12.5 q-2.5 -12.5 -2.5 -21.5 q0 -5 3.5 -9.5 q3.5 -4.5 13.5 -4.5 q14 0 26.5 8.5 q12.5 8.5 21 18 q8.5 9.5 9.5 12.5 l23 -18 q-13 -20 -31 -39 q-18 -19 -42 -31 q-24 -12 -58 -12 Z" /><glyph glyph-name="uni02B5" unicode="&#x2b5;" d="M296 120 q-44 0 -68.5 13.5 q-24.5 13.5 -33.5 36.5 q-9 23 -9 49 q0 22 4.5 46 q4.5 24 10.5 51 l23 104 l7 93 l25 120 l104 0 l-79 -360 q-5 -24 -8.5 -43.5 q-3.5 -19.5 -3.5 -33.5 q0 -16 5 -27 q5 -11 19 -11 q15 0 26 11 q11 11 21.5 25.5 q10.5 14.5 23 25.5 q12.5 11 30.5 11 q16 0 26 -9.5 q10 -9.5 10 -26.5 q0 -24 -19.5 -40.5 q-19.5 -16.5 -49.5 -25.5 q-30 -9 -64 -9 ZM76 244 q-24 0 -40.5 13.5 q-16.5 13.5 -16.5 41.5 q0 30 17.5 46 q17.5 16 36.5 16 q15 0 23 -8.5 q8 -8.5 11.5 -17 q3.5 -8.5 4.5 -8.5 q15 0 31.5 19.5 q16.5 19.5 32 50 q15.5 30.5 29 62 q13.5 31.5 23.5 57.5 q10 26 15 36 l-8 -148 l-26 0 q-9 -20 -20.5 -47.5 q-11.5 -27.5 -26.5 -53 q-15 -25.5 -36 -42.5 q-21 -17 -50 -17 Z" /><glyph glyph-name="uni02B6" unicode="&#x2b6;" d="M256 253 l-215 0 l7 30 q35 0 46 9 q11 9 16 33 l46 219 q8 37 -3 48 q-11 11 -45 11 l7 31 l219 0 l-6 -31 q-26 0 -39.5 -4 q-13.5 -4 -19.5 -15 q-6 -11 -11 -34 l-52 -257 q8 -1 16.5 -2 q8.5 -1 23.5 -1 q54 0 78.5 14 q24.5 14 24.5 59 q0 38 -23 52.5 q-23 14.5 -69 15.5 l-31 0 l6 36 l27 0 q17 0 23.5 3.5 q6.5 3.5 18.5 16.5 q13 13 24 24.5 q11 11.5 25.5 26.5 q14.5 15 36 37.5 q21.5 22.5 54.5 58.5 l133 0 l-6 -31 q-22 0 -37 -5 q-15 -5 -33 -24 q-45 -45 -70.5 -69 q-25.5 -24 -39.5 -34 q-14 -10 -26 -16 l0 -4 q22 -3 43 -13 q21 -10 36 -27.5 q15 -17.5 15 -44.5 q0 -35 -19 -57 q-19 -22 -48.5 -34.5 q-29.5 -12.5 -64.5 -17 q-35 -4.5 -68 -4.5 Z" /><glyph glyph-name="uni02E4" unicode="&#x2e4;" d="M274 254 l-102 0 l54 252 l16 -30 q-26 2 -53 14 q-27 12 -50 32.5 q-23 20.5 -37 50.5 q-14 30 -14 67 q0 47 24 86.5 q24 39.5 71.5 63.5 q47.5 24 116.5 24 q70 0 107 -23.5 q37 -23.5 37 -62.5 q0 -23 -12.5 -36 q-12.5 -13 -34.5 -13 q-20 0 -30 10 q-10 10 -15 25 q-5 15 -11 29.5 q-6 14.5 -17.5 25 q-11.5 10.5 -34.5 10.5 q-34 0 -55 -21 q-21 -21 -30.5 -54 q-9.5 -33 -9.5 -70 q0 -40 14.5 -68.5 q14.5 -28.5 42.5 -45 q28 -16.5 68 -22.5 l6 -8 l-51 -236 Z" /><glyph glyph-name="uni02B9" unicode="&#x2b9;" d="M280 616 l-131 -228 l-42 18 l76 247 q7 22 21 41 q14 19 45 19 q24 0 35 -15 q11 -15 11 -35 q0 -13 -4 -23.5 q-4 -10.5 -11 -23.5 Z" /><glyph glyph-name="uni02BE" unicode="&#x2be;" d="M122 460 l-47 0 l15 70 l46 0 q22 0 40 16 q18 16 18 40 q0 18 -10.5 27 q-10.5 9 -28.5 9 l-46 0 l15 70 l47 0 q44 0 70.5 -24 q26.5 -24 26.5 -69 q0 -43 -20 -74 q-20 -31 -53 -48 q-33 -17 -73 -17 Z" /><glyph glyph-name="uni02BF" unicode="&#x2bf;" d="M233 460 l-46 0 q-45 0 -71.5 25 q-26.5 25 -26.5 70 q0 43 20 73.5 q20 30.5 53.5 47 q33.5 16.5 72.5 16.5 l47 0 l-15 -70 l-46 0 q-22 0 -40 -14.5 q-18 -14.5 -18 -40.5 q0 -18 10.5 -27.5 q10.5 -9.5 28.5 -9.5 l46 0 l-15 -70 Z" /><glyph glyph-name="uni02C0" unicode="&#x2c0;" d="M248 350 l-99 0 l23 111 q53 1 89.5 18.5 q36.5 17.5 55 49.5 q18.5 32 18.5 76 q0 39 -13.5 55.5 q-13.5 16.5 -39.5 16.5 q-22 0 -34 -9.5 q-12 -9.5 -19.5 -23 q-7.5 -13.5 -15 -28 q-7.5 -14.5 -18.5 -23.5 q-11 -9 -31 -9 q-19 0 -30 9.5 q-11 9.5 -11 29.5 q0 30 23 50.5 q23 20.5 60 31 q37 10.5 78 10.5 q46 0 81 -14 q35 -14 54.5 -41.5 q19.5 -27.5 19.5 -69.5 q0 -51 -25.5 -83.5 q-25.5 -32.5 -65.5 -50.5 q-40 -18 -83 -25 l-17 -81 Z" /><glyph glyph-name="uni02C1" unicode="&#x2c1;" d="M307 350 l-99 0 l18 83 q-31 6 -59.5 20 q-28.5 14 -47 41 q-18.5 27 -18.5 68 q0 45 24 79 q24 34 68 54 q44 20 103 20 q59 0 98.5 -21 q39.5 -21 39.5 -60 q0 -18 -10 -33 q-10 -15 -35 -15 q-19 0 -27 9 q-8 9 -12 23 q-4 14 -8 27.5 q-4 13.5 -14.5 22.5 q-10.5 9 -33.5 9 q-28 0 -47.5 -16 q-19.5 -16 -29 -41.5 q-9.5 -25.5 -9.5 -54.5 q0 -43 19 -65.5 q19 -22.5 47 -30.5 q28 -8 55 -8 l-22 -111 Z" /><glyph glyph-name="uni02C2" unicode="&#x2c2;" d="M353 497 l-16 -79 l-235 163 l8 39 l305 164 l-19 -91 l-192 -96 l149 -100 Z" /><glyph glyph-name="uni02C3" unicode="&#x2c3;" d="M386 583 l-305 -165 l19 91 l191 96 l-149 100 l17 79 l235 -163 l-8 -38 Z" /><glyph glyph-name="uni02C4" unicode="&#x2c4;" d="M130 476 l-84 0 l221 270 l38 0 l108 -270 l-86 0 l-62 168 l-135 -168 Z" /><glyph glyph-name="uni02C5" unicode="&#x2c5;" d="M244 476 l-39 0 l-106 270 l84 0 l64 -168 l133 168 l86 0 l-222 -270 Z" /><glyph glyph-name="uni02C8" unicode="&#x2c8;" d="M230 449 l-61 0 l62 291 l61 0 l-62 -291 Z" /><glyph glyph-name="uni02CC" unicode="&#x2cc;" d="M97 -210 l-61 0 l62 291 l61 0 l-62 -291 Z" /><glyph glyph-name="uni02CD" unicode="&#x2cd;" d="M269 -173 l-340 0 l17 76 l340 0 l-17 -76 Z" /><glyph glyph-name="uni02D0" unicode="&#x2d0;" d="M231 309 l-60 0 l-24 185 l187 0 l-103 -185 ZM234 22 l-187 0 l102 185 l60 0 l25 -185 Z" /><glyph glyph-name="uni02D1" unicode="&#x2d1;" d="M231 309 l-60 0 l-24 185 l187 0 l-103 -185 Z" /><glyph glyph-name="uni02D2" unicode="&#x2d2;" d="M99 67 l-57 0 l17 76 l54 0 q28 0 52 12 q24 12 38 34.5 q14 22.5 14 51.5 q0 30 -19 48 q-19 18 -50 18 l-55 0 l17 77 l57 0 q56 0 93 -36.5 q37 -36.5 37 -93.5 q0 -55 -29 -97 q-29 -42 -74 -66 q-45 -24 -95 -24 Z" /><glyph glyph-name="uni02D3" unicode="&#x2d3;" d="M247 67 l-57 0 q-56 0 -93 36 q-37 36 -37 93 q0 55 28.5 97.5 q28.5 42.5 74 66.5 q45.5 24 95.5 24 l56 0 l-16 -77 l-55 0 q-27 0 -50.5 -12.5 q-23.5 -12.5 -38 -34.5 q-14.5 -22 -14.5 -51 q0 -30 19 -48 q19 -18 50 -18 l54 0 l-16 -76 Z" /><glyph glyph-name="uni02D4" unicode="&#x2d4;" d="M207 198 l-61 0 l35 165 l61 0 l-35 -165 ZM294 151 l-255 0 l13 61 l255 0 l-13 -61 Z" /><glyph glyph-name="uni02D5" unicode="&#x2d5;" d="M197 151 l-61 0 l35 164 l61 0 l-35 -164 ZM327 302 l-256 0 l13 61 l255 0 l-12 -61 Z" /><glyph glyph-name="uni02D6" unicode="&#x2d6;" d="M200 142 l-64 0 l49 230 l64 0 l-49 -230 ZM304 227 l-235 0 l13 60 l234 0 l-12 -60 Z" /><glyph glyph-name="uni02D7" unicode="&#x2d7;" d="M293 227 l-218 0 l13 60 l217 0 l-12 -60 Z" /><glyph glyph-name="uni02DE" unicode="&#x2de;" d="M117 235 q-41 0 -59.5 23 q-18.5 23 -18.5 52 q0 12 3 24 l-2 1 l-84 -41 l9 40 l124 63 l20 -20 q-3 -8 -6 -17 q-3 -9 -3 -21 q0 -16 8 -28 q8 -12 30 -12 q23 0 39.5 16.5 q16.5 16.5 18.5 47.5 l28 4 l0 -13 q0 -24 -11 -52 q-11 -28 -34.5 -47.5 q-23.5 -19.5 -61.5 -19.5 Z" /><glyph glyph-name="uni02DF" unicode="&#x2df;" d="M380 639 l-187 -159 l-87 114 l188 157 l86 -112 ZM372 595 l-135 -115 l-122 160 l135 111 l122 -156 Z" /><glyph glyph-name="uni02E0" unicode="&#x2e0;" d="M161 69 q-44 0 -63 21 q-19 21 -19 51 q0 34 28.5 70 q28.5 36 76.5 85 l9 -46 q-27 -26 -48 -53 q-21 -27 -21 -53 q0 -16 7.5 -27.5 q7.5 -11.5 24.5 -11.5 q20 0 28 15 q8 15 8 35 q0 18 -3.5 39 q-3.5 21 -9.5 37 l-13 0 l4 35 l-48 248 q-4 19 -8.5 38 q-4.5 19 -16 31 q-11.5 12 -34.5 12 q-7 0 -15.5 -0.5 q-8.5 -0.5 -10.5 -1.5 l0 36 l110 9 l46 0 q10 -15 15.5 -30.5 q5.5 -15.5 10.5 -36 q5 -20.5 11 -54.5 l18 -102 l4 -72 l7 0 q41 52 65.5 87 q24.5 35 35 58.5 q10.5 23.5 10.5 38.5 q0 13 -10 24.5 q-10 11.5 -19.5 24.5 q-9.5 13 -9.5 30 q0 18 12 28.5 q12 10.5 32 10.5 q29 0 45.5 -18 q16.5 -18 16.5 -45 q0 -25 -11 -56 q-11 -31 -32 -64 q-19 -30 -44.5 -64 q-25.5 -34 -55.5 -71 q-30 -37 -63 -74 l32 44 q4 -20 11.5 -53.5 q7.5 -33.5 7.5 -63.5 q0 -35 -17.5 -60 q-17.5 -25 -45.5 -38 q-28 -13 -58 -13 Z" /><glyph glyph-name="uni1DA3" unicode="&#x1da3;" d="M455 76 l-179 0 l52 214 l28 109 l-8 0 q-14 -24 -31.5 -50.5 q-17.5 -26.5 -39.5 -50.5 q-22 -24 -51 -38.5 q-29 -14.5 -67 -14.5 q-37 0 -51 20 q-14 20 -14 42 q0 16 3.5 34 q3.5 18 5.5 26 l42 175 q0 0 1 6.5 q1 6.5 2.5 14.5 q1.5 8 1.5 15 q0 11 -7.5 16.5 q-7.5 5.5 -20.5 5.5 q-8 0 -13.5 0 q-5.5 0 -12.5 -2 l0 33 l129 9 l39 0 l-58 -261 q0 0 -3 -12 q-3 -12 -3 -24 q0 -10 5.5 -18 q5.5 -8 16.5 -8 q19 0 42 22.5 q23 22.5 45 56 q22 33.5 39 69 q17 35.5 23 62.5 l24 108 l103 0 l-94 -458 q0 0 -2 -10 q-2 -10 -2 -20 q0 -25 15 -33 q15 -8 44 -8 l-4 -30 Z" /><glyph glyph-name="uni02E5" unicode="&#x2e5;" d="M422 -10 l-71 0 l0 626 l-282 0 l0 72 l353 0 l0 -698 Z" /><glyph glyph-name="uni02E6" unicode="&#x2e6;" d="M414 -10 l-72 0 l0 441 l-281 0 l0 71 l281 0 l0 186 l72 0 l0 -698 Z" /><glyph glyph-name="uni02E7" unicode="&#x2e7;" d="M414 -10 l-72 0 l0 313 l-281 0 l0 71 l281 0 l0 314 l72 0 l0 -698 Z" /><glyph glyph-name="uni02E8" unicode="&#x2e8;" d="M414 -10 l-72 0 l0 185 l-281 0 l0 71 l281 0 l0 442 l72 0 l0 -698 Z" /><glyph glyph-name="uni02E9" unicode="&#x2e9;" d="M414 -10 l-353 0 l0 71 l281 0 l0 627 l72 0 l0 -698 Z" /><glyph glyph-name="uni02EC" unicode="&#x2ec;" d="M115 -161 l-38 0 l-95 242 l91 0 l47 -125 l5 0 l92 125 l96 0 l-198 -242 Z" /><glyph glyph-name="uni02ED" unicode="&#x2ed;" d="M485 651 l-362 0 l17 76 l362 0 l-17 -76 ZM456 510 l-362 0 l15 75 l362 0 l-15 -75 Z" /><glyph glyph-name="uni0300" unicode="&#x300;" d="M-131 521 l-44 0 l-95 132 l5 27 l100 0 l34 -159 Z" /><glyph glyph-name="uni0301" unicode="&#x301;" d="M-200 521 l-45 0 l64 159 l108 0 l-6 -27 l-121 -132 Z" /><glyph glyph-name="uni0302" unicode="&#x302;" d="M-283 521 l-53 0 l140 159 l83 0 l74 -159 l-49 0 l-80 94 l-115 -94 Z" /><glyph glyph-name="uni0303" unicode="&#x303;" d="M-305 533 l-36 0 q11 34 31 60.5 q20 26.5 45.5 42.5 q25.5 16 53.5 16 q26 0 43.5 -10 q17.5 -10 34.5 -20.5 q17 -10.5 41 -10.5 q17 0 33.5 9.5 q16.5 9.5 30.5 35.5 l34 0 q-21 -59 -53 -89.5 q-32 -30.5 -74 -30.5 q-26 0 -44 10.5 q-18 10.5 -35 20 q-17 9.5 -42 9.5 q-19 0 -35 -9 q-16 -9 -28 -34 Z" /><glyph glyph-name="uni0304" unicode="&#x304;" d="M-35 555 l-290 0 l14 68 l290 0 l-14 -68 Z" /><glyph glyph-name="uni0305" unicode="&#x305;" d="M21 555 l-400 0 l11 68 l400 0 l-11 -68 Z" /><glyph glyph-name="uni0306" unicode="&#x306;" d="M-183 529 q-59 0 -92.5 28 q-33.5 28 -33.5 87 q0 9 1 19.5 q1 10.5 3 22.5 l35 0 q1 -34 13 -51.5 q12 -17.5 34 -23.5 q22 -6 52 -6 q32 0 55 6 q23 6 41.5 23.5 q18.5 17.5 36.5 51.5 l38 0 q-24 -79 -69 -118 q-45 -39 -114 -39 Z" /><glyph glyph-name="uni0307" unicode="&#x307;" d="M-169 547 q-31 0 -50.5 19 q-19.5 19 -19.5 50 q0 32 19 51 q19 19 52 19 q35 0 53 -19 q18 -19 18 -50 q0 -32 -19 -51 q-19 -19 -53 -19 Z" /><glyph glyph-name="uni0308" unicode="&#x308;" d="M-60 547 q-30 0 -48 18 q-18 18 -18 48 q0 30 17.5 48 q17.5 18 49.5 18 q33 0 50 -18 q17 -18 17 -47 q0 -31 -18 -49 q-18 -18 -50 -18 ZM-276 547 q-30 0 -48.5 18 q-18.5 18 -18.5 48 q0 30 18 48 q18 18 50 18 q33 0 50 -18 q17 -18 17 -47 q0 -31 -18 -49 q-18 -18 -50 -18 Z" /><glyph glyph-name="uni0309" unicode="&#x309;" d="M-165 521 l-55 0 l13 57 q21 0 40 8 q19 8 30.5 27.5 q11.5 19.5 11.5 53.5 q0 15 -4.5 23 q-4.5 8 -18.5 8 q-16 0 -24.5 -7.5 q-8.5 -7.5 -14.5 -17 q-6 -9.5 -13.5 -17 q-7.5 -7.5 -21.5 -7.5 q-13 0 -19.5 7.5 q-6.5 7.5 -6.5 18.5 q0 20 16 34 q16 14 40.5 20.5 q24.5 6.5 49.5 6.5 q47 0 71 -21 q24 -21 24 -56 q0 -35 -20 -57 q-20 -22 -45.5 -32.5 q-25.5 -10.5 -45.5 -14.5 l-7 -34 Z" /><glyph glyph-name="uni030A" unicode="&#x30a;" d="M-181 526 q-41 0 -68 21 q-27 21 -27 64 q0 36 17.5 63 q17.5 27 47 42.5 q29.5 15.5 63.5 15.5 q44 0 69 -23.5 q25 -23.5 25 -66.5 q0 -53 -37 -84.5 q-37 -31.5 -90 -31.5 ZM-176 572 q32 0 48.5 21.5 q16.5 21.5 16.5 48.5 q0 44 -43 44 q-30 0 -47.5 -21 q-17.5 -21 -17.5 -49 q0 -20 10 -32 q10 -12 33 -12 Z" /><glyph glyph-name="uni030B" unicode="&#x30b;" d="M-103 521 l-46 0 l63 159 l103 0 l-5 -27 l-115 -132 ZM-262 521 l-45 0 l62 159 l103 0 l-4 -27 l-116 -132 Z" /><glyph glyph-name="uni030C" unicode="&#x30c;" d="M-145 522 l-83 0 l-74 160 l48 0 l81 -94 l115 94 l53 0 l-140 -160 Z" /><glyph glyph-name="uni030D" unicode="&#x30d;" d="M-146 521 l-83 0 l44 205 l82 0 l-43 -205 Z" /><glyph glyph-name="uni030E" unicode="&#x30e;" d="M-68 521 l-83 0 l43 205 l83 0 l-43 -205 ZM-225 521 l-82 0 l44 205 l82 0 l-44 -205 Z" /><glyph glyph-name="uni030F" unicode="&#x30f;" d="M-72 521 l-44 0 l-100 132 l4 27 l98 0 l42 -159 ZM-227 521 l-44 0 l-100 132 l4 27 l98 0 l42 -159 Z" /><glyph glyph-name="uni0310" unicode="&#x310;" d="M-183 529 q-59 0 -92.5 28 q-33.5 28 -33.5 87 q0 9 0.5 19.5 q0.5 10.5 2.5 22.5 l36 0 q1 -34 13 -51.5 q12 -17.5 34 -23.5 q22 -6 52 -6 q32 0 55 6 q23 6 41.5 23.5 q18.5 17.5 36.5 51.5 l38 0 q-24 -79 -69 -118 q-45 -39 -114 -39 ZM-162 657 q-27 0 -41 14 q-14 14 -14 37 q0 33 22.5 54.5 q22.5 21.5 58.5 21.5 q27 0 40.5 -13.5 q13.5 -13.5 13.5 -36.5 q0 -31 -21 -54 q-21 -23 -59 -23 Z" /><glyph glyph-name="uni0311" unicode="&#x311;" d="M-300 527 l-39 0 q25 80 70 118 q45 38 114 38 q59 0 92.5 -28 q33.5 -28 33.5 -87 q0 -9 -0.5 -19.5 q-0.5 -10.5 -2.5 -21.5 l-36 0 q0 34 -12 51 q-12 17 -34 23.5 q-22 6.5 -53 6.5 q-31 0 -55 -6.5 q-24 -6.5 -42 -23.5 q-18 -17 -36 -51 Z" /><glyph glyph-name="uni0312" unicode="&#x312;" d="M-178 523 q-35 0 -54.5 23 q-19.5 23 -19.5 62 q0 35 16 63 q16 28 41.5 48 q25.5 20 55 33 q29.5 13 55.5 19 l9 -29 q-20 -7 -43.5 -19 q-23.5 -12 -41.5 -31.5 q-18 -19.5 -23 -51.5 q10 4 20 4 q23 0 39.5 -14.5 q16.5 -14.5 16.5 -40.5 q0 -23 -17.5 -44.5 q-17.5 -21.5 -53.5 -21.5 Z" /><glyph glyph-name="uni0313" unicode="&#x313;" d="M-240 510 l-9 30 q21 8 44 19.5 q23 11.5 41 31.5 q18 20 23 51 q-10 -5 -20 -5 q-23 0 -39.5 15 q-16.5 15 -16.5 40 q0 25 17.5 46 q17.5 21 53.5 21 q36 0 55 -23 q19 -23 19 -62 q0 -35 -16 -63 q-16 -28 -41.5 -48 q-25.5 -20 -55 -33 q-29.5 -13 -55.5 -20 Z" /><glyph glyph-name="uni0314" unicode="&#x314;" d="M-114 540 l-12 -30 q-20 8 -43 23 q-23 15 -40 42 q-17 27 -17 69 q0 31 10.5 57 q10.5 26 30.5 42 q20 16 49 16 q29 0 46 -15.5 q17 -15.5 18 -40.5 q0 -29 -18.5 -47 q-18.5 -18 -47.5 -18 q-13 0 -29 5 q-4 -11 -4 -24 q0 -27 15 -48 q15 -21 42 -31 Z" /><glyph glyph-name="uni0315" unicode="&#x315;" d="M-192 494 l-38 8 l41 197 l99 0 l-4 -29 q-7 -27 -23 -58.5 q-16 -31.5 -35.5 -61.5 q-19.5 -30 -39.5 -56 Z" /><glyph glyph-name="uni031A" unicode="&#x31a;" d="M-50 518 l-77 0 l32 153 l-198 0 l16 73 l275 0 l-48 -226 Z" /><glyph glyph-name="uni031B" unicode="&#x31b;" d="M-119 433 q-9 0 -23 1 q-14 1 -26 2 q-12 1 -18 2 l5 30 q13 -1 33.5 -1 q20.5 0 33.5 0 q34 0 48.5 13 q14.5 13 14.5 31 q0 16 -8 31 q-8 15 -8 32 q0 27 17 38.5 q17 11.5 36 11.5 q19 0 33.5 -13.5 q14.5 -13.5 14.5 -45.5 q0 -17 -7 -39.5 q-7 -22.5 -24 -43.5 q-17 -21 -46.5 -35 q-29.5 -14 -75.5 -14 Z" /><glyph glyph-name="uni033F" unicode="&#x33f;" d="M10 510 l-399 0 l15 66 l398 0 l-14 -66 ZM39 646 l-399 0 l14 66 l399 0 l-14 -66 Z" /><glyph glyph-name="uni0346" unicode="&#x346;" d="M-265 522 l-77 0 l36 166 l309 0 l-36 -166 l-75 0 l20 94 l-157 0 l-20 -94 Z" /><glyph glyph-name="uni034C" unicode="&#x34c;" d="M-277 670 l-35 0 q19 49 53 82 q34 33 76 33 q26 0 44.5 -10 q18.5 -10 35 -20.5 q16.5 -10.5 39.5 -10.5 q18 0 35 10 q17 10 31 35 l33 0 q-23 -58 -54 -87 q-31 -29 -73 -29 q-28 0 -46 10.5 q-18 10.5 -34.5 20.5 q-16.5 10 -40.5 10 q-19 0 -35.5 -9.5 q-16.5 -9.5 -28.5 -34.5 ZM-307 529 l-35 0 q19 49 52.5 82 q33.5 33 76.5 33 q26 0 44 -10 q18 -10 35 -20.5 q17 -10.5 40 -10.5 q18 0 35 10.5 q17 10.5 30 34.5 l34 0 q-23 -58 -54 -87 q-31 -29 -73 -29 q-28 0 -46.5 10.5 q-18.5 10.5 -34.5 20.5 q-16 10 -40 10 q-19 0 -35.5 -9.5 q-16.5 -9.5 -28.5 -34.5 Z" /><glyph glyph-name="uni0360" unicode="&#x360;" d="M188 518 q-36 0 -68.5 9.5 q-32.5 9.5 -62.5 22.5 q-30 13 -59.5 22.5 q-29.5 9.5 -58.5 9.5 q-34 0 -59 -11.5 q-25 -11.5 -39 -36.5 l-35 0 q21 58 63 90.5 q42 32.5 103 32.5 q34 0 66.5 -10 q32.5 -10 63 -22.5 q30.5 -12.5 59 -22 q28.5 -9.5 55.5 -9.5 q39 0 63.5 11.5 q24.5 11.5 38.5 36.5 l35 0 q-20 -58 -62 -90.5 q-42 -32.5 -103 -32.5 Z" /><glyph glyph-name="uni0361" unicode="&#x361;" d="M-149 543 l-32 0 q23 85 90.5 120.5 q67.5 35.5 184.5 35.5 q116 0 167.5 -37 q51.5 -37 50.5 -119 l-28 0 q-16 33 -39.5 50 q-23.5 17 -62 22.5 q-38.5 5.5 -101.5 5.5 q-61 0 -103 -5.5 q-42 -5.5 -72.5 -22.5 q-30.5 -17 -54.5 -50 Z" /><glyph glyph-name="uni0316" unicode="&#x316;" d="M-288 -215 l-43 0 l-96 132 l6 27 l100 0 l33 -159 Z" /><glyph glyph-name="uni0317" unicode="&#x317;" d="M-356 -215 l-45 0 l63 159 l108 0 l-6 -27 l-120 -132 Z" /><glyph glyph-name="uni0318" unicode="&#x318;" d="M-283 -266 l-61 0 l46 215 l61 0 l-46 -215 ZM-314 -190 l-115 0 l13 62 l115 0 l-13 -62 Z" /><glyph glyph-name="uni0319" unicode="&#x319;" d="M-366 -266 l-62 0 l46 215 l62 0 l-46 -215 ZM-249 -190 l-115 0 l13 62 l115 0 l-13 -62 Z" /><glyph glyph-name="uni031C" unicode="&#x31c;" d="M-302 -261 l-31 0 q-41 0 -67.5 22.5 q-26.5 22.5 -26.5 66.5 q0 59 40 88.5 q40 29.5 96 29.5 l33 0 l-11 -54 l-31 0 q-29 0 -47 -16 q-18 -16 -18 -43 q0 -19 11.5 -29 q11.5 -10 33.5 -10 l30 0 l-12 -55 Z" /><glyph glyph-name="uni031D" unicode="&#x31d;" d="M-305 -181 l-61 0 l26 126 l61 0 l-26 -126 ZM-238 -226 l-217 0 l14 59 l216 0 l-13 -59 Z" /><glyph glyph-name="uni031E" unicode="&#x31e;" d="M-315 -226 l-61 0 l26 126 l62 0 l-27 -126 ZM-214 -114 l-216 0 l12 59 l216 0 l-12 -59 Z" /><glyph glyph-name="uni031F" unicode="&#x31f;" d="M-326 -279 l-64 0 l49 230 l64 0 l-49 -230 ZM-222 -194 l-235 0 l13 60 l235 0 l-13 -60 Z" /><glyph glyph-name="uni0320" unicode="&#x320;" d="M-230 -185 l-217 0 l13 60 l217 0 l-13 -60 Z" /><glyph glyph-name="uni0321" unicode="&#x321;" d="M-438 -223 q-54 0 -86.5 22 q-32.5 22 -32.5 65 q0 20 12.5 37.5 q12.5 17.5 38.5 17.5 q26 0 37 -15 q11 -15 15.5 -34 q4.5 -19 10 -33.5 q5.5 -14.5 19.5 -14.5 q18 0 33 24.5 q15 24.5 25.5 60 q10.5 35.5 17.5 72 q7 36.5 11 59.5 l119 0 q-9 -41 -24.5 -86.5 q-15.5 -45.5 -41.5 -85 q-26 -39.5 -63.5 -64.5 q-37.5 -25 -90.5 -25 Z" /><glyph glyph-name="uni0322" unicode="&#x322;" d="M-192 -226 q-85 0 -122 39 q-37 39 -37 112 q0 14 1.5 30 q1.5 16 4.5 36 q3 20 9 47 l118 0 l-14 -67 q-4 -20 -7.5 -43.5 q-3.5 -23.5 -3.5 -44.5 q0 -28 8.5 -46 q8.5 -18 30.5 -18 q21 0 34 12.5 q13 12.5 23 29 q10 16.5 23.5 29 q13.5 12.5 36.5 12.5 q15 0 28.5 -9.5 q13.5 -9.5 13.5 -30.5 q0 -31 -20 -50.5 q-20 -19.5 -53 -28.5 q-33 -9 -74 -9 Z" /><glyph glyph-name="uni0323" unicode="&#x323;" d="M-328 -205 q-32 0 -51 19 q-19 19 -19 50 q0 32 19 51 q19 19 52 19 q34 0 52 -19 q18 -19 18 -50 q0 -32 -19 -51 q-19 -19 -52 -19 Z" /><glyph glyph-name="uni0324" unicode="&#x324;" d="M-219 -198 q-31 0 -49 17.5 q-18 17.5 -18 48.5 q0 30 18 48 q18 18 49 18 q34 0 51 -18.5 q17 -18.5 17 -47.5 q0 -30 -18 -48 q-18 -18 -50 -18 ZM-436 -198 q-30 0 -48 17.5 q-18 17.5 -18 48.5 q0 30 18 48 q18 18 49 18 q33 0 50 -18.5 q17 -18.5 17 -47.5 q0 -30 -17.5 -48 q-17.5 -18 -50.5 -18 Z" /><glyph glyph-name="uni0325" unicode="&#x325;" d="M-348 -256 q-41 0 -67.5 21 q-26.5 21 -26.5 64 q0 35 17.5 62 q17.5 27 47 42.5 q29.5 15.5 63.5 15.5 q44 0 69 -23 q25 -23 25 -66 q0 -53 -37.5 -84.5 q-37.5 -31.5 -90.5 -31.5 ZM-342 -210 q32 0 48 21.5 q16 21.5 16 47.5 q0 45 -42 45 q-30 0 -47.5 -21 q-17.5 -21 -17.5 -49 q0 -20 9.5 -32 q9.5 -12 33.5 -12 Z" /><glyph glyph-name="uni0326" unicode="&#x326;" d="M-411 -293 l-9 30 q21 8 44.5 19.5 q23.5 11.5 41.5 31.5 q18 20 23 50 q-10 -4 -20 -4 q-23 0 -39.5 15 q-16.5 15 -16.5 40 q0 25 17 46 q17 21 53 21 q36 0 55 -23 q19 -23 19 -62 q0 -36 -15.5 -64 q-15.5 -28 -41 -48 q-25.5 -20 -55 -32.5 q-29.5 -12.5 -56.5 -19.5 Z" /><glyph glyph-name="uni0327" unicode="&#x327;" d="M-337 -219 q-27 0 -50.5 9.5 q-23.5 9.5 -43.5 27.5 l21 27 q12 -8 29 -14 q17 -6 35 -6 q25 0 41 11.5 q16 11.5 16 34.5 q0 18 -10 26.5 q-10 8.5 -28 8.5 q-10 0 -20.5 -1.5 q-10.5 -1.5 -10.5 -1.5 l-12 14 l41 87 l36 0 l-27 -58 q2 0 9 1 q7 1 15 1 q34 0 56.5 -18 q22.5 -18 22.5 -53 q0 -31 -17.5 -52.5 q-17.5 -21.5 -45 -32.5 q-27.5 -11 -57.5 -11 Z" /><glyph glyph-name="uni0328" unicode="&#x328;" d="M-338 -219 q-45 0 -68.5 22.5 q-23.5 22.5 -23.5 58.5 q0 37 21.5 64 q21.5 27 50.5 46.5 q29 19.5 49 31.5 l59 0 q-19 -12 -41.5 -27 q-22.5 -15 -38.5 -36 q-16 -21 -16 -52 q0 -26 12.5 -37.5 q12.5 -11.5 36.5 -11.5 q24 0 41 7.5 q17 7.5 41 23.5 l17 -24 q-33 -29 -64.5 -47.5 q-31.5 -18.5 -75.5 -18.5 Z" /><glyph glyph-name="uni0329" unicode="&#x329;" d="M-314 -229 l-67 0 l38 177 l66 0 l-37 -177 Z" /><glyph glyph-name="uni032A" unicode="&#x32a;" d="M-413 -198 l-61 0 l30 143 l267 0 l-30 -143 l-59 0 l18 84 l-147 0 l-18 -84 Z" /><glyph glyph-name="uni032B" unicode="&#x32b;" d="M-405 -195 q-39 0 -60.5 20.5 q-21.5 20.5 -21.5 51.5 q0 5 0.5 10.5 q0.5 5.5 1.5 11.5 l11 46 l61 0 l-10 -47 q-1 -2 -1 -4 q0 -2 0 -3 q0 -13 8.5 -19 q8.5 -6 23.5 -6 q19 0 28 8 q9 8 12 24 l11 47 l61 0 l-10 -46 q-1 -2 -1 -4 q0 -2 0 -4 q0 -12 8.5 -18.5 q8.5 -6.5 22.5 -6.5 q22 0 32.5 8.5 q10.5 8.5 13.5 24.5 l11 46 l61 0 l-10 -46 q-10 -47 -40.5 -70.5 q-30.5 -23.5 -71.5 -23.5 q-24 0 -42.5 10.5 q-18.5 10.5 -25.5 24.5 l-2 0 q-13 -16 -30.5 -25.5 q-17.5 -9.5 -40.5 -9.5 Z" /><glyph glyph-name="uni032C" unicode="&#x32c;" d="M-300 -203 l-83 0 l-75 153 l49 0 l81 -90 l114 90 l53 0 l-139 -153 Z" /><glyph glyph-name="uni032D" unicode="&#x32d;" d="M-437 -203 l-53 0 l139 153 l83 0 l75 -153 l-49 0 l-80 90 l-115 -90 Z" /><glyph glyph-name="uni032E" unicode="&#x32e;" d="M-339 -207 q-59 0 -92.5 28.5 q-33.5 28.5 -33.5 87.5 q0 9 0.5 19.5 q0.5 10.5 2.5 21.5 l36 0 q1 -34 13 -51.5 q12 -17.5 34 -23.5 q22 -6 52 -6 q32 0 55.5 6 q23.5 6 42 23.5 q18.5 17.5 35.5 51.5 l39 0 q-25 -79 -70 -118 q-45 -39 -114 -39 Z" /><glyph glyph-name="uni032F" unicode="&#x32f;" d="M-455 -207 l-38 0 q24 80 69 118.5 q45 38.5 115 38.5 q59 0 92.5 -28 q33.5 -28 33.5 -87 q0 -9 -1 -19.5 q-1 -10.5 -3 -22.5 l-35 0 q-1 35 -13 52 q-12 17 -34 23 q-22 6 -53 6 q-31 0 -54.5 -6 q-23.5 -6 -42 -23.5 q-18.5 -17.5 -36.5 -51.5 Z" /><glyph glyph-name="uni0330" unicode="&#x330;" d="M-465 -165 l-34 0 q18 48 52 81 q34 33 77 33 q26 0 44 -10 q18 -10 34.5 -20 q16.5 -10 39.5 -10 q18 0 35.5 10 q17.5 10 30.5 34 l33 0 q-23 -58 -54 -86.5 q-31 -28.5 -73 -28.5 q-28 0 -46 10 q-18 10 -34.5 20 q-16.5 10 -40.5 10 q-18 0 -35 -9.5 q-17 -9.5 -29 -33.5 Z" /><glyph glyph-name="uni0331" unicode="&#x331;" d="M-184 -147 l-290 0 l14 67 l290 0 l-14 -67 Z" /><glyph glyph-name="uni0332" unicode="&#x332;" d="M-73 -146 l-512 0 l14 66 l512 0 l-14 -66 Z" /><glyph glyph-name="uni0333" unicode="&#x333;" d="M-99 -267 l-512 0 l14 66 l512 0 l-14 -66 ZM-72 -140 l-512 0 l14 67 l512 0 l-14 -67 Z" /><glyph glyph-name="uni0339" unicode="&#x339;" d="M-373 -261 l-33 0 l12 55 l30 0 q30 0 48 16 q18 16 18 43 q0 19 -11.5 29 q-11.5 10 -34.5 10 l-30 0 l12 54 l31 0 q41 0 67.5 -22 q26.5 -22 26.5 -66 q0 -59 -40 -89 q-40 -30 -96 -30 Z" /><glyph glyph-name="uni033A" unicode="&#x33a;" d="M-207 -198 l-267 0 l30 143 l61 0 l-18 -84 l147 0 l18 84 l59 0 l-30 -143 Z" /><glyph glyph-name="uni033B" unicode="&#x33b;" d="M-251 -260 l-205 0 l43 205 l205 0 l-43 -205 ZM-366 -112 l-19 -91 l87 0 l19 91 l-87 0 Z" /><glyph glyph-name="uni033C" unicode="&#x33c;" d="M-325 -203 l-31 0 q-6 28 -17 49.5 q-11 21.5 -39 21.5 q-14 0 -30.5 -6.5 q-16.5 -6.5 -48.5 -27.5 l15 74 q27 18 46 27 q19 9 34 9 q25 0 43.5 -12.5 q18.5 -12.5 29.5 -43.5 l5 0 q24 30 47 43 q23 13 45 13 q16 0 35.5 -9 q19.5 -9 36.5 -27 l-15 -74 q-24 21 -39.5 27.5 q-15.5 6.5 -29.5 6.5 q-28 0 -47.5 -20.5 q-19.5 -20.5 -39.5 -50.5 Z" /><glyph glyph-name="uni033D" unicode="&#x33d;" d="M-61 576 l-45 -41 l-158 180 l48 40 l155 -179 ZM-43 713 l-202 -178 l-34 43 l201 177 l35 -42 Z" /><glyph glyph-name="uni033E" unicode="&#x33e;" d="M-248 511 l6 35 q31 11 46 27 q15 16 15 41 q0 25 -9 49.5 q-9 24.5 -9 53.5 q0 52 36 83 q36 31 103 44 l-6 -35 q-28 -9 -44 -27 q-16 -18 -16 -41 q0 -24 9 -48.5 q9 -24.5 9 -53.5 q0 -35 -17 -60.5 q-17 -25.5 -48 -42 q-31 -16.5 -75 -25.5 Z" /><glyph glyph-name="uni0347" unicode="&#x347;" d="M-156 -133 l-340 0 l15 75 l341 0 l-16 -75 ZM-183 -258 l-340 0 l16 75 l341 0 l-17 -75 Z" /><glyph glyph-name="uni0359" unicode="&#x359;" d="M-373 -403 q-15 0 -29 10 q-14 10 -14 29 q0 12 5.5 27 q5.5 15 13 30 q7.5 15 12.5 27 q4 9 8 17 q4 8 5 14 l-2 3 q-19 -7 -38.5 -22 q-19.5 -15 -38.5 -28 q-19 -13 -35 -13 q-17 0 -27.5 14.5 q-10.5 14.5 -10.5 31.5 q0 19 13 28 q13 9 32.5 11.5 q19.5 2.5 39.5 2.5 q16 1 30 2 q14 1 26 5 l1 4 q-7 8 -21 14.5 q-14 6.5 -28 12.5 q-26 12 -44.5 24 q-18.5 12 -18.5 30 q0 17 13 32 q13 15 29 15 q14 0 26.5 -13 q12.5 -13 22.5 -30 q11 -16 21.5 -32.5 q10.5 -16.5 20.5 -28.5 l3 1 q1 8 1.5 16 q0.5 8 0.5 16 q0 12 -1 24.5 q-1 12.5 -1 25.5 q0 33 11 48 q11 15 30 15 q17 0 30 -10 q13 -10 13 -28 q0 -16 -9 -35 q-9 -19 -20 -39 q-11 -20 -16 -41 l1 -3 q18 9 38 23.5 q20 14.5 39.5 26 q19.5 11.5 34.5 11.5 q16 0 27 -13.5 q11 -13.5 11 -29.5 q0 -24 -14.5 -32 q-14.5 -8 -36.5 -8.5 q-22 -0.5 -46.5 0 q-24.5 0.5 -43.5 -6.5 l-1 -2 q4 -4 9.5 -7.5 q5.5 -3.5 10.5 -7.5 q19 -10 40.5 -21 q21.5 -11 37 -24 q15.5 -13 15.5 -31 q0 -16 -14 -30.5 q-14 -14.5 -31 -14.5 q-15 0 -27 13 q-12 13 -22 31.5 q-10 18.5 -20 33.5 q-5 9 -10 17 q-5 8 -9 14 l-3 -1 q-1 -6 -1.5 -13 q-0.5 -7 -0.5 -13 q0 -15 1 -30.5 q1 -15.5 1 -30.5 q0 -61 -40 -61 Z" /><glyph glyph-name="uni035C" unicode="&#x35c;" d="M-98 -239 q-39 0 -83 2.5 q-44 2.5 -85 10.5 q-41 8 -73.5 23 q-32.5 15 -52 39.5 q-19.5 24.5 -19.5 60.5 q0 12 3 25 l29 0 q0 -23 20.5 -38.5 q20.5 -15.5 53.5 -25.5 q33 -10 71.5 -15 q38.5 -5 77 -7 q38.5 -2 69.5 -2 q30 0 69 2 q39 2 80.5 7 q41.5 5 78 15 q36.5 10 64 25.5 q27.5 15.5 37.5 38.5 l34 0 q-9 -43 -36.5 -72 q-27.5 -29 -67 -46.5 q-39.5 -17.5 -86 -27 q-46.5 -9.5 -94 -12.5 q-47.5 -3 -90.5 -3 Z" /><glyph glyph-name="uni0362" unicode="&#x362;" d="M193 -277 l-20 20 l28 34 q6 8 6 14 q0 9 -12 9 l-655 0 l0 69 l656 0 q3 0 7.5 4 q4.5 4 4.5 8 q0 3 -2 5.5 q-2 2.5 -5 6.5 l-28 34 l21 19 q23 -28 51.5 -55.5 q28.5 -27.5 62.5 -41.5 l0 -28 q-34 -15 -62.5 -42.5 q-28.5 -27.5 -52.5 -55.5 Z" /><glyph glyph-name="uni0334" unicode="&#x334;" d="M-396 198 l-35 0 q16 50 47 81.5 q31 31.5 74 31.5 q28 0 54 -10.5 q26 -10.5 52 -21 q26 -10.5 50 -10.5 q19 0 35 11.5 q16 11.5 28 35.5 l35 0 q-20 -58 -49 -87 q-29 -29 -73 -29 q-28 0 -55.5 10.5 q-27.5 10.5 -53 21 q-25.5 10.5 -49.5 10.5 q-19 0 -34 -10.5 q-15 -10.5 -26 -33.5 Z" /><glyph glyph-name="uni0335" unicode="&#x335;" d="M-93 225 l-313 0 l13 64 l313 0 l-13 -64 Z" /><glyph glyph-name="uni0336" unicode="&#x336;" d="M6 225 l-512 0 l13 64 l512 0 l-13 -64 Z" /><glyph glyph-name="uni0337" unicode="&#x337;" d="M-375 239 l-23 41 l326 200 l24 -41 l-327 -200 Z" /><glyph glyph-name="uni0338" unicode="&#x338;" d="M-473 -160 l-68 0 l543 838 l68 0 l-543 -838 Z" /><glyph glyph-name="Gamma" unicode="&#x393;" d="M305 0 l-325 0 l9 38 q38 0 59.5 7.5 q21.5 7.5 32.5 27.5 q11 20 19 57 l85 396 q8 38 6 58 q-2 20 -20.5 27 q-18.5 7 -59.5 7 l9 39 l546 0 l-34 -190 l-43 0 q3 52 -4.5 81.5 q-7.5 29.5 -36.5 42 q-29 12.5 -90 12.5 l-133 0 l-101 -474 q-8 -36 -4 -55.5 q4 -19.5 25.5 -27.5 q21.5 -8 66.5 -8 l-7 -38 Z" /><glyph glyph-name="Delta" unicode="&#x394;" d="M575 0 l-607 0 l11 50 l441 612 l77 0 l90 -612 l-12 -50 ZM386 532 l-301 -439 l362 0 l-57 439 l-4 0 Z" /><glyph glyph-name="Theta" unicode="&#x398;" d="M326 -13 q-90 0 -149 32 q-59 32 -87.5 90.5 q-28.5 58.5 -28.5 136.5 q0 92 29 169 q29 77 82 134 q53 57 127 88.5 q74 31.5 163 31.5 q89 0 148.5 -32.5 q59.5 -32.5 89.5 -90 q30 -57.5 30 -133.5 q0 -93 -29 -171.5 q-29 -78.5 -82.5 -135.5 q-53.5 -57 -127.5 -88 q-74 -31 -165 -31 ZM283 225 l-34 0 l43 201 l32 0 q-6 -31 3 -43.5 q9 -12.5 33 -12.5 l93 0 q45 0 56 56 l32 0 l-42 -201 l-33 0 q7 33 -1 47 q-8 14 -30 14 l-94 0 q-24 0 -37.5 -13 q-13.5 -13 -20.5 -48 ZM337 35 q58 0 101.5 23 q43.5 23 74 62.5 q30.5 39.5 49 89.5 q18.5 50 27 105 q8.5 55 8.5 109 q0 97 -38 147.5 q-38 50.5 -108 50.5 q-59 0 -106 -29.5 q-47 -29.5 -81.5 -82.5 q-34.5 -53 -53 -124 q-18.5 -71 -18.5 -154 q0 -59 15 -103.5 q15 -44.5 46.5 -69 q31.5 -24.5 83.5 -24.5 Z" /><glyph glyph-name="Lambda" unicode="&#x39b;" d="M162 0 l-218 0 l9 38 q26 0 44.5 8.5 q18.5 8.5 38.5 32 q20 23.5 49 68.5 l337 515 l74 0 l87 -531 q9 -48 26 -70.5 q17 -22.5 55 -22.5 l-9 -38 l-291 0 l10 38 q18 0 34 3.5 q16 3.5 26.5 16 q10.5 12.5 10.5 40.5 q0 11 -0.5 24 q-0.5 13 -1.5 21 l-49 379 l-4 0 l-250 -393 q-9 -15 -18 -32 q-9 -17 -9 -32 q0 -16 13 -21.5 q13 -5.5 45 -5.5 l-9 -38 Z" /><glyph glyph-name="Xi" unicode="&#x39e;" d="M537 0 l-529 0 l33 204 l39 0 q-1 -60 14 -82.5 q15 -22.5 50 -22.5 l295 0 q40 0 63.5 22 q23.5 22 48.5 83 l39 0 l-53 -204 ZM195 218 l-38 0 l50 238 l38 0 q-2 -10 -3.5 -19 q-1.5 -9 -1.5 -17 q0 -22 12.5 -31 q12.5 -9 41.5 -9 l115 0 q35 0 53 16.5 q18 16.5 28 59.5 l37 0 l-50 -238 l-38 0 q2 9 3 16.5 q1 7.5 1 14.5 q0 27 -14.5 37.5 q-14.5 10.5 -40.5 10.5 l-113 0 q-34 0 -52.5 -17.5 q-18.5 -17.5 -27.5 -61.5 ZM150 469 l-40 0 l44 188 l509 0 l-34 -186 l-41 0 q4 53 -8.5 74.5 q-12.5 21.5 -55.5 21.5 l-269 0 q-43 0 -64 -21.5 q-21 -21.5 -41 -76.5 Z" /><glyph glyph-name="Pi" unicode="&#x3a0;" d="M292 0 l-310 0 l8 38 q43 0 63.5 6 q20.5 6 30 26 q9.5 20 18.5 62 l81 391 q9 40 7 60 q-2 20 -20.5 27.5 q-18.5 7.5 -61.5 7.5 l9 39 l724 0 l-8 -39 q-46 0 -67.5 -7.5 q-21.5 -7.5 -30.5 -28 q-9 -20.5 -17 -59.5 l-79 -386 q-9 -45 -8 -65.5 q1 -20.5 20.5 -27 q19.5 -6.5 61.5 -6.5 l-8 -38 l-311 0 l8 38 q40 0 60.5 5.5 q20.5 5.5 31.5 26.5 q11 21 21 66 l97 468 l-288 0 l-98 -469 q-9 -42 -7.5 -63 q1.5 -21 20 -27.5 q18.5 -6.5 60.5 -6.5 l-7 -38 Z" /><glyph glyph-name="Sigma" unicode="&#x3a3;" d="M515 0 l-531 0 l9 41 l317 282 l-193 294 l8 40 l525 0 l-33 -185 l-42 0 q4 55 -4 82.5 q-8 27.5 -33 37 q-25 9.5 -74 9.5 l-181 0 l0 -7 l133 -219 l-4 -27 l-276 -248 l-1 -5 l259 0 q42 0 70 14 q28 14 48 40 q20 26 38 65 l45 0 l-80 -214 Z" /><glyph glyph-name="Phi" unicode="&#x3a6;" d="M480 0 l-310 0 l8 38 q43 0 64.5 7.5 q21.5 7.5 31.5 29.5 q10 22 19 64 l78 384 q8 38 6.5 58.5 q-1.5 20.5 -19.5 29 q-18 8.5 -60 8.5 l8 38 l313 0 l-7 -38 q-43 0 -64.5 -8.5 q-21.5 -8.5 -31 -28.5 q-9.5 -20 -17.5 -55 l-80 -387 q-9 -42 -8.5 -63.5 q0.5 -21.5 18 -30 q17.5 -8.5 59.5 -8.5 l-8 -38 ZM315 168 l-9 -47 q-84 4 -142 22.5 q-58 18.5 -88.5 55.5 q-30.5 37 -30.5 94 q0 80 43.5 133.5 q43.5 53.5 121 83 q77.5 29.5 180.5 33.5 l-9 -43 q-69 -6 -114 -27 q-45 -21 -67 -65 q-22 -44 -22 -118 q0 -37 14 -63 q14 -26 44.5 -40.5 q30.5 -14.5 78.5 -18.5 ZM400 122 l12 46 q61 3 105.5 27.5 q44.5 24.5 69.5 71 q25 46.5 25 113.5 q0 58 -34 85 q-34 27 -101 33 l9 44 q121 -4 189.5 -43.5 q68.5 -39.5 68.5 -120.5 q0 -86 -42.5 -140.5 q-42.5 -54.5 -119.5 -82.5 q-77 -28 -182 -33 Z" /><glyph glyph-name="Psi" unicode="&#x3a8;" d="M504 0 l-311 0 l9 38 q43 0 64.5 7.5 q21.5 7.5 31.5 29 q10 21.5 19 64.5 l78 377 q8 40 7.5 62 q-0.5 22 -16.5 31.5 q-16 9.5 -57 9.5 l7 38 l299 0 l-7 -38 q-42 0 -62.5 -9.5 q-20.5 -9.5 -29 -32 q-8.5 -22.5 -17.5 -61.5 l-77 -377 q-9 -42 -8.5 -63.5 q0.5 -21.5 18 -29.5 q17.5 -8 60.5 -8 l-8 -38 ZM357 251 l-14 -48 q-42 2 -86 11 q-44 9 -80.5 28 q-36.5 19 -59 50.5 q-22.5 31.5 -22.5 77.5 q0 30 10.5 68 q10.5 38 21.5 75 q11 37 11 61 q0 19 -9.5 32 q-9.5 13 -35.5 13 l-10 0 l8 38 l27 0 q50 0 81 -14 q31 -14 46 -37.5 q15 -23.5 15 -52.5 q0 -18 -9 -51 q-9 -33 -17 -68 q-8 -35 -8 -61 q0 -23 6.5 -45 q6.5 -22 21 -39.5 q14.5 -17.5 40 -27 q25.5 -9.5 63.5 -10.5 ZM443 203 l7 48 q59 3 98.5 25.5 q39.5 22.5 63 60 q23.5 37.5 33.5 83.5 q5 26 11 58.5 q6 32.5 9 48.5 q12 56 61.5 93 q49.5 37 132.5 37 l27 0 l-8 -38 l-9 0 q-38 0 -52.5 -26 q-14.5 -26 -21.5 -58 q-6 -26 -12 -57 q-6 -31 -14 -73 q-11 -56 -44.5 -94 q-33.5 -38 -81 -60.5 q-47.5 -22.5 -100 -33.5 q-52.5 -11 -100.5 -14 Z" /><glyph glyph-name="Omega" unicode="&#x3a9;" d="M313 0 l-304 0 l21 186 l38 0 q2 -34 6 -55 q4 -21 17 -31.5 q13 -10.5 42 -10.5 l93 0 l2 6 q-29 26 -57 58 q-28 32 -46 75.5 q-18 43.5 -18 103.5 q0 76 31 138 q31 62 85.5 106.5 q54.5 44.5 126 68 q71.5 23.5 151.5 23.5 q87 0 148.5 -30 q61.5 -30 94.5 -81.5 q33 -51.5 33 -116.5 q0 -70 -23 -123.5 q-23 -53.5 -59.5 -94.5 q-36.5 -41 -78 -71.5 q-41.5 -30.5 -79.5 -55.5 l-2 -6 l92 0 q28 0 46 10.5 q18 10.5 32 32 q14 21.5 32 54.5 l38 0 l-63 -186 l-307 0 l16 74 q67 44 117 100 q50 56 78.5 126 q28.5 70 28.5 157 q0 49 -15.5 86.5 q-15.5 37.5 -49 58.5 q-33.5 21 -86.5 21 q-59 0 -102 -17.5 q-43 -17.5 -72 -47 q-29 -29.5 -46.5 -68 q-17.5 -38.5 -25 -82 q-7.5 -43.5 -7.5 -87.5 q0 -79 20 -140 q20 -61 69 -106 l-17 -75 Z" /><glyph glyph-name="uni03F4" unicode="&#x3f4;" d="M319 -13 q-88 0 -145.5 32 q-57.5 32 -85 90.5 q-27.5 58.5 -27.5 136.5 q0 92 28 169 q28 77 80 134 q52 57 124 88.5 q72 31.5 159 31.5 q88 0 145.5 -32.5 q57.5 -32.5 86.5 -90 q29 -57.5 29 -133.5 q0 -93 -28 -171.5 q-28 -78.5 -80 -135.5 q-52 -57 -124.5 -88 q-72.5 -31 -161.5 -31 ZM331 35 q66 0 113 31.5 q47 31.5 77.5 86 q30.5 54.5 45 124.5 q14.5 70 14.5 147 q0 97 -37 147.5 q-37 50.5 -104 50.5 q-62 0 -109 -33.5 q-47 -33.5 -78 -90 q-31 -56.5 -46.5 -125.5 q-15.5 -69 -15.5 -141 q0 -59 14.5 -103.5 q14.5 -44.5 45.5 -69 q31 -24.5 80 -24.5 ZM586 310 l-403 0 l7 50 l401 0 l-5 -50 Z" /></font>
</defs>
</svg>
