<?xml version="1.0" standalone="no"?><!DOCTYPE svg PUBLIC "-//W3C//DTD SVG 1.1//EN" "http://www.w3.org/Graphics/SVG/1.1/DTD/svg11.dtd" ><svg xmlns="http://www.w3.org/2000/svg"><metadata></metadata><defs><font id="2.13 b171;STIX;STIXTwoText-MediumItalic" horiz-adv-x="1392"><font-face font-family="STIX Two Text Medium" font-weight="500" font-stretch="normal" units-per-em="1000" panose-1="0 0 0 0 0 0 0 0 0 0" ascent="762" descent="-238" x-height="0" bbox="-893 -383 1346 1047" underline-thickness="51" underline-position="-78" unicode-range="U+0020-fb04" /><missing-glyph horiz-adv-x="605" d="M595 -169 l-585 0 l0 954 l585 0 l0 -954 ZM301 -8 q-29 0 -43.5 15.5 q-14.5 15.5 -14.5 40.5 q0 24 15.5 41.5 q15.5 17.5 43.5 17.5 q26 0 41 -18 q15 -18 15 -41 q0 -24 -15 -40 q-15 -16 -42 -16 ZM61 734 l0 -850 l482 0 l0 850 l-482 0 ZM320 170 l-40 0 l0 26 q0 39 11 69 q11 30 28 56 q17 26 33.5 53.5 q16.5 27.5 27.5 62 q11 34.5 11 80.5 q0 59 -28 86.5 q-28 27.5 -76 27.5 q-44 0 -65 -15.5 q-21 -15.5 -21 -38.5 q0 -16 5 -25 q5 -9 10.5 -18.5 q5.5 -9.5 5.5 -28.5 q0 -23 -13.5 -33.5 q-13.5 -10.5 -31.5 -10.5 q-51 0 -51 70 q0 61 47 99.5 q47 38.5 123 38.5 q49 0 91 -15.5 q42 -15.5 68 -48.5 q26 -33 26 -85 q0 -44 -16.5 -81 q-16.5 -37 -40 -69 q-23.5 -32 -47.5 -61.5 q-24 -29.5 -40.5 -59.5 q-16.5 -30 -16.5 -63 l0 -16 Z" /><glyph glyph-name="space" unicode=" " d="" /><glyph glyph-name="uni00A0" unicode=" " d="" /><glyph glyph-name="A" unicode="A" d="M154 0 l-213 0 l7 34 q27 0 46 8.5 q19 8.5 40.5 34 q21.5 25.5 54.5 77.5 l344 507 l58 0 l80 -536 q9 -49 26.5 -70 q17.5 -21 58.5 -21 l-6 -34 l-282 0 l8 34 q21 0 38 3.5 q17 3.5 27.5 16 q10.5 12.5 10.5 38.5 q0 12 -0.5 23.5 q-0.5 11.5 -1.5 20.5 l-11 91 l-2 22 l-32 288 l-3 0 l-190 -288 l-12 -22 l-70 -106 q-10 -14 -18 -30 q-8 -16 -8 -30 q0 -16 12.5 -21.5 q12.5 -5.5 45.5 -5.5 l-8 -34 ZM451 216 l-271 0 l26 44 l241 0 l4 -44 Z" /><glyph glyph-name="B" unicode="B" d="M292 0 l-307 0 l7 34 q39 0 59.5 6.5 q20.5 6.5 31.5 26.5 q11 20 19 61 l84 405 q9 40 4.5 59 q-4.5 19 -23.5 25 q-19 6 -56 6 l7 34 l277 0 q82 0 129 -16.5 q47 -16.5 66 -45 q19 -28.5 19 -64.5 q0 -54 -23.5 -89.5 q-23.5 -35.5 -63.5 -57 q-40 -21.5 -89 -33.5 l0 -6 q38 -5 70.5 -20.5 q32.5 -15.5 52 -44 q19.5 -28.5 19.5 -71.5 q0 -68 -36 -114.5 q-36 -46.5 -100 -70.5 q-64 -24 -147 -24 ZM252 40 q36 0 71.5 5.5 q35.5 5.5 65 22.5 q29.5 17 47.5 49.5 q18 32.5 18 86.5 q0 47 -20.5 72 q-20.5 25 -54 34.5 q-33.5 9.5 -72.5 9.5 l-69 0 l9 45 l66 0 q94 0 136 42.5 q42 42.5 42 114.5 q0 27 -12 47.5 q-12 20.5 -41.5 32.5 q-29.5 12 -79.5 12 q-14 0 -24 -0.5 q-10 -0.5 -25 -2.5 l-116 -568 q16 -1 28.5 -2 q12.5 -1 30.5 -1 Z" /><glyph glyph-name="C" unicode="C" d="M309 -11 q-90 0 -145 33 q-55 33 -79.5 89 q-24.5 56 -24.5 124 q0 104 31.5 185 q31.5 81 87.5 136.5 q56 55.5 128 84.5 q72 29 153 29 q51 0 79 -9 q28 -9 44 -18 q16 -9 29 -9 q13 0 21.5 10.5 q8.5 10.5 18.5 24.5 l34 0 l-49 -234 l-37 0 q2 98 -37.5 143 q-39.5 45 -113.5 45 q-60 0 -110 -27 q-50 -27 -87 -76 q-37 -49 -57 -115 q-20 -66 -20 -145 q0 -100 46.5 -148 q46.5 -48 140.5 -48 q42 0 79 10.5 q37 10.5 71 31.5 q34 21 68 52 l20 -22 q-35 -41 -76.5 -74.5 q-41.5 -33.5 -94 -53 q-52.5 -19.5 -120.5 -19.5 Z" /><glyph glyph-name="D" unicode="D" d="M249 0 l-264 0 l7 34 q39 0 60 6.5 q21 6.5 31.5 27 q10.5 20.5 18.5 60.5 l85 411 q8 37 3 54.5 q-5 17.5 -24 23 q-19 5.5 -55 5.5 l8 35 l266 0 q74 0 131.5 -16 q57.5 -16 97.5 -48 q40 -32 61 -80 q21 -48 21 -113 q0 -108 -33.5 -184.5 q-33.5 -76.5 -94.5 -124 q-61 -47.5 -142 -69.5 q-81 -22 -177 -22 ZM251 45 q107 0 180 34.5 q73 34.5 110.5 110.5 q37.5 76 37.5 198 q0 49 -11 89.5 q-11 40.5 -36.5 70.5 q-25.5 30 -69.5 47 q-44 17 -111 17 q-11 0 -19.5 -0.5 q-8.5 -0.5 -22.5 -2.5 l-116 -562 q13 -2 27.5 -2 q14.5 0 30.5 0 Z" /><glyph glyph-name="E" unicode="E" d="M517 0 l-532 0 l7 34 q34 0 55 6 q21 6 33 23.5 q12 17.5 19 52.5 l86 415 q8 38 6 58 q-2 20 -21 27 q-19 7 -59 7 l7 34 l524 0 l-29 -169 l-37 0 q3 48 -6 74.5 q-9 26.5 -38 37 q-29 10.5 -88 10.5 l-136 0 l-116 -564 l119 0 q55 0 89 6 q34 6 56.5 21.5 q22.5 15.5 40.5 44 q18 28.5 40 71.5 l38 0 l-58 -189 ZM478 223 l-36 0 q8 42 4 62 q-4 20 -26.5 26 q-22.5 6 -69.5 6 l-114 0 l8 43 l115 0 q47 0 72.5 7 q25.5 7 37.5 27.5 q12 20.5 20 60.5 l36 0 l-47 -232 Z" /><glyph glyph-name="F" unicode="F" d="M289 0 l-304 0 l7 34 q36 0 56.5 6 q20.5 6 32.5 24.5 q12 18.5 19 55.5 l87 420 q7 35 4 52.5 q-3 17.5 -21.5 24 q-18.5 6.5 -58.5 6.5 l7 34 l526 0 l-28 -170 l-36 0 q1 48 -5.5 75 q-6.5 27 -34.5 37.5 q-28 10.5 -92 10.5 l-139 0 l-103 -499 q-2 -10 -3 -18 q-1 -8 -1 -15 q0 -27 23 -35.5 q23 -8.5 70 -8.5 l-6 -34 ZM471 222 l-37 0 q8 42 3.5 61.5 q-4.5 19.5 -26.5 25.5 q-22 6 -66 6 l-108 0 l8 43 l111 0 q42 0 66.5 7.5 q24.5 7.5 38 28.5 q13.5 21 21.5 61 l36 0 l-47 -233 Z" /><glyph glyph-name="G" unicode="G" d="M318 -11 q-71 0 -120 19 q-49 19 -79 53 q-30 34 -43.5 78.5 q-13.5 44.5 -13.5 96.5 q0 108 33 189.5 q33 81.5 89.5 135.5 q56.5 54 128.5 81.5 q72 27.5 150 27.5 q53 0 82.5 -9 q29.5 -9 45.5 -18.5 q16 -9.5 29 -9.5 q12 0 21 10.5 q9 10.5 19 25.5 l34 0 l-48 -233 l-37 0 q2 100 -38.5 143.5 q-40.5 43.5 -117.5 43.5 q-61 0 -112 -27.5 q-51 -27.5 -87 -78.5 q-36 -51 -56 -119.5 q-20 -68.5 -20 -148.5 q0 -104 38.5 -157.5 q38.5 -53.5 122.5 -53.5 q45 0 78.5 13 q33.5 13 66.5 35 l20 102 q8 36 5.5 54.5 q-2.5 18.5 -19.5 25 q-17 6.5 -55 6.5 l7 35 l252 0 l-6 -35 q-28 0 -44 -6 q-16 -6 -24 -22.5 q-8 -16.5 -14 -47.5 l-29 -141 q-61 -31 -119.5 -49.5 q-58.5 -18.5 -139.5 -18.5 Z" /><glyph glyph-name="H" unicode="H" d="M275 0 l-290 0 l7 34 q40 0 60.5 6.5 q20.5 6.5 31 28.5 q10.5 22 19.5 66 l80 386 q9 39 8 61.5 q-1 22.5 -18.5 31.5 q-17.5 9 -61.5 9 l7 34 l292 0 l-6 -34 q-46 0 -66.5 -9 q-20.5 -9 -29.5 -31.5 q-9 -22.5 -18 -61.5 l-79 -386 q-9 -44 -7.5 -65.5 q1.5 -21.5 19.5 -28.5 q18 -7 59 -7 l-7 -34 ZM570 314 l-333 0 l8 44 l334 0 l-9 -44 ZM695 0 l-285 0 l6 34 q40 0 59.5 7 q19.5 7 28 29 q8.5 22 17.5 65 l81 386 q9 39 9 61.5 q0 22.5 -17 31.5 q-17 9 -61 9 l7 34 l287 0 l-7 -34 q-44 0 -64.5 -9 q-20.5 -9 -29 -31 q-8.5 -22 -17.5 -62 l-80 -386 q-9 -43 -8 -64.5 q1 -21.5 19.5 -29 q18.5 -7.5 60.5 -7.5 l-6 -34 Z" /><glyph glyph-name="I" unicode="I" d="M274 0 l-289 0 l7 34 q42 0 62.5 7 q20.5 7 30 28.5 q9.5 21.5 18.5 65.5 l80 386 q9 39 8.5 61.5 q-0.5 22.5 -18 31.5 q-17.5 9 -62.5 9 l7 34 l293 0 l-7 -34 q-44 0 -66 -9 q-22 -9 -31 -31.5 q-9 -22.5 -17 -61.5 l-80 -389 q-8 -42 -7 -63.5 q1 -21.5 19.5 -28 q18.5 -6.5 58.5 -6.5 l-7 -34 Z" /><glyph glyph-name="J" unicode="J" d="M84 -12 q-31 0 -57.5 8 q-26.5 8 -42 26 q-15.5 18 -15.5 45 q0 26 13.5 41.5 q13.5 15.5 37.5 15.5 q20 0 31.5 -10 q11.5 -10 17 -24.5 q5.5 -14.5 10 -29 q4.5 -14.5 11.5 -24.5 q7 -10 21 -10 q30 0 43 23 q13 23 24 77 l81 395 q8 39 7.5 61 q-0.5 22 -19.5 31.5 q-19 9.5 -67 9.5 l7 34 l299 0 l-7 -34 q-42 0 -63.5 -9 q-21.5 -9 -32 -31.5 q-10.5 -22.5 -18.5 -61.5 l-75 -364 q-10 -53 -30 -86 q-20 -33 -47.5 -51 q-27.5 -18 -60 -25 q-32.5 -7 -68.5 -7 Z" /><glyph glyph-name="K" unicode="K" d="M278 0 l-293 0 l7 34 q42 0 62.5 7.5 q20.5 7.5 30 29 q9.5 21.5 18.5 64.5 l80 386 q8 39 7.5 61.5 q-0.5 22.5 -18 31.5 q-17.5 9 -61.5 9 l7 34 l297 0 l-6 -34 q-47 0 -69.5 -9 q-22.5 -9 -32 -31.5 q-9.5 -22.5 -17.5 -62.5 l-79 -385 q-8 -43 -7 -64.5 q1 -21.5 19.5 -29 q18.5 -7.5 61.5 -7.5 l-7 -34 ZM658 0 l-302 0 l6 34 l14 0 q21 0 33.5 6.5 q12.5 6.5 12.5 22.5 q0 15 -9 34 q-9 19 -31.5 50.5 q-22.5 31.5 -61.5 80.5 l-73 91 l88 53 l229 -295 q19 -24 41.5 -33.5 q22.5 -9.5 58.5 -9.5 l-6 -34 ZM279 307 l-40 0 l6 31 l12 0 l194 157 q30 25 50 42.5 q20 17.5 30 32 q10 14.5 10 29.5 q0 24 -35 24 l-17 0 l8 34 l244 0 l-6 -34 q-28 -2 -48 -8.5 q-20 -6.5 -40.5 -19.5 q-20.5 -13 -51.5 -38 l-316 -250 Z" /><glyph glyph-name="L" unicode="L" d="M499 0 l-515 0 l8 34 q39 0 60 7 q21 7 31.5 27 q10.5 20 18.5 60 l84 405 q7 35 5.5 54.5 q-1.5 19.5 -19.5 27.5 q-18 8 -61 8 l7 34 l299 0 l-6 -34 q-38 0 -61 -7 q-23 -7 -36 -27 q-13 -20 -21 -57 l-88 -431 q-7 -34 6.5 -45 q13.5 -11 56.5 -11 l52 0 q45 0 74.5 8 q29.5 8 50.5 26 q21 18 39 48 q18 30 40 73 l38 0 l-63 -200 Z" /><glyph glyph-name="M" unicode="M" d="M212 0 l-237 0 l7 34 q40 0 60.5 7 q20.5 7 32.5 31.5 q12 24.5 22 75.5 l78 383 q8 38 5 57.5 q-3 19.5 -21 27 q-18 7.5 -57 7.5 l7 34 l224 0 l101 -492 l5 0 l297 492 l211 0 l-7 -34 q-35 0 -55 -7.5 q-20 -7.5 -31 -27 q-11 -19.5 -20 -56.5 l-84 -411 q-11 -54 5 -70.5 q16 -16.5 68 -16.5 l-7 -34 l-282 0 l6 34 q37 0 56.5 7 q19.5 7 29.5 26 q10 19 17 54 l88 421 l-5 0 l-332 -542 l-39 0 l-116 541 l-5 0 l-81 -393 q-10 -51 -8.5 -75.5 q1.5 -24.5 19 -31.5 q17.5 -7 55.5 -7 l-7 -34 Z" /><glyph glyph-name="N" unicode="N" d="M573 -8 l-55 0 l-293 545 l-29 18 q-14 28 -26 43 q-12 15 -27 20 q-15 5 -41 5 l7 34 l179 0 l262 -485 l5 0 l67 322 q9 46 8.5 74 q-0.5 28 -17.5 41.5 q-17 13.5 -60 13.5 l7 34 l239 0 l-7 -34 q-37 0 -59.5 -14.5 q-22.5 -14.5 -35.5 -43.5 q-13 -29 -22 -75 l-102 -498 ZM211 0 l-235 0 l7 34 q39 0 60.5 8.5 q21.5 8.5 32.5 34.5 q11 26 21 76 l92 444 l93 -74 l-54 0 l-77 -370 q-10 -50 -8 -75.5 q2 -25.5 20 -34.5 q18 -9 55 -9 l-7 -34 Z" /><glyph glyph-name="O" unicode="O" d="M316 -13 q-90 0 -146.5 33.5 q-56.5 33.5 -83 92.5 q-26.5 59 -26.5 134 q0 91 28 168 q28 77 78.5 134 q50.5 57 120.5 88.5 q70 31.5 154 31.5 q89 0 146 -34.5 q57 -34.5 84.5 -93 q27.5 -58.5 27.5 -129.5 q0 -95 -28 -173 q-28 -78 -79.5 -134 q-51.5 -56 -121.5 -87 q-70 -31 -154 -31 ZM328 33 q53 0 93.5 21 q40.5 21 71 57.5 q30.5 36.5 50.5 85.5 q20 49 29 105.5 q9 56.5 9 116.5 q0 101 -40 153 q-40 52 -112 52 q-57 0 -103.5 -29.5 q-46.5 -29.5 -79.5 -82.5 q-33 -53 -50.5 -123 q-17.5 -70 -17.5 -152 q0 -58 14 -104.5 q14 -46.5 47 -73 q33 -26.5 89 -26.5 Z" /><glyph glyph-name="P" unicode="P" d="M288 0 l-300 0 l7 34 q39 0 59.5 7 q20.5 7 30.5 27.5 q10 20.5 18 62.5 l87 419 q9 46 -8.5 59.5 q-17.5 13.5 -67.5 13.5 l7 34 l266 0 q61 0 110.5 -12 q49.5 -12 79 -42 q29.5 -30 29.5 -85 q0 -66 -26.5 -111.5 q-26.5 -45.5 -70.5 -73 q-44 -27.5 -97.5 -39.5 q-53.5 -12 -108.5 -12 q-22 0 -39 3.5 q-17 3.5 -27 8.5 l8 39 q9 -1 22.5 -3 q13.5 -2 32.5 -2 q60 0 102.5 19.5 q42.5 19.5 66 59 q23.5 39.5 23.5 98.5 q0 52 -30 81 q-30 29 -101 29 q-15 0 -25.5 -1 q-10.5 -1 -26.5 -3 l-99 -484 q-8 -41 -4.5 -61 q3.5 -20 24.5 -26 q21 -6 64 -6 l-6 -34 Z" /><glyph glyph-name="Q" unicode="Q" d="M401 -10 l-84 0 q-125 3 -190.5 66.5 q-65.5 63.5 -66.5 192.5 q0 91 28.5 168 q28.5 77 79.5 133.5 q51 56.5 121 87.5 q70 31 153 31 q88 0 145 -34.5 q57 -34.5 84.5 -93 q27.5 -58.5 27.5 -130.5 q0 -112 -38.5 -197 q-38.5 -85 -105 -139 q-66.5 -54 -152.5 -74 l-2 -11 ZM615 -174 l-50 0 q-80 0 -132 12.5 q-52 12.5 -83 39.5 q-31 27 -46 70 l-18 59 l110 4 q16 -29 33.5 -56.5 q17.5 -27.5 42 -49 q24.5 -21.5 60 -34 q35.5 -12.5 89.5 -12.5 l-6 -33 ZM327 33 q52 0 93 20.5 q41 20.5 71.5 57 q30.5 36.5 50.5 85 q20 48.5 29.5 106 q9.5 57.5 9.5 118.5 q0 92 -37 148 q-37 56 -116 56 q-68 0 -125 -47.5 q-57 -47.5 -91 -134 q-34 -86.5 -34 -205.5 q0 -93 34.5 -148.5 q34.5 -55.5 114.5 -55.5 Z" /><glyph glyph-name="R" unicode="R" d="M282 0 l-294 0 l7 34 q37 0 57 6 q20 6 31 26 q11 20 19 62 l86 420 q6 28 3 44.5 q-3 16.5 -20.5 23.5 q-17.5 7 -57.5 7 l7 34 l262 0 q67 0 117 -14 q50 -14 78 -44 q28 -30 28 -80 q0 -52 -19 -87 q-19 -35 -49 -58.5 q-30 -23.5 -66 -36.5 q-36 -13 -71 -20 l0 -5 q16 -11 31 -35 q15 -24 38 -69.5 q23 -45.5 63 -122.5 q17 -31 37.5 -41 q20.5 -10 54.5 -10 l-7 -34 l-173 0 q-26 61 -43 101.5 q-17 40.5 -29.5 68 q-12.5 27.5 -22.5 49.5 q-10 22 -21 45 q-10 22 -22.5 28 q-12.5 6 -39.5 6 l-31 0 l7 41 l43 -1 q62 3 108 20.5 q46 17.5 71 54.5 q25 37 25 99 q0 29 -11.5 52 q-11.5 23 -38 37 q-26.5 14 -72.5 14 q-18 0 -30.5 -0.5 q-12.5 -0.5 -28.5 -2.5 l-99 -485 q-8 -40 -5.5 -60.5 q2.5 -20.5 22 -26.5 q19.5 -6 62.5 -6 l-6 -34 Z" /><glyph glyph-name="S" unicode="S" d="M57 -14 l-34 0 l40 216 l35 0 q4 -68 17.5 -104 q13.5 -36 42 -50 q28.5 -14 74.5 -14 q41 0 73.5 12 q32.5 12 52.5 37.5 q20 25.5 20 64.5 q0 40 -18.5 68 q-18.5 28 -48 50 q-29.5 22 -63.5 42 q-34 20 -62.5 42 q-28.5 22 -45.5 52.5 q-17 30.5 -17 76.5 q0 62 31.5 103.5 q31.5 41.5 84 63 q52.5 21.5 114.5 21.5 q41 0 65.5 -6.5 q24.5 -6.5 39 -13.5 q14.5 -7 25.5 -7 q12 0 21.5 6 q9.5 6 16.5 21 l28 0 l-36 -199 l-34 0 q-3 86 -30 123 q-27 37 -97 37 q-62 0 -96 -28 q-34 -28 -34 -80 q0 -30 17 -54 q17 -24 45 -43.5 q28 -19.5 60 -38.5 q37 -23 69.5 -47 q32.5 -24 53.5 -56.5 q21 -32.5 21 -81.5 q0 -67 -33.5 -113.5 q-33.5 -46.5 -90.5 -72 q-57 -25.5 -126 -25.5 q-51 0 -79 7.5 q-28 7.5 -43 15 q-15 7.5 -26 7.5 q-11 0 -20.5 -9 q-9.5 -9 -12.5 -23 Z" /><glyph glyph-name="T" unicode="T" d="M413 0 l-301 0 l7 34 q43 0 65 6.5 q22 6.5 33 28 q11 21.5 20 66.5 l100 494 l108 0 l-101 -494 q-9 -45 -7 -66.5 q2 -21.5 22 -28 q20 -6.5 61 -6.5 l-7 -34 ZM114 476 l-38 0 l45 181 l555 0 l-30 -181 l-37 0 q0 55 -5.5 84 q-5.5 29 -29.5 41 q-24 12 -80 12 l-213 0 q-41 0 -66.5 -6.5 q-25.5 -6.5 -42 -21.5 q-16.5 -15 -29 -41.5 q-12.5 -26.5 -29.5 -67.5 Z" /><glyph glyph-name="U" unicode="U" d="M322 -13 q-114 0 -166.5 41.5 q-52.5 41.5 -52.5 131.5 q0 20 3 42 q3 22 8 47 l59 286 q3 12 4.5 22 q1.5 10 1.5 17 q0 29 -18.5 39 q-18.5 10 -64.5 10 l7 34 l300 0 l-7 -34 q-41 0 -63 -7.5 q-22 -7.5 -32.5 -27.5 q-10.5 -20 -18.5 -58 l-58 -275 q-4 -21 -6.5 -41.5 q-2.5 -20.5 -2.5 -35.5 q0 -62 32.5 -91.5 q32.5 -29.5 113.5 -29.5 q96 0 146 45 q50 45 71 148 l50 245 q5 25 8 44 q3 19 3 32 q0 31 -17 41.5 q-17 10.5 -60 10.5 l6 34 l248 0 l-6 -34 q-43 0 -65.5 -10 q-22.5 -10 -33.5 -36.5 q-11 -26.5 -22 -78.5 l-48 -236 q-28 -137 -102 -206 q-74 -69 -217 -69 Z" /><glyph glyph-name="V" unicode="V" d="M250 -5 l-44 0 l-62 538 q-5 33 -12 52.5 q-7 19.5 -22.5 28.5 q-15.5 9 -43.5 9 l5 34 l268 0 l-5 -34 q-37 0 -60 -14.5 q-23 -14.5 -21 -54.5 q0 -5 1 -16.5 q1 -11.5 2 -17.5 l30 -270 l7 -111 l6 0 l61 91 l205 306 q12 16 20.5 32.5 q8.5 16.5 8.5 28.5 q0 15 -13 20.5 q-13 5.5 -45 5.5 l5 34 l218 0 l-5 -34 q-20 0 -36 -4.5 q-16 -4.5 -31 -17 q-15 -12.5 -34 -36.5 q-19 -24 -47 -64 l-356 -506 Z" /><glyph glyph-name="W" unicode="W" d="M576 -7 l-47 0 l-30 397 l-4 47 l-7 91 q-4 43 -10 63.5 q-6 20.5 -20 26 q-14 5.5 -42 5.5 l6 34 l269 0 l-7 -34 q-47 0 -67.5 -14.5 q-20.5 -14.5 -20.5 -56.5 q0 -5 0 -11 q0 -6 0 -11 l22 -266 l3 -95 l6 0 l207 328 q7 12 17 28.5 q10 16.5 17.5 35 q7.5 18.5 7.5 32.5 q0 17 -13 23.5 q-13 6.5 -42 6.5 l7 34 l209 0 l-5 -34 q-35 -1 -57 -16 q-22 -15 -47 -53 l-352 -561 ZM241 -7 l-44 0 l-50 537 q-4 51 -20 72 q-16 21 -59 21 l6 34 l269 0 l-6 -34 q-30 0 -47 -6 q-17 -6 -24 -16 q-7 -10 -8 -24 q0 -6 0 -16.5 q0 -10.5 2 -22.5 l26 -280 l4 -90 l7 0 l206 298 l13 -92 l-21 0 l-254 -381 Z" /><glyph glyph-name="X" unicode="X" d="M601 0 l-289 0 l7 33 l9 0 q32 0 48.5 9.5 q16.5 9.5 16.5 29.5 q0 12 -5 28.5 q-5 16.5 -15 42.5 l-40 92 l-23 63 l-14 19 l-106 226 q-15 31 -26.5 48.5 q-11.5 17.5 -29 24.5 q-17.5 7 -51.5 7 l7 34 l284 0 l-7 -34 l-11 0 q-30 0 -44.5 -7.5 q-14.5 -7.5 -14.5 -27.5 q0 -17 12 -44 q12 -27 24 -57 l39 -102 l13 -18 l133 -273 q17 -35 35.5 -47 q18.5 -12 54.5 -14 l-7 -33 ZM172 0 l-228 0 l6 33 q25 1 42.5 7.5 q17.5 6.5 36.5 22.5 q19 16 47 44 l224 229 l26 -50 l-15 0 l-150 -161 q-8 -8 -18.5 -20 q-10.5 -12 -18 -24 q-7.5 -12 -7.5 -22 q0 -13 12.5 -19.5 q12.5 -6.5 49.5 -6.5 l-7 -33 ZM560 532 l-178 -182 l-25 46 l14 0 l128 141 q18 21 29.5 36 q11.5 15 11.5 28 q0 11 -11 16.5 q-11 5.5 -45 5.5 l7 34 l232 0 l-6 -34 q-32 -2 -53.5 -9.5 q-21.5 -7.5 -44 -26 q-22.5 -18.5 -59.5 -55.5 Z" /><glyph glyph-name="Y" unicode="Y" d="M573 528 l-208 -268 l-18 54 l190 246 q7 9 13.5 20 q6.5 11 6.5 21 q0 10 -11 16 q-11 6 -46 6 l7 34 l220 0 l-7 -34 q-29 -2 -50 -9.5 q-21 -7.5 -43 -26.5 q-22 -19 -54 -59 ZM419 0 l-309 0 l7 34 q44 0 66.5 6 q22.5 6 33.5 27.5 q11 21.5 20 65.5 l40 192 l107 0 l-40 -192 q-3 -16 -5 -27.5 q-2 -11.5 -2 -22.5 q0 -31 21 -40 q21 -9 67 -9 l-6 -34 ZM354 309 l-83 -56 l-92 234 q-24 64 -42 92 q-18 28 -36 36 q-18 8 -42 8 l7 34 l272 0 l-6 -34 q-42 0 -57 -8.5 q-15 -8.5 -15 -19.5 q0 -9 2.5 -19.5 q2.5 -10.5 6.5 -20.5 l55 -148 l30 -98 Z" /><glyph glyph-name="Z" unicode="Z" d="M506 0 l-511 0 l8 37 l497 567 l0 4 l-171 0 q-49 0 -80 -8 q-31 -8 -53 -34.5 q-22 -26.5 -44 -82.5 l-38 0 l42 174 l494 0 l-7 -37 l-495 -567 l-1 -6 l185 0 q59 0 92.5 14 q33.5 14 56.5 46 q23 32 49 86 l37 0 l-61 -193 Z" /><glyph glyph-name="Aogonek" unicode="&#x104;" d="M352 -218 q-45 0 -69 22.5 q-24 22.5 -24 61.5 q0 35 17.5 62.5 q17.5 27.5 47 49.5 q29.5 22 64.5 38 q20 10 34 18.5 q14 8.5 22 21.5 q8 13 8 37 q0 9 -0.5 21.5 q-0.5 12.5 -1.5 21.5 l-11 91 l-2 22 l-32 288 l-3 0 l-190 -288 l-12 -22 l-70 -106 q-10 -15 -17.5 -30.5 q-7.5 -15.5 -7.5 -30.5 q0 -16 12 -21 q12 -5 45 -5 l-8 -34 l-213 0 l7 34 q27 0 45.5 8.5 q18.5 8.5 40 34.5 q21.5 26 55.5 77 l344 507 l58 0 l80 -536 q8 -49 26 -70 q18 -21 59 -21 l-6 -34 l-181 0 q-42 0 -72 -16.5 q-30 -16.5 -46 -42.5 q-16 -26 -16 -54 q0 -24 13 -36.5 q13 -12.5 40 -12.5 q23 0 40 7.5 q17 7.5 40 23.5 l15 -21 q-29 -27 -58 -46.5 q-29 -19.5 -73 -19.5 ZM451 216 l-271 0 l26 44 l241 0 l4 -44 Z" /><glyph glyph-name="AE" unicode="Æ" d="M160 0 l-225 0 l7 34 q29 0 50 10.5 q21 10.5 42 33.5 q21 23 50 60 l322 412 q10 14 16.5 25 q6.5 11 6.5 24 q0 16 -14 20 q-14 4 -41 4 l8 34 l557 0 l-28 -169 l-37 0 q4 50 -6.5 76.5 q-10.5 26.5 -39.5 36 q-29 9.5 -87 9.5 l-125 0 l-118 -564 l109 0 q55 0 89 5.5 q34 5.5 56.5 20 q22.5 14.5 41.5 42 q19 27.5 42 72.5 l37 0 l-64 -186 l-529 0 l7 34 q47 0 69 7.5 q22 7.5 33 32 q11 24.5 22 75.5 l97 457 l-7 0 l-208 -272 l-13 -23 l-146 -188 q-10 -12 -19 -29 q-9 -17 -9 -31 q0 -17 15 -23 q15 -6 46 -6 l-7 -34 ZM770 212 l-38 0 q9 40 4 59 q-5 19 -27.5 24.5 q-22.5 5.5 -69.5 5.5 l-381 0 l29 44 l361 0 q47 0 73 7 q26 7 39 27.5 q13 20.5 21 60.5 l39 0 l-50 -228 Z" /><glyph glyph-name="Eogonek" unicode="&#x118;" d="M517 0 l-532 0 l7 34 q34 0 55 6 q21 6 33 23.5 q12 17.5 19 52.5 l86 415 q8 38 6 58 q-2 20 -21 27 q-19 7 -59 7 l7 34 l524 0 l-29 -169 l-37 0 q3 48 -6 74.5 q-9 26.5 -38 37 q-29 10.5 -88 10.5 l-136 0 l-116 -564 l119 0 q55 0 89 6 q34 6 56.5 21.5 q22.5 15.5 40.5 44 q18 28.5 40 71.5 l38 0 l-58 -189 ZM369 -218 q-43 0 -67 22.5 q-24 22.5 -24 59.5 q0 32 17.5 57 q17.5 25 42.5 44.5 q25 19.5 45 32.5 l0 12 l63 -4 q-18 -13 -40 -28.5 q-22 -15.5 -37 -36.5 q-15 -21 -15 -52 q0 -27 13 -39 q13 -12 36 -12 q27 0 44 7.5 q17 7.5 40 23.5 l15 -21 q-31 -29 -60 -47.5 q-29 -18.5 -73 -18.5 ZM478 223 l-36 0 q8 42 4 62 q-4 20 -26.5 26 q-22.5 6 -69.5 6 l-114 0 l8 43 l115 0 q47 0 72.5 7 q25.5 7 37.5 27.5 q12 20.5 20 60.5 l36 0 l-47 -232 Z" /><glyph glyph-name="Hbar" unicode="&#x126;" d="M277 0 l-287 0 l6 34 q41 0 61.5 6.5 q20.5 6.5 31 28.5 q10.5 22 19.5 66 l80 386 q4 18 6.5 33 q2.5 15 2.5 26 q0 24 -16.5 33.5 q-16.5 9.5 -60.5 9.5 l7 34 l294 0 l-6 -34 q-46 0 -68.5 -9 q-22.5 -9 -32.5 -31.5 q-10 -22.5 -19 -61.5 l-79 -386 q-4 -19 -6.5 -34 q-2.5 -15 -2.5 -26 q0 -26 17 -33.5 q17 -7.5 60 -7.5 l-7 -34 ZM579 313 l-337 0 l8 44 l338 0 l-9 -44 ZM803 459 l-721 0 l10 44 l720 0 l-9 -44 ZM703 0 l-289 0 l6 34 q42 0 62.5 7 q20.5 7 30 29 q9.5 22 18.5 65 l80 386 q4 18 6 32.5 q2 14.5 3 25.5 q0 24 -16.5 34 q-16.5 10 -61.5 10 l7 34 l289 0 l-6 -34 q-44 0 -65.5 -9 q-21.5 -9 -31 -31 q-9.5 -22 -17.5 -62 l-79 -386 q-4 -19 -6.5 -33 q-2.5 -14 -2.5 -25 q0 -27 17.5 -35 q17.5 -8 63.5 -8 l-8 -34 Z" /><glyph glyph-name="Iogonek" unicode="&#x12e;" d="M274 0 l-289 0 l7 34 q42 0 62.5 7 q20.5 7 30 28.5 q9.5 21.5 18.5 65.5 l80 386 q4 17 6.5 31.5 q2.5 14.5 2.5 25.5 q0 25 -17 35 q-17 10 -64 10 l7 34 l293 0 l-7 -34 q-44 0 -66 -9 q-22 -9 -31 -31.5 q-9 -22.5 -17 -61.5 l-80 -389 q-3 -17 -5.5 -30.5 q-2.5 -13.5 -2.5 -24.5 q0 -27 16.5 -35 q16.5 -8 62.5 -8 l-7 -34 ZM105 -218 q-43 0 -67.5 22.5 q-24.5 22.5 -24.5 59.5 q0 32 18 57 q18 25 42.5 44 q24.5 19 44.5 32 l0 13 l64 -4 q-18 -13 -40 -28.5 q-22 -15.5 -37 -36.5 q-15 -21 -15 -52 q0 -27 13 -39 q13 -12 36 -12 q26 0 43 7.5 q17 7.5 40 23.5 l16 -21 q-31 -29 -60 -47.5 q-29 -18.5 -73 -18.5 Z" /><glyph glyph-name="Lslash" unicode="&#x141;" d="M504 0 l-514 0 l7 34 q40 0 60.5 7 q20.5 7 31 27 q10.5 20 18.5 60 l84 405 q7 35 5.5 54.5 q-1.5 19.5 -19.5 27.5 q-18 8 -61 8 l7 34 l299 0 l-5 -34 q-38 0 -61.5 -7 q-23.5 -7 -36.5 -27 q-13 -20 -21 -57 l-88 -431 q-7 -34 6.5 -45 q13.5 -11 57.5 -11 l51 0 q46 0 75.5 8 q29.5 8 50 26 q20.5 18 39 48 q18.5 30 40.5 73 l37 0 l-63 -200 ZM448 438 l-402 -216 l-22 40 l402 215 l22 -39 Z" /><glyph glyph-name="Ohorn" unicode="&#x1a0;" d="M316 -13 q-90 0 -146.5 33.5 q-56.5 33.5 -83 92.5 q-26.5 59 -26.5 134 q0 91 28 168 q28 77 78.5 134 q50.5 57 120.5 88.5 q70 31.5 154 31.5 q30 0 55.5 -4 q25.5 -4 49 -8.5 q23.5 -4.5 46 -8.5 q22.5 -4 43.5 -4 q33 0 53 11.5 q20 11.5 20 31.5 q0 16 -8.5 33 q-8.5 17 -8.5 32 q0 23 16.5 35.5 q16.5 12.5 37.5 12.5 q20 0 35.5 -13.5 q15.5 -13.5 15.5 -45.5 q0 -16 -8 -37.5 q-8 -21.5 -25 -42.5 q-17 -21 -46.5 -34.5 q-29.5 -13.5 -71.5 -13.5 q-6 0 -14 0.5 q-8 0.5 -14 1.5 l-1 -3 q42 -36 62.5 -88 q20.5 -52 20.5 -112 q0 -95 -28 -173 q-28 -78 -79.5 -134 q-51.5 -56 -121.5 -87 q-70 -31 -154 -31 ZM328 33 q53 0 93.5 21 q40.5 21 71 57.5 q30.5 36.5 50.5 85.5 q20 49 29 105.5 q9 56.5 9 116.5 q0 101 -40 153 q-40 52 -112 52 q-57 0 -103.5 -29.5 q-46.5 -29.5 -79.5 -82.5 q-33 -53 -50.5 -123 q-17.5 -70 -17.5 -152 q0 -58 14 -104.5 q14 -46.5 47 -73 q33 -26.5 89 -26.5 Z" /><glyph glyph-name="Oslash" unicode="Ø" d="M182 51 l-68 -83 l-36 26 l75 91 l11 12 l399 506 l9 10 l58 69 l34 -27 l-63 -77 l-10 -11 l-397 -504 l-12 -12 ZM319 -13 q-128 0 -193.5 68 q-65.5 68 -65.5 192 q0 89 27.5 165.5 q27.5 76.5 77.5 134 q50 57.5 119.5 90 q69.5 32.5 154.5 32.5 q82 0 140 -31.5 q58 -31.5 89 -89 q31 -57.5 31 -136.5 q0 -95 -28 -173 q-28 -78 -79 -134 q-51 -56 -120.5 -87 q-69.5 -31 -152.5 -31 ZM331 33 q52 0 92 21 q40 21 70 57.5 q30 36.5 50 85.5 q20 49 29 105.5 q9 56.5 9 116.5 q0 59 -15.5 105 q-15.5 46 -49.5 73 q-34 27 -89 27 q-58 0 -104.5 -31 q-46.5 -31 -79 -85 q-32.5 -54 -49 -123.5 q-16.5 -69.5 -16.5 -147.5 q0 -62 15 -108 q15 -46 48.5 -71 q33.5 -25 89.5 -25 Z" /><glyph glyph-name="OE" unicode="&#x152;" d="M317 -13 q-121 0 -189 68 q-68 68 -68 192 q0 91 30 168 q30 77 84.5 134 q54.5 57 129 88.5 q74.5 31.5 163.5 31.5 q33 0 63.5 -3.5 q30.5 -3.5 52.5 -8.5 l409 0 l-31 -169 l-36 0 q2 50 -7.5 76 q-9.5 26 -42.5 34.5 q-33 8.5 -100 8.5 l-116 0 l-120 -559 l116 0 q55 0 91 6 q36 6 60 21 q24 15 43.5 43 q19.5 28 42.5 71 l36 0 l-68 -189 l-415 0 q-14 -2 -37 -5 q-23 -3 -47 -5.5 q-24 -2.5 -44 -2.5 ZM331 31 q47 0 76 18.5 q29 18.5 39 61.5 l94 437 q7 36 -13 57 q-20 21 -70 21 q-62 0 -112.5 -31.5 q-50.5 -31.5 -87.5 -85.5 q-37 -54 -57 -125.5 q-20 -71.5 -20 -151.5 q0 -53 15 -99 q15 -46 48 -74 q33 -28 88 -28 ZM822 224 l-36 0 q9 41 5 61 q-4 20 -26.5 26 q-22.5 6 -70.5 6 l-108 0 l9 43 l108 0 q49 0 74 7 q25 7 37.5 27.5 q12.5 20.5 20.5 60.5 l37 0 l-50 -231 Z" /><glyph glyph-name="uni1E9E" unicode="&#x1e9e;" d="M380 -12 q-71 0 -109 21 q-38 21 -38 61 q0 19 11 36.5 q11 17.5 40 17.5 q21 0 30.5 -9.5 q9.5 -9.5 14 -24 q4.5 -14.5 10.5 -29.5 q6 -15 19.5 -24.5 q13.5 -9.5 41.5 -9.5 q46 0 76.5 25.5 q30.5 25.5 46 64.5 q15.5 39 15.5 79 q0 34 -13.5 65 q-13.5 31 -48.5 52.5 q-35 21.5 -101 26.5 l7 35 l200 238 q-42 11 -89 11 q-75 0 -122.5 -27.5 q-47.5 -27.5 -74 -75.5 q-26.5 -48 -39.5 -111 l-87 -410 l-205 0 l7 34 q39 0 61 6 q22 6 34 24 q12 18 19 52 l64 301 q20 95 65 150 q45 55 114.5 78.5 q69.5 23.5 161.5 23.5 q62 0 115 -8 q53 -8 102 -22 l-8 -35 l-197 -233 q76 -13 112.5 -54 q36.5 -41 36.5 -110 q0 -72 -36 -121 q-36 -49 -97.5 -73.5 q-61.5 -24.5 -138.5 -24.5 Z" /><glyph glyph-name="Tbar" unicode="&#x166;" d="M413 0 l-301 0 l7 34 q43 0 64.5 6.5 q21.5 6.5 32.5 28 q11 21.5 21 66.5 l100 494 l108 0 l-101 -494 q-4 -18 -6 -32 q-2 -14 -2 -25 q0 -29 19 -36.5 q19 -7.5 65 -7.5 l-7 -34 ZM515 328 l-369 0 l10 44 l368 0 l-9 -44 ZM114 476 l-38 0 l45 181 l555 0 l-30 -181 l-37 0 q0 55 -5.5 84 q-5.5 29 -29.5 41 q-24 12 -80 12 l-213 0 q-41 0 -66.5 -6.5 q-25.5 -6.5 -42 -21.5 q-16.5 -15 -29 -41.5 q-12.5 -26.5 -29.5 -67.5 Z" /><glyph glyph-name="Uogonek" unicode="&#x172;" d="M349 -218 q-44 0 -67.5 23.5 q-23.5 23.5 -23.5 58.5 q0 27 13.5 49.5 q13.5 22.5 33 40 q19.5 17.5 39.5 31.5 l0 3 q-6 -1 -11.5 -1 q-5.5 0 -12.5 0 q-114 0 -165.5 41.5 q-51.5 41.5 -51.5 131.5 q0 20 3 42 q3 22 8 47 l59 286 q3 12 4.5 22 q1.5 10 1.5 17 q0 29 -18.5 39 q-18.5 10 -64.5 10 l7 34 l300 0 l-7 -34 q-41 0 -63 -7.5 q-22 -7.5 -32.5 -27.5 q-10.5 -20 -18.5 -58 l-58 -275 q-4 -21 -6.5 -41.5 q-2.5 -20.5 -2.5 -35.5 q0 -62 32.5 -91.5 q32.5 -29.5 113.5 -29.5 q96 0 146 45 q50 45 71 148 l50 245 q5 25 8 44 q3 19 3 32 q0 31 -17 41.5 q-17 10.5 -60 10.5 l6 34 l248 0 l-6 -34 q-43 0 -65.5 -10 q-22.5 -10 -33.5 -36.5 q-11 -26.5 -22 -78.5 l-48 -236 q-15 -75 -40.5 -125.5 q-25.5 -50.5 -63 -81.5 q-37.5 -31 -90.5 -50 q-15 -6 -34.5 -14.5 q-19.5 -8.5 -37 -21.5 q-17.5 -13 -29.5 -32.5 q-12 -19.5 -12 -47.5 q0 -26 12.5 -38.5 q12.5 -12.5 37.5 -12.5 q26 0 43 7.5 q17 7.5 40 23.5 l16 -21 q-31 -29 -60.5 -47.5 q-29.5 -18.5 -73.5 -18.5 Z" /><glyph glyph-name="Uhorn" unicode="&#x1af;" d="M322 -13 q-114 0 -166.5 41.5 q-52.5 41.5 -52.5 131.5 q0 20 3 42 q3 22 8 47 l59 286 q3 12 4.5 22 q1.5 10 1.5 17 q0 29 -18.5 39 q-18.5 10 -64.5 10 l7 34 l300 0 l-7 -34 q-41 0 -63 -7.5 q-22 -7.5 -32.5 -27.5 q-10.5 -20 -18.5 -58 l-58 -275 q-4 -21 -6.5 -41.5 q-2.5 -20.5 -2.5 -35.5 q0 -62 32.5 -91.5 q32.5 -29.5 113.5 -29.5 q96 0 146 45 q50 45 71 148 l50 244 q5 24 7.5 42.5 q2.5 18.5 2.5 32.5 q0 32 -17 43 q-17 11 -60 11 l8 34 l191 0 q37 0 53.5 6 q16.5 6 21 15.5 q4.5 9.5 4.5 18.5 q0 16 -8 36 q-8 20 -8 38 q0 23 16.5 37 q16.5 14 38.5 14 q21 0 35.5 -14 q14.5 -14 14.5 -43 q0 -20 -13 -49 q-13 -29 -40.5 -53.5 q-27.5 -24.5 -74.5 -34.5 q-30 -6 -48 -13 q-18 -7 -29 -19.5 q-11 -12.5 -18 -35.5 q-7 -23 -16 -62 l-48 -236 q-28 -137 -102 -206 q-74 -69 -217 -69 Z" /><glyph glyph-name="uni01B5" unicode="&#x1b5;" d="M507 0 l-511 0 l7 37 l497 567 l0 4 l-171 0 q-49 0 -80 -8 q-31 -8 -52.5 -34.5 q-21.5 -26.5 -43.5 -82.5 l-39 0 l43 174 l494 0 l-8 -37 l-495 -567 l0 -6 l184 0 q59 0 92.5 14 q33.5 14 56.5 46 q23 32 49 86 l38 0 l-61 -193 ZM538 324 l-411 0 l9 44 l410 0 l-8 -44 Z" /><glyph glyph-name="uni0190" unicode="&#x190;" d="M219 -12 q-55 0 -100 13.5 q-45 13.5 -71 45 q-26 31.5 -26 86.5 q0 49 20 87.5 q20 38.5 51.5 64.5 q31.5 26 66 42 q34.5 16 65.5 21 l0 6 q-28 11 -55.5 26 q-27.5 15 -45.5 39.5 q-18 24.5 -18 64.5 q0 58 35 98.5 q35 40.5 95.5 62 q60.5 21.5 134.5 21.5 q102 0 145 -30.5 q43 -30.5 43 -73.5 q0 -28 -16.5 -41.5 q-16.5 -13.5 -41.5 -13.5 q-22 0 -33 12 q-11 12 -16.5 30 q-5.5 18 -14 35 q-8.5 17 -26 29 q-17.5 12 -52.5 12 q-71 0 -108.5 -40.5 q-37.5 -40.5 -37.5 -103.5 q0 -41 18.5 -64 q18.5 -23 50 -32.5 q31.5 -9.5 71.5 -9.5 l51 0 l-11 -51 l-54 0 q-107 0 -153.5 -44.5 q-46.5 -44.5 -46.5 -121.5 q0 -38 16.5 -60 q16.5 -22 45.5 -31 q29 -9 67 -9 q59 0 106 21 q47 21 91 61 l21 -21 q-44 -53 -111 -92 q-67 -39 -156 -39 Z" /><glyph glyph-name="uni2132" unicode="&#x2132;" d="M514 0 l-536 0 l32 170 l38 0 q-1 -36 1 -59 q2 -23 14 -36 q12 -13 39 -18.5 q27 -5.5 76 -5.5 l146 0 l103 492 q2 10 3 17.5 q1 7.5 1 14.5 q0 30 -21.5 39 q-21.5 9 -68.5 9 l7 34 l302 0 l-8 -34 q-39 0 -60 -6 q-21 -6 -31.5 -24.5 q-10.5 -18.5 -18.5 -55.5 l-87 -420 q-2 -10 -3.5 -19.5 q-1.5 -9.5 -1.5 -17.5 q0 -28 19 -37 q19 -9 62 -9 l-7 -34 ZM142 201 l-38 0 l50 233 l38 0 q-3 -13 -4.5 -24 q-1.5 -11 -1.5 -20 q0 -31 22.5 -39.5 q22.5 -8.5 71.5 -8.5 l116 0 l-9 -44 l-116 0 q-43 0 -68 -7.5 q-25 -7.5 -38.5 -28 q-13.5 -20.5 -22.5 -61.5 Z" /><glyph glyph-name="Eng" unicode="&#x14a;" d="M341 -235 q-45 0 -74 16.5 q-29 16.5 -29 51.5 q0 22 13 37.5 q13 15.5 38 15.5 q23 0 35.5 -10.5 q12.5 -10.5 21 -24.5 q8.5 -14 18.5 -24.5 q10 -10.5 27 -10.5 q25 0 47.5 13.5 q22.5 13.5 40 46 q17.5 32.5 28.5 87.5 l13 61 l32 132 l70 338 q9 46 8.5 74 q-0.5 28 -17.5 41.5 q-17 13.5 -60 13.5 l7 34 l239 0 l-7 -34 q-37 0 -59 -14.5 q-22 -14.5 -35.5 -44 q-13.5 -29.5 -22.5 -74.5 l-103 -502 q-16 -82 -46.5 -131 q-30.5 -49 -76 -70.5 q-45.5 -21.5 -108.5 -21.5 ZM211 0 l-235 0 l6 34 q40 0 61 8.5 q21 8.5 32.5 34.5 q11.5 26 21.5 76 l92 443 l93 -73 l-54 0 l-77 -370 q-10 -50 -8 -75.5 q2 -25.5 20 -34.5 q18 -9 55 -9 l-7 -34 ZM563 -2 l-49 0 l-289 539 l-30 16 q-14 29 -26 44 q-12 15 -27.5 20.5 q-15.5 5.5 -40.5 5.5 l7 34 l180 0 l262 -485 l21 0 l-8 -174 Z" /><glyph glyph-name="Eth" unicode="Ð" d="M254 0 l-264 0 l7 34 q39 0 60 6.5 q21 6.5 31.5 27 q10.5 20.5 18.5 60.5 l85 411 q8 37 3 54.5 q-5 17.5 -24 23 q-19 5.5 -55 5.5 l8 35 l266 0 q74 0 131.5 -16 q57.5 -16 97.5 -48 q40 -32 61 -80 q21 -48 21 -113 q0 -108 -33.5 -184.5 q-33.5 -76.5 -94.5 -124 q-61 -47.5 -142 -69.5 q-81 -22 -177 -22 ZM404 310 l-365 0 l11 48 l365 0 l-11 -48 ZM256 45 q107 0 180 34.5 q73 34.5 110.5 110.5 q37.5 76 37.5 198 q0 49 -11 89.5 q-11 40.5 -36.5 70.5 q-25.5 30 -69.5 47 q-44 17 -111 17 q-11 0 -19.5 -0.5 q-8.5 -0.5 -22.5 -2.5 l-116 -562 q13 -2 27.5 -2 q14.5 0 30.5 0 Z" /><glyph glyph-name="Thorn" unicode="Þ" d="M283 0 l-299 0 l7 34 q44 0 64.5 7 q20.5 7 29.5 28.5 q9 21.5 18 65.5 l82 386 q8 39 8 61.5 q0 22.5 -17 31.5 q-17 9 -62 9 l6 34 l303 0 l-7 -34 q-44 0 -67.5 -9 q-23.5 -9 -35.5 -29.5 q-12 -20.5 -19 -52.5 l-84 -397 q-9 -42 -6.5 -63.5 q2.5 -21.5 23 -29.5 q20.5 -8 63.5 -8 l-7 -34 ZM287 160 q-28 0 -46.5 3 q-18.5 3 -31.5 7 l10 41 q9 -3 22 -4 q13 -1 32 -1 q64 0 107 19.5 q43 19.5 64.5 59 q21.5 39.5 21.5 98.5 q0 55 -33.5 81 q-33.5 26 -100.5 26 q-15 0 -27 -1 q-12 -1 -34 -3 l16 39 q13 1 33 3 q20 2 49 2 q57 0 105 -11 q48 -11 77 -41 q29 -30 29 -88 q0 -66 -25.5 -110 q-25.5 -44 -68 -70 q-42.5 -26 -94.5 -38 q-52 -12 -105 -12 Z" /><glyph glyph-name="a" unicode="a" d="M160 -13 q-35 0 -64.5 17.5 q-29.5 17.5 -47 55.5 q-17.5 38 -17.5 99 q0 68 21 126.5 q21 58.5 57.5 102 q36.5 43.5 82 68 q45.5 24.5 94.5 24.5 q42 0 64.5 -16 q22.5 -16 38.5 -38 l4 0 l37 46 l61 0 l-73 -349 q0 0 -2.5 -13 q-2.5 -13 -2.5 -24 q0 -10 4 -16.5 q4 -6.5 16 -6.5 q16 0 29 8.5 q13 8.5 23.5 20.5 q10.5 12 17.5 20 l23 -18 q-16 -26 -36.5 -50 q-20.5 -24 -48.5 -39.5 q-28 -15.5 -66 -15.5 q-29 0 -45 12 q-16 12 -16 40 q0 9 1.5 19 q1.5 10 2.5 21 l-6 0 q-35 -46 -72 -70 q-37 -24 -80 -24 ZM203 58 q29 0 54 16 q25 16 43.5 44 q18.5 28 28.5 65 q5 20 12 50.5 q7 30.5 12 61.5 q5 31 5 52 q0 36 -18.5 64 q-18.5 28 -56.5 28 q-32 0 -59.5 -22.5 q-27.5 -22.5 -47 -61.5 q-19.5 -39 -29.5 -86.5 q-10 -47.5 -10 -97.5 q0 -66 18 -89.5 q18 -23.5 48 -23.5 Z" /><glyph glyph-name="b" unicode="b" d="M200 -13 q-89 0 -165 37 l116 578 q1 3 2.5 14.5 q1.5 11.5 1.5 20.5 q0 17 -10.5 22.5 q-10.5 5.5 -25.5 5.5 q-8 0 -19.5 -1 q-11.5 -1 -11.5 -1 l0 32 l145 10 l34 0 l-62 -298 l6 0 q23 24 43.5 40.5 q20.5 16.5 42.5 24.5 q22 8 48 8 q58 0 98.5 -43 q40.5 -43 40.5 -133 q0 -65 -19 -122.5 q-19 -57.5 -55 -101 q-36 -43.5 -89 -68.5 q-53 -25 -121 -25 ZM220 35 q53 0 88 35.5 q35 35.5 52 96 q17 60.5 17 135.5 q0 66 -21 92 q-21 26 -50 26 q-28 0 -51 -17 q-23 -17 -39.5 -40.5 q-16.5 -23.5 -25.5 -47.5 l-48 -246 q10 -9 31 -21.5 q21 -12.5 47 -12.5 Z" /><glyph glyph-name="c" unicode="c" d="M190 -13 q-54 0 -89 23 q-35 23 -52 63.5 q-17 40.5 -17 94.5 q0 64 21 120.5 q21 56.5 58 99.5 q37 43 85.5 67.5 q48.5 24.5 102.5 24.5 q51 0 86 -23.5 q35 -23.5 35 -71.5 q0 -31 -15.5 -53 q-15.5 -22 -46.5 -22 q-20 0 -31.5 10 q-11.5 10 -11.5 29 q0 20 9 37.5 q9 17.5 9 29.5 q0 11 -11.5 19 q-11.5 8 -34.5 8 q-38 0 -66.5 -22.5 q-28.5 -22.5 -47.5 -60.5 q-19 -38 -29 -83 q-10 -45 -10 -89 q0 -47 11 -75 q11 -28 33.5 -40.5 q22.5 -12.5 56.5 -12.5 q48 0 79.5 19 q31.5 19 53.5 47 l21 -18 q-21 -32 -49 -59.5 q-28 -27.5 -65.5 -44.5 q-37.5 -17 -84.5 -17 Z" /><glyph glyph-name="d" unicode="d" d="M166 -13 q-57 0 -95 41.5 q-38 41.5 -38 133.5 q0 65 20 122.5 q20 57.5 55 101.5 q35 44 81 69 q46 25 97 25 q32 0 57 -10 q25 -10 43 -28 l3 0 l31 160 q0 0 1.5 11 q1.5 11 1.5 21 q0 13 -6 22 q-6 9 -29 9 q-9 0 -19.5 -1 q-10.5 -1 -10.5 -1 l0 31 l148 11 l30 0 l-113 -584 q0 0 -2 -15.5 q-2 -15.5 -2 -24.5 q0 -10 5.5 -14.5 q5.5 -4.5 14.5 -4.5 q23 0 42.5 18 q19.5 18 29.5 32 l23 -18 q-16 -23 -35.5 -47.5 q-19.5 -24.5 -46.5 -41 q-27 -16.5 -65 -16.5 q-33 0 -49 15.5 q-16 15.5 -16 40.5 q0 8 1.5 18 q1.5 10 2.5 18 l-9 0 q-34 -45 -70.5 -69.5 q-36.5 -24.5 -80.5 -24.5 ZM207 58 q30 0 56 16.5 q26 16.5 44 43 q18 26.5 26 56.5 q14 59 21.5 105 q7.5 46 7.5 69 q0 26 -9 46.5 q-9 20.5 -26.5 32.5 q-17.5 12 -41.5 12 q-34 0 -60.5 -23.5 q-26.5 -23.5 -45.5 -62 q-19 -38.5 -29 -86 q-10 -47.5 -10 -95.5 q0 -67 18.5 -90.5 q18.5 -23.5 48.5 -23.5 Z" /><glyph glyph-name="e" unicode="e" d="M189 -13 q-58 0 -93 25 q-35 25 -50.5 66 q-15.5 41 -15.5 88 q0 55 19 110.5 q19 55.5 54.5 102 q35.5 46.5 86 74 q50.5 27.5 114.5 27.5 q24 0 50.5 -6.5 q26.5 -6.5 45.5 -26.5 q19 -20 19 -61 q0 -48 -29 -82.5 q-29 -34.5 -74.5 -56.5 q-45.5 -22 -96 -33.5 q-50.5 -11.5 -94.5 -14.5 l0 32 q54 2 96.5 22 q42.5 20 68.5 55 q26 35 26 82 q0 26 -9 39.5 q-9 13.5 -30 13.5 q-30 0 -56 -25.5 q-26 -25.5 -46 -64.5 q-20 -39 -31 -83.5 q-11 -44.5 -11 -83.5 q0 -72 27 -99 q27 -27 74 -27 q39 0 72.5 15.5 q33.5 15.5 62.5 51.5 l22 -17 q-45 -69 -97 -96 q-52 -27 -105 -27 Z" /><glyph glyph-name="f" unicode="f" d="M-33 -227 q-51 0 -77.5 22.5 q-26.5 22.5 -26.5 56.5 q0 22 12 37.5 q12 15.5 34 15.5 q25 0 34.5 -14 q9.5 -14 12.5 -32.5 q3 -18.5 7.5 -32.5 q4.5 -14 18.5 -14 q16 0 28.5 17 q12.5 17 22.5 45 q10 28 17 59.5 q7 31.5 12.5 59.5 q5.5 28 7.5 47 l66 403 q8 52 19 97 q11 45 30 78 q14 24 34 45 q20 21 51.5 34.5 q31.5 13.5 79.5 13.5 q32 0 56 -9.5 q24 -9.5 37.5 -27 q13.5 -17.5 13.5 -42.5 q0 -24 -14 -36 q-14 -12 -33 -12 q-23 0 -32.5 13 q-9.5 13 -12.5 31 q-3 19 -8 35 q-5 16 -22 16 q-33 0 -53.5 -38.5 q-20.5 -38.5 -31.5 -101.5 l-72 -456 q-4 -27 -13 -67 q-9 -40 -24.5 -82 q-15.5 -42 -39 -78.5 q-23.5 -36.5 -56.5 -59.5 q-33 -23 -78 -23 ZM330 421 l-283 0 l6 46 l284 0 l-7 -46 Z" /><glyph glyph-name="g" unicode="g" d="M178 -227 q-75 0 -121 16 q-46 16 -65.5 44 q-19.5 28 -19.5 63 q0 30 17 53.5 q17 23.5 46 40 q29 16.5 66 24.5 l25 -12 q-24 -14 -44.5 -36.5 q-20.5 -22.5 -20.5 -59.5 q0 -25 13 -46 q13 -21 41 -34 q28 -13 73 -13 q67 0 99.5 21.5 q32.5 21.5 32.5 54.5 q0 27 -21 45.5 q-21 18.5 -55 31 q-34 12.5 -73.5 22 q-39.5 9.5 -78.5 16.5 l0 13 q-14 8 -26 23.5 q-12 15.5 -12 37.5 q0 33 25 55.5 q25 22.5 57 32.5 l0 6 q-20 9 -41.5 24.5 q-21.5 15.5 -35.5 42 q-14 26.5 -14 68.5 q0 50 25 89 q25 39 70 61 q45 22 104 22 q33 0 56 -4 q23 -4 41.5 -10.5 q18.5 -6.5 37.5 -14.5 l0 -33 q11 -13 22.5 -38 q11.5 -25 11.5 -60 q0 -43 -23 -79 q-23 -36 -68 -58.5 q-45 -22.5 -110 -25.5 q-33 -2 -48 -18 q-15 -16 -15 -32 q0 -15 19 -23.5 q19 -8.5 49 -15.5 q30 -7 63.5 -16 q33.5 -9 63 -23.5 q29.5 -14.5 48.5 -38.5 q19 -24 19 -62 q0 -66 -58.5 -110 q-58.5 -44 -174.5 -44 ZM217 191 q34 0 54.5 20 q20.5 20 29.5 52.5 q9 32.5 9 69.5 q0 51 -18 82 q-18 31 -54 31 q-41 0 -66 -36 q-25 -36 -25 -100 q0 -58 15.5 -88.5 q15.5 -30.5 54.5 -30.5 ZM470 467 l-6 -58 l-99 14 l-47 44 l152 0 Z" /><glyph glyph-name="h" unicode="h" d="M392 -11 q-30 0 -45.5 8.5 q-15.5 8.5 -21.5 22.5 q-6 14 -6 28 q0 13 2 25 q2 12 3 16 l58 230 q0 0 3.5 15.5 q3.5 15.5 3.5 30.5 q0 15 -5.5 25.5 q-5.5 10.5 -21.5 10.5 q-20 0 -45 -20 q-25 -20 -49.5 -51.5 q-24.5 -31.5 -46.5 -66.5 q-22 -35 -38 -66 q-16 -31 -23 -48 l18 112 q14 27 36.5 63.5 q22.5 36.5 53 72 q30.5 35.5 69 59.5 q38.5 24 85.5 24 q29 0 44.5 -10.5 q15.5 -10.5 22 -27.5 q6.5 -17 6.5 -36 q0 -19 -3.5 -41 q-3.5 -22 -6.5 -33 l-55 -227 q0 0 -2 -7.5 q-2 -7.5 -2 -16.5 q0 -19 19 -19 q27 0 45 18.5 q18 18.5 29 31.5 l24 -18 q-13 -17 -31.5 -42 q-18.5 -25 -47.5 -44 q-29 -19 -72 -19 ZM129 0 l-101 0 l126 605 q0 0 2 11.5 q2 11.5 2 22.5 q0 12 -8.5 19 q-8.5 7 -24.5 7 q-9 0 -20.5 -1 q-11.5 -1 -11.5 -1 l0 31 l146 11 l33 0 l-69 -308 l-29 -126 l15 0 l-60 -271 Z" /><glyph glyph-name="i" unicode="i" d="M119 -10 q-34 0 -51.5 15 q-17.5 15 -17.5 41 q0 13 3.5 32.5 q3.5 19.5 13.5 63.5 l50 233 q0 0 1.5 9.5 q1.5 9.5 1.5 21.5 q0 10 -6 19.5 q-6 9.5 -26 9.5 q-13 0 -23.5 -1 q-10.5 -1 -10.5 -1 l0 32 l151 11 l31 0 l-75 -354 q0 0 -2.5 -15.5 q-2.5 -15.5 -2.5 -26.5 q0 -19 18 -19 q26 0 45 18.5 q19 18.5 31 31.5 l24 -17 q-17 -24 -37.5 -48 q-20.5 -24 -48 -40 q-27.5 -16 -69.5 -16 ZM197 552 q-26 0 -43 16 q-17 16 -17 45 q0 29 16.5 45.5 q16.5 16.5 46.5 16.5 q29 0 45 -16.5 q16 -16.5 16 -45.5 q0 -28 -17.5 -44.5 q-17.5 -16.5 -46.5 -16.5 Z" /><glyph glyph-name="j" unicode="j" d="M-42 -227 q-52 0 -79.5 22.5 q-27.5 22.5 -27.5 57.5 q0 19 11 35.5 q11 16.5 35 16.5 q24 0 33 -14 q9 -14 12.5 -32 q3.5 -18 8.5 -32.5 q5 -14.5 20 -14.5 q15 0 27.5 17 q12.5 17 23.5 43 q11 26 19 57.5 q8 31.5 14.5 61 q6.5 29.5 10.5 51.5 l62 333 q0 0 1.5 9.5 q1.5 9.5 1.5 22.5 q0 10 -6 19 q-6 9 -26 9 q-13 0 -23.5 -1 q-10.5 -1 -10.5 -1 l0 32 l150 11 l31 0 l-71 -394 q-6 -33 -16 -74 q-10 -41 -26 -82 q-16 -41 -40 -75.5 q-24 -34.5 -57.5 -56 q-33.5 -21.5 -77.5 -21.5 ZM209 552 q-29 0 -45.5 16 q-16.5 16 -16.5 45 q0 29 16.5 45.5 q16.5 16.5 45.5 16.5 q30 0 46 -17 q16 -17 16 -45 q0 -28 -16 -44.5 q-16 -16.5 -46 -16.5 Z" /><glyph glyph-name="k" unicode="k" d="M131 0 l-101 0 l120 603 q0 0 1.5 9.5 q1.5 9.5 1.5 21.5 q0 10 -5.5 20.5 q-5.5 10.5 -25.5 10.5 q-13 0 -23.5 -1 q-10.5 -1 -10.5 -1 l0 31 l150 11 l29 0 l-95 -476 l-3 -29 l-38 -200 ZM364 -10 q-30 0 -49 14.5 q-19 14.5 -28.5 34 q-9.5 19.5 -15.5 35.5 l-64 169 l72 57 l79 -184 q11 -25 22 -40 q11 -15 31 -15 q28 0 44.5 15.5 q16.5 15.5 33.5 38.5 l24 -16 q-6 -10 -17.5 -28 q-11.5 -18 -29 -37 q-17.5 -19 -43 -31.5 q-25.5 -12.5 -59.5 -12.5 ZM219 234 l-64 -57 l5 65 l20 0 l147 133 q10 10 16 18.5 q6 8.5 6 19.5 q0 14 -11 20 q-11 6 -33 6 l3 28 l222 0 l-3 -28 q-48 -1 -77.5 -19.5 q-29.5 -18.5 -54.5 -40.5 l-121 -103 l-55 -42 Z" /><glyph glyph-name="l" unicode="l" d="M115 -10 q-37 0 -53.5 15.5 q-16.5 15.5 -16.5 41.5 q0 19 4.5 46.5 q4.5 27.5 8.5 50.5 l95 460 q0 0 1.5 10 q1.5 10 1.5 22 q0 10 -5.5 20 q-5.5 10 -25.5 10 q-13 0 -23 -1 q-10 -1 -10 -1 l0 30 l151 11 l28 0 l-115 -582 q-2 -8 -4 -22 q-2 -14 -2 -21 q0 -10 5.5 -14.5 q5.5 -4.5 14.5 -4.5 q26 0 44 18.5 q18 18.5 30 31.5 l24 -17 q-17 -24 -37 -48 q-20 -24 -48 -40 q-28 -16 -68 -16 Z" /><glyph glyph-name="m" unicode="m" d="M670 -11 q-43 0 -58 19 q-15 19 -15 41 q0 12 2 23.5 q2 11.5 3 15.5 l51 189 q5 19 10.5 44 q5.5 25 5.5 42 q0 16 -5.5 27 q-5.5 11 -21.5 11 q-18 0 -40.5 -20 q-22.5 -20 -47 -52.5 q-24.5 -32.5 -47 -71 q-22.5 -38.5 -39.5 -74.5 q-17 -36 -26 -64 l35 147 q18 34 41 71 q23 37 52 69.5 q29 32.5 63 53 q34 20.5 73 20.5 q40 0 53.5 -22 q13.5 -22 13.5 -50 q0 -19 -4 -42 q-4 -23 -6 -32 l-56 -229 q0 0 -1.5 -7.5 q-1.5 -7.5 -1.5 -16.5 q0 -19 19 -19 q25 0 43 18 q18 18 30 32 l24 -18 q-8 -11 -20.5 -28.5 q-12.5 -17.5 -30 -35 q-17.5 -17.5 -42 -29.5 q-24.5 -12 -57.5 -12 ZM147 0 l-101 0 l80 375 q0 0 2 11 q2 11 2 22 q0 13 -7 20 q-7 7 -26 7 q-9 0 -20.5 -1 q-11.5 -1 -11.5 -1 l0 32 l150 11 l27 0 l-47 -200 l15 0 l-63 -276 ZM417 0 l-102 0 q13 49 24 90.5 q11 41.5 20 78.5 q9 37 17.5 74 q8.5 37 17.5 78 q1 1 3.5 15 q2.5 14 2.5 27 q0 16 -5.5 27 q-5.5 11 -21.5 11 q-24 0 -52 -27 q-28 -27 -56 -70 q-28 -43 -52.5 -91.5 q-24.5 -48.5 -40.5 -91.5 l26 144 q15 27 37 63 q22 36 51.5 70.5 q29.5 34.5 66.5 58 q37 23.5 80 23.5 q41 0 54.5 -22 q13.5 -22 13.5 -49 q0 -21 -4 -43 q-4 -22 -5 -25 l-17 -66 l14 0 l-47 -156 l-25 -119 Z" /><glyph glyph-name="n" unicode="n" d="M407 -11 q-41 0 -57 18.5 q-16 18.5 -16 43.5 q0 12 2.5 22.5 q2.5 10.5 3.5 15.5 l59 224 q0 0 3.5 16.5 q3.5 16.5 3.5 32.5 q0 17 -5.5 28 q-5.5 11 -21.5 11 q-20 0 -44.5 -20.5 q-24.5 -20.5 -49 -52.5 q-24.5 -32 -46 -68 q-21.5 -36 -38 -68.5 q-16.5 -32.5 -24.5 -52.5 l21 119 q13 25 35 62 q22 37 52 73.5 q30 36.5 68.5 61.5 q38.5 25 86.5 25 q42 0 56.5 -22.5 q14.5 -22.5 14.5 -51.5 q0 -23 -3.5 -41.5 q-3.5 -18.5 -6.5 -30.5 l-57 -229 q0 0 -1.5 -7.5 q-1.5 -7.5 -1.5 -16.5 q0 -19 20 -19 q25 0 43 18 q18 18 29 32 l24 -18 q-8 -11 -20 -28.5 q-12 -17.5 -30 -35 q-18 -17.5 -42.5 -29.5 q-24.5 -12 -57.5 -12 ZM148 0 l-101 0 l80 375 q0 0 2 11 q2 11 2 22 q0 13 -8 20 q-8 7 -25 7 q-10 0 -21 -1 q-11 -1 -11 -1 l0 32 l147 11 l30 0 l-50 -208 l17 0 l-62 -268 Z" /><glyph glyph-name="o" unicode="o" d="M214 -11 q-54 0 -95 22.5 q-41 22.5 -63.5 65.5 q-22.5 43 -22.5 105 q0 60 19 114 q19 54 53 95 q34 41 81 65 q47 24 104 24 q58 0 98.5 -24.5 q40.5 -24.5 61.5 -68.5 q21 -44 21 -104 q0 -60 -19 -113 q-19 -53 -53 -93.5 q-34 -40.5 -81.5 -64 q-47.5 -23.5 -103.5 -23.5 ZM224 28 q33 0 58.5 24 q25.5 24 43 63 q17.5 39 27 87 q9.5 48 9.5 97 q0 40 -7 72 q-7 32 -24 51.5 q-17 19.5 -49 19.5 q-35 0 -61.5 -24 q-26.5 -24 -44 -63.5 q-17.5 -39.5 -26.5 -88 q-9 -48.5 -9 -97.5 q0 -38 7 -70 q7 -32 25 -51.5 q18 -19.5 51 -19.5 Z" /><glyph glyph-name="p" unicode="p" d="M245 -11 q-31 0 -59 11 q-28 11 -41 20 l12 54 q13 -13 35 -26 q22 -13 53 -13 q47 0 82.5 32.5 q35.5 32.5 55 92.5 q19.5 60 19.5 142 q0 49 -11.5 74.5 q-11.5 25.5 -28 34 q-16.5 8.5 -30.5 8.5 q-31 0 -54.5 -18 q-23.5 -18 -40.5 -46 q-17 -28 -30 -59 l9 86 q27 31 50.5 53 q23.5 22 48.5 33.5 q25 11.5 55 11.5 q39 0 70.5 -19 q31.5 -19 50 -58 q18.5 -39 18.5 -99 q0 -94 -35.5 -164.5 q-35.5 -70.5 -95 -110.5 q-59.5 -40 -133.5 -40 ZM218 -220 l-216 0 l126 603 q1 5 1.5 9.5 q0.5 4.5 0.5 9.5 q0 15 -8.5 22 q-8.5 7 -29.5 7 q-10 0 -20.5 -1 q-10.5 -1 -10.5 -1 l0 30 l151 15 l27 0 l-15 -77 l7 0 l-102 -493 q-1 -7 -2.5 -19.5 q-1.5 -12.5 -1.5 -21.5 q0 -18 20.5 -34.5 q20.5 -16.5 80.5 -16.5 l-8 -32 Z" /><glyph glyph-name="q" unicode="q" d="M443 -220 l-193 0 l67 293 l-8 0 q-30 -37 -56.5 -55 q-26.5 -18 -49 -24.5 q-22.5 -6.5 -40.5 -6.5 q-68 0 -99 49.5 q-31 49.5 -31 125.5 q0 68 21 126.5 q21 58.5 58 101 q37 42.5 83 66.5 q46 24 97 24 q42 0 68.5 -14.5 q26.5 -14.5 39.5 -31.5 l5 0 l36 39 l55 0 l-116 -577 q0 0 -1.5 -9 q-1.5 -9 -1.5 -23 q0 -25 13.5 -38 q13.5 -13 57.5 -13 l-5 -33 ZM207 58 q27 0 52.5 15 q25.5 15 45 41 q19.5 26 28.5 58 q7 27 13.5 60.5 q6.5 33.5 11 65 q4.5 31.5 4.5 50.5 q0 39 -20.5 65 q-20.5 26 -57.5 26 q-42 0 -74.5 -37.5 q-32.5 -37.5 -51 -99 q-18.5 -61.5 -18.5 -132.5 q0 -50 13.5 -81 q13.5 -31 53.5 -31 Z" /><glyph glyph-name="r" unicode="r" d="M160 88 l41 172 q9 19 21 46.5 q12 27.5 27 57.5 q15 30 34 56.5 q19 26.5 42 42.5 q23 16 51 16 q26 0 43 -15.5 q17 -15.5 17 -47.5 q0 -34 -18 -50.5 q-18 -16.5 -40 -16.5 q-18 0 -27.5 9.5 q-9.5 9.5 -13.5 19.5 q-4 10 -6 10 q-16 0 -36 -24 q-20 -24 -40.5 -62 q-20.5 -38 -39 -79.5 q-18.5 -41.5 -33 -78 q-14.5 -36.5 -22.5 -56.5 ZM150 0 l-104 0 l74 343 q3 15 6 32 q3 17 3 30 q0 14 -6 22 q-6 8 -27 8 q-8 0 -19.5 -1 q-11.5 -1 -11.5 -1 l0 32 l146 11 l31 0 l-47 -205 l14 0 l-59 -271 Z" /><glyph glyph-name="s" unicode="s" d="M167 -13 q-43 0 -71.5 10.5 q-28.5 10.5 -44.5 17.5 l-4 0 l-22 -26 l-27 0 l30 173 l30 0 q8 -66 28.5 -101 q20.5 -35 71.5 -35 q35 0 55.5 16.5 q20.5 16.5 20.5 51.5 q0 37 -21 64 q-21 27 -52 57 q-22 22 -42.5 42.5 q-20.5 20.5 -33 44 q-12.5 23.5 -12.5 54.5 q0 54 37 89 q37 35 106 35 q37 0 65.5 -10 q28.5 -10 41.5 -19 l4 0 l26 28 l23 0 l-23 -158 l-29 0 q-3 58 -26 91 q-23 33 -67 33 q-36 0 -52 -18.5 q-16 -18.5 -16 -40.5 q0 -19 12 -37 q12 -18 32 -37.5 q20 -19.5 43 -43.5 q34 -37 59 -70.5 q25 -33.5 25 -80.5 q0 -35 -19 -64 q-19 -29 -56 -47.5 q-37 -18.5 -92 -18.5 Z" /><glyph glyph-name="t" unicode="t" d="M122 -11 q-33 0 -51 16 q-18 16 -18 45 q0 13 2.5 30.5 q2.5 17.5 4.5 28.5 l67 315 l-58 0 l5 28 q34 17 57 32.5 q23 15.5 43.5 41 q20.5 25.5 47.5 67.5 l40 0 l-96 -461 q0 0 -3.5 -18.5 q-3.5 -18.5 -3.5 -31.5 q0 -9 3.5 -15 q3.5 -6 14.5 -6 q20 0 37.5 12 q17.5 12 42.5 44 l23 -18 q-14 -19 -34.5 -45 q-20.5 -26 -50.5 -45.5 q-30 -19.5 -73 -19.5 ZM325 424 l-110 0 l8 43 l111 0 l-9 -43 Z" /><glyph glyph-name="u" unicode="u" d="M126 -11 q-41 0 -56.5 23 q-15.5 23 -15.5 54 q0 19 4 40 q4 21 7 34 l49 214 q0 0 2 10 q2 10 4 22.5 q2 12.5 2 21.5 q0 14 -10 20.5 q-10 6.5 -25 6.5 q-11 0 -19.5 -0.5 q-8.5 -0.5 -13.5 -1.5 l0 32 l147 11 l38 0 l-70 -317 q-1 -4 -4 -19 q-3 -15 -3 -28 q0 -18 7 -30 q7 -12 22 -12 q21 0 44 17.5 q23 17.5 46 46 q23 28.5 43 62 q20 33.5 34.5 68 q14.5 34.5 21.5 63.5 l32 146 l101 0 l-73 -352 q0 0 -3 -16 q-3 -16 -3 -27 q0 -6 4.5 -11.5 q4.5 -5.5 16.5 -5.5 q18 0 33.5 12 q15.5 12 26.5 24.5 q11 12.5 12 13.5 l24 -17 q-20 -31 -41.5 -54 q-21.5 -23 -48 -36.5 q-26.5 -13.5 -63.5 -13.5 q-30 0 -49.5 12.5 q-19.5 12.5 -19.5 44.5 q0 28 7 56.5 q7 28.5 17 67.5 l-10 0 q-13 -22 -32.5 -52.5 q-19.5 -30.5 -46.5 -60 q-27 -29.5 -61 -49.5 q-34 -20 -77 -20 Z" /><glyph glyph-name="v" unicode="v" d="M174 -8 l-67 0 q-2 69 -5.5 132 q-3.5 63 -9 123.5 q-5.5 60.5 -13.5 123.5 q-4 35 -12 47 q-8 12 -33 12 q-12 0 -32 -3 l0 35 l132 15 l41 0 q10 -96 16.5 -191.5 q6.5 -95.5 8.5 -189.5 l-3 -41 l3 0 q47 37 86 80 q39 43 62 89 q23 46 23 92 q0 25 -7.5 40 q-7.5 15 -17.5 26 q-10 11 -18 22.5 q-8 11.5 -8 29.5 q0 25 15 36 q15 11 35 11 q26 0 40.5 -15 q14.5 -15 21 -37 q6.5 -22 6.5 -47 q0 -64 -22 -121 q-22 -57 -59 -106.5 q-37 -49.5 -84 -90 q-47 -40.5 -99 -72.5 Z" /><glyph glyph-name="w" unicode="w" d="M208 -8 l-100 0 q-2 76 -6 137 q-4 61 -9.5 119 q-5.5 58 -12.5 123 q-4 35 -12 47 q-8 12 -34 12 q-7 0 -13.5 -0.5 q-6.5 -0.5 -17.5 -2.5 l0 35 l131 15 l42 0 q7 -64 12 -125.5 q5 -61.5 8.5 -122.5 q3.5 -61 4.5 -124 l-3 -42 l4 0 l185 408 l78 0 q6 -62 10.5 -123.5 q4.5 -61.5 8 -123.5 q3.5 -62 5.5 -127 l-2 -42 l4 0 q49 38 83.5 81.5 q34.5 43.5 52.5 89 q18 45.5 18 88.5 q0 26 -7.5 41.5 q-7.5 15.5 -17.5 26 q-10 10.5 -18 22 q-8 11.5 -8 29.5 q0 26 15.5 36.5 q15.5 10.5 34.5 10.5 q26 0 40.5 -14.5 q14.5 -14.5 21 -37 q6.5 -22.5 6.5 -47.5 q0 -84 -34.5 -157 q-34.5 -73 -91 -132.5 q-56.5 -59.5 -122.5 -99.5 l-69 0 q-3 60 -6 117 q-3 57 -6.5 114.5 q-3.5 57.5 -8.5 116.5 l-4 0 l-162 -348 Z" /><glyph glyph-name="x" unicode="x" d="M327 -10 q-40 0 -59.5 25.5 q-19.5 25.5 -30.5 74.5 l-28 114 l-10 16 l-30 102 q-12 42 -24.5 65 q-12.5 23 -31 32 q-18.5 9 -49.5 9 q-9 0 -17 -1 q-8 -1 -15 -2 l0 34 l137 16 l36 0 q17 -21 29.5 -50.5 q12.5 -29.5 22.5 -70.5 l13 -62 l10 -21 l25 -82 q20 -62 35.5 -90 q15.5 -28 36.5 -28 q20 0 36 15 q16 15 34 40 l24 -17 q-10 -17 -24.5 -37.5 q-14.5 -20.5 -32.5 -39 q-18 -18.5 -39.5 -30.5 q-21.5 -12 -47.5 -12 ZM24 -10 q-32 0 -46 16.5 q-14 16.5 -14 35.5 q0 18 11.5 31.5 q11.5 13.5 30.5 13.5 q15 0 32.5 -6.5 q17.5 -6.5 29.5 -6.5 q5 0 12 3 q7 3 18.5 14 q11.5 11 27.5 36 l76 115 l22 -52 l-17 0 l-60 -103 q-22 -39 -49.5 -68 q-27.5 -29 -73.5 -29 ZM343 354 l-66 -104 l-20 53 l15 0 l47 81 q14 25 31.5 46.5 q17.5 21.5 41 35.5 q23.5 14 54.5 14 q29 0 41.5 -12.5 q12.5 -12.5 12.5 -34.5 q0 -23 -14 -36.5 q-14 -13.5 -34 -13.5 q-16 0 -29 6 q-13 6 -27 6 q-16 0 -28 -10 q-12 -10 -25 -31 Z" /><glyph glyph-name="y" unicode="y" d="M5 -220 q-20 0 -41 7.5 q-21 7.5 -35 24 q-14 16.5 -14 39.5 q0 24 13 36 q13 12 32 12 q17 0 29 -9 q12 -9 20.5 -21.5 q8.5 -12.5 15.5 -21.5 q7 -9 14 -9 q10 0 28 18 q18 18 39.5 45 q21.5 27 40.5 53.5 q19 26.5 29 42.5 l53 91 l23 0 l111 173 q16 25 24 45.5 q8 20.5 8 34.5 q0 20 -11.5 34 q-11.5 14 -24 29 q-12.5 15 -12.5 35 q0 19 13 31.5 q13 12.5 36 12.5 q30 0 48.5 -21 q18.5 -21 18.5 -60 q0 -28 -10.5 -62 q-10.5 -34 -35.5 -76 q-19 -33 -42 -68.5 q-23 -35.5 -46 -68.5 q-23 -33 -42 -60 q-19 -27 -30 -42 q-58 -81 -100 -135.5 q-42 -54.5 -77 -82 q-35 -27.5 -75 -27.5 ZM246 72 l-75 -102 l-65 367 q-4 25 -10 47 q-6 22 -20 35 q-14 13 -44 13 q-8 0 -16.5 -0.5 q-8.5 -0.5 -12.5 -1.5 l0 34 l142 11 l27 0 q11 -19 18 -38 q7 -19 12.5 -45 q5.5 -26 12.5 -66 l22 -137 l9 -117 Z" /><glyph glyph-name="z" unicode="z" d="M310 -94 q-40 0 -68 11.5 q-28 11.5 -49.5 28 q-21.5 16.5 -40.5 33 q-19 16.5 -40.5 28 q-21.5 11.5 -49.5 11.5 q-17 0 -29.5 -5.5 q-12.5 -5.5 -29.5 -22.5 l-27 27 l343 364 l0 5 l-149 0 q-29 0 -45.5 -8.5 q-16.5 -8.5 -26 -27 q-9.5 -18.5 -19.5 -50.5 l-36 0 l38 167 l359 0 l-2 -36 l-310 -328 l0 -5 q28 -3 49 -20 q21 -17 38 -39.5 q17 -22.5 33.5 -45 q16.5 -22.5 34 -37.5 q17.5 -15 40.5 -15 q17 0 24 7 q7 7 7 17 q0 11 -6.5 25 q-6.5 14 -6.5 33 q0 16 11 32.5 q11 16.5 36 16.5 q25 0 38.5 -18 q13.5 -18 13.5 -49 q0 -29 -12 -48.5 q-12 -19.5 -31.5 -30.5 q-19.5 -11 -42 -15.5 q-22.5 -4.5 -44.5 -4.5 Z" /><glyph glyph-name="uni1E9A" unicode="&#x1e9a;" d="M295 529 l-29 0 l10 47 l26 0 q34 0 54 18 q20 18 20 48 q0 21 -12.5 33 q-12.5 12 -38.5 12 l-26 0 l11 46 l27 0 q41 0 66.5 -22.5 q25.5 -22.5 25.5 -63.5 q0 -60 -39.5 -89 q-39.5 -29 -94.5 -29 ZM160 -13 q-35 0 -64.5 17.5 q-29.5 17.5 -47 55.5 q-17.5 38 -17.5 99 q0 68 21 126.5 q21 58.5 57.5 102 q36.5 43.5 82 68 q45.5 24.5 94.5 24.5 q42 0 64.5 -16 q22.5 -16 38.5 -38 l4 0 l37 46 l61 0 l-73 -349 q0 0 -2.5 -13 q-2.5 -13 -2.5 -24 q0 -10 4 -16.5 q4 -6.5 16 -6.5 q16 0 29 8.5 q13 8.5 23.5 20.5 q10.5 12 17.5 20 l23 -18 q-16 -26 -36.5 -50 q-20.5 -24 -48.5 -39.5 q-28 -15.5 -66 -15.5 q-29 0 -45 12 q-16 12 -16 40 q0 9 1.5 19 q1.5 10 2.5 21 l-6 0 q-35 -46 -72 -70 q-37 -24 -80 -24 ZM203 58 q29 0 54 16 q25 16 43.5 44 q18.5 28 28.5 65 q5 20 12 50.5 q7 30.5 12 61.5 q5 31 5 52 q0 36 -18.5 64 q-18.5 28 -56.5 28 q-32 0 -59.5 -22.5 q-27.5 -22.5 -47 -61.5 q-19.5 -39 -29.5 -86.5 q-10 -47.5 -10 -97.5 q0 -66 18 -89.5 q18 -23.5 48 -23.5 Z" /><glyph glyph-name="aogonek" unicode="&#x105;" d="M363 -218 q-42 0 -66 22 q-24 22 -24 57 q0 30 14 53 q14 23 35 41.5 q21 18.5 41 32.5 l0 3 q-24 2 -37 13.5 q-13 11.5 -13 35.5 q0 11 2 20.5 q2 9.5 3 20.5 l-7 0 q-36 -48 -76.5 -71 q-40.5 -23 -87.5 -23 q-49 0 -83.5 37.5 q-34.5 37.5 -33.5 116.5 q0 75 21 137 q21 62 57.5 107 q36.5 45 82.5 70 q46 25 98 25 q40 0 63 -17.5 q23 -17.5 36 -36.5 l5 0 l36 46 l61 0 l-73 -349 q0 0 -2.5 -13 q-2.5 -13 -2.5 -24 q0 -10 4 -16.5 q4 -6.5 16 -6.5 q16 0 29 8.5 q13 8.5 23.5 20.5 q10.5 12 17.5 20 l24 -18 q-18 -27 -39 -52 q-21 -25 -50 -39 q-20 -13 -40.5 -28.5 q-20.5 -15.5 -34 -36 q-13.5 -20.5 -13.5 -50.5 q0 -25 13 -37.5 q13 -12.5 34 -12.5 q29 0 46 7.5 q17 7.5 40 23.5 l15 -21 q-31 -29 -60.5 -47.5 q-29.5 -18.5 -73.5 -18.5 ZM204 58 q28 0 53 16.5 q25 16.5 44 44.5 q19 28 28 64 q4 19 11 51 q7 32 12.5 63.5 q5.5 31.5 5.5 48.5 q0 35 -19 64 q-19 29 -56 29 q-33 0 -60 -22.5 q-27 -22.5 -46.5 -62 q-19.5 -39.5 -29.5 -87.5 q-10 -48 -10 -99 q0 -63 18 -86.5 q18 -23.5 49 -23.5 Z" /><glyph glyph-name="ae" unicode="æ" d="M148 -13 q-51 0 -84.5 37 q-33.5 37 -32.5 115 q0 73 21 135 q21 62 60.5 108 q39.5 46 93.5 71 q54 25 119 25 q29 0 57 -4 q28 -4 49 -12 l7 -11 l-19 -64 l25 0 l-93 -268 l-21 0 q-19 -34 -45 -64 q-26 -30 -59.5 -49 q-33.5 -19 -77.5 -19 ZM201 59 q26 0 49.5 18 q23.5 18 42 48 q18.5 30 27.5 66 q5 20 12.5 52.5 q7.5 32.5 15.5 70 q8 37.5 12 72.5 q0 2 -11 12 q-11 10 -31.5 19 q-20.5 9 -47.5 9 q-42 0 -72 -35 q-30 -35 -45 -93.5 q-15 -58.5 -15 -128.5 q0 -44 7.5 -68 q7.5 -24 22 -33 q14.5 -9 33.5 -9 ZM462 -13 q-49 0 -76.5 21.5 q-27.5 21.5 -39 55.5 q-11.5 34 -11.5 71 l79 234 q32 42 61 66 q29 24 58 34 q29 10 63 10 q24 0 49.5 -7 q25.5 -7 42 -26 q16.5 -19 16.5 -54 q0 -42 -19 -73.5 q-19 -31.5 -50.5 -53.5 q-31.5 -22 -69.5 -35.5 q-38 -13.5 -77 -21 q-39 -7.5 -73 -10.5 l1 34 q52 2 94 21 q42 19 66.5 53 q24.5 34 24.5 79 q0 29 -10 43 q-10 14 -29 14 q-25 0 -50 -23 q-25 -23 -45 -60.5 q-20 -37.5 -32 -82.5 q-12 -45 -12 -90 q0 -71 27.5 -98.5 q27.5 -27.5 71.5 -27.5 q41 0 74.5 15.5 q33.5 15.5 61.5 51.5 l22 -17 q-32 -50 -68 -76 q-36 -26 -73.5 -36.5 q-37.5 -10.5 -76.5 -10.5 Z" /><glyph glyph-name="uni0253" unicode="&#x253;" d="M200 -13 q-89 0 -165 37 l93 464 q12 62 42 113 q30 51 79 81.5 q49 30.5 117 30.5 q31 0 55 -7 q24 -7 38.5 -22.5 q14.5 -15.5 14.5 -39.5 q0 -26 -15.5 -37 q-15.5 -11 -33.5 -11 q-20 0 -30 11 q-10 11 -18 26.5 q-8 15.5 -19 27 q-11 11.5 -32 11.5 q-31 0 -53.5 -22.5 q-22.5 -22.5 -32.5 -75.5 l-39 -189 l-7 -45 l-52 -271 q10 -9 30.5 -21.5 q20.5 -12.5 47.5 -12.5 q53 0 87.5 35.5 q34.5 35.5 52 96 q17.5 60.5 17.5 135.5 q0 66 -21 92 q-21 26 -50 26 q-31 0 -55.5 -20 q-24.5 -20 -41 -47 q-16.5 -27 -24.5 -51 l4 105 l22 0 q23 24 43.5 40.5 q20.5 16.5 42.5 24.5 q22 8 48 8 q58 0 98.5 -43 q40.5 -43 40.5 -133 q0 -65 -19 -122.5 q-19 -57.5 -55 -101 q-36 -43.5 -89 -68.5 q-53 -25 -121 -25 Z" /><glyph glyph-name="uni0188" unicode="&#x188;" d="M190 -13 q-54 0 -89 23 q-35 23 -52 63.5 q-17 40.5 -17 94.5 q0 64 21 120.5 q21 56.5 58 99.5 q37 43 85.5 67.5 q48.5 24.5 102.5 24.5 q33 0 60.5 -11 q27.5 -11 44 -31.5 q16.5 -20.5 16.5 -52.5 q0 -31 -15.5 -53 q-15.5 -22 -46.5 -22 q-20 0 -31.5 10 q-11.5 10 -11.5 29 q0 20 9 37.5 q9 17.5 9 29.5 q0 11 -11.5 19 q-11.5 8 -34.5 8 q-38 0 -66.5 -22.5 q-28.5 -22.5 -47.5 -60.5 q-19 -38 -29 -83 q-10 -45 -10 -89 q0 -47 11 -75 q11 -28 33.5 -40.5 q22.5 -12.5 56.5 -12.5 q48 0 79.5 19 q31.5 19 53.5 47 l21 -18 q-21 -32 -49 -59.5 q-28 -27.5 -65.5 -44.5 q-37.5 -17 -84.5 -17 ZM358 454 l-40 13 q11 50 31 95 q20 45 55 74 q35 29 89 29 q37 0 55.5 -16 q18.5 -16 18.5 -42 q0 -26 -13 -36.5 q-13 -10.5 -31 -10.5 q-18 0 -25.5 10 q-7.5 10 -11 23 q-3.5 13 -9 23 q-5.5 10 -18.5 10 q-24 0 -43 -21 q-19 -21 -33 -59.5 q-14 -38.5 -25 -91.5 Z" /><glyph glyph-name="dcroat" unicode="&#x111;" d="M166 -13 q-57 0 -95 42 q-38 42 -38 134 q0 66 19.5 123 q19.5 57 55 100.5 q35.5 43.5 81 67.5 q45.5 24 97.5 24 q32 0 55.5 -10 q23.5 -10 40.5 -28 l4 0 l32 162 q0 0 1.5 11 q1.5 11 1.5 21 q0 13 -6 22 q-6 9 -29 9 q-9 0 -19.5 -1 q-10.5 -1 -10.5 -1 l0 31 l147 11 l29 0 l-109 -584 q0 0 -2 -15.5 q-2 -15.5 -2 -24.5 q0 -10 5.5 -14.5 q5.5 -4.5 14.5 -4.5 q23 0 42.5 18 q19.5 18 29.5 32 l23 -18 q-16 -23 -35.5 -47.5 q-19.5 -24.5 -46.5 -41 q-27 -16.5 -65 -16.5 q-33 0 -49 14.5 q-16 14.5 -16 41.5 q0 8 1.5 18 q1.5 10 2.5 18 l-9 0 q-35 -46 -71 -70 q-36 -24 -80 -24 ZM207 58 q30 0 56 16.5 q26 16.5 44 43 q18 26.5 26 56.5 q14 59 21.5 104 q7.5 45 7.5 68 q0 26 -9.5 46.5 q-9.5 20.5 -26.5 33 q-17 12.5 -41 12.5 q-34 0 -61 -23.5 q-27 -23.5 -45.5 -62 q-18.5 -38.5 -28.5 -85.5 q-10 -47 -10 -95 q0 -67 18.5 -90.5 q18.5 -23.5 48.5 -23.5 ZM571 537 l-324 0 l9 44 l324 0 l-9 -44 Z" /><glyph glyph-name="uni0257" unicode="&#x257;" d="M166 -13 q-61 0 -97 44.5 q-36 44.5 -36 131.5 q0 66 19.5 122.5 q19.5 56.5 55 100.5 q35.5 44 81 69 q45.5 25 97.5 25 q32 0 57.5 -10 q25.5 -10 41.5 -28 l4 0 l8 42 q13 59 41.5 111 q28.5 52 76 85 q47.5 33 118.5 33 q47 0 77.5 -16.5 q30.5 -16.5 30.5 -51.5 q0 -25 -15 -36.5 q-15 -11.5 -33 -11.5 q-20 0 -30.5 11 q-10.5 11 -17.5 26 q-7 15 -18.5 26.5 q-11.5 11.5 -34.5 11.5 q-30 0 -51 -25 q-21 -25 -31 -74 l-87 -452 q0 0 -2 -15.5 q-2 -15.5 -2 -24.5 q0 -10 5.5 -14.5 q5.5 -4.5 14.5 -4.5 q23 0 42.5 18 q19.5 18 29.5 32 l23 -18 q-16 -23 -35.5 -47.5 q-19.5 -24.5 -46.5 -41 q-27 -16.5 -65 -16.5 q-33 0 -49 15.5 q-16 15.5 -16 40.5 q0 8 1.5 18 q1.5 10 2.5 18 l-9 0 q-36 -47 -72 -70.5 q-36 -23.5 -79 -23.5 ZM207 58 q30 0 56 16.5 q26 16.5 44 43 q18 26.5 26 56.5 q14 59 21.5 105 q7.5 46 7.5 69 q0 26 -9 46.5 q-9 20.5 -26.5 32.5 q-17.5 12 -41.5 12 q-34 0 -60.5 -23.5 q-26.5 -23.5 -45.5 -62 q-19 -38.5 -29 -86 q-10 -47.5 -10 -95.5 q0 -67 18.5 -90.5 q18.5 -23.5 48.5 -23.5 Z" /><glyph glyph-name="uni0256" unicode="&#x256;" d="M442 -227 q-79 0 -110.5 37.5 q-31.5 37.5 -31.5 100.5 q0 25 4.5 54.5 q4.5 29.5 13.5 70.5 l66 372 l37 194 q0 0 1.5 11 q1.5 11 1.5 21 q0 13 -6 22 q-6 9 -29 9 q-9 0 -20 -1 q-11 -1 -11 -1 l0 31 l149 11 l30 0 l-140 -738 q-6 -29 -9.5 -52.5 q-3.5 -23.5 -3.5 -41.5 q0 -33 11.5 -45.5 q11.5 -12.5 30.5 -12.5 q22 0 35.5 12 q13.5 12 24 27.5 q10.5 15.5 23 27.5 q12.5 12 32.5 12 q15 0 27.5 -8.5 q12.5 -8.5 12.5 -29.5 q0 -26 -19 -44.5 q-19 -18.5 -50 -28.5 q-31 -10 -70 -10 ZM166 -13 q-35 0 -65.5 18 q-30.5 18 -49 56.5 q-18.5 38.5 -18.5 102.5 q0 65 20.5 122.5 q20.5 57.5 55.5 101 q35 43.5 80.5 68 q45.5 24.5 97.5 24.5 q32 0 57 -10 q25 -10 42 -28 l20 0 l-64 -361 l-24 0 q-34 -45 -70.5 -69.5 q-36.5 -24.5 -81.5 -24.5 ZM207 58 q31 0 57 16.5 q26 16.5 44 43 q18 26.5 26 56.5 q14 59 21.5 105 q7.5 46 7.5 69 q0 26 -9.5 46.5 q-9.5 20.5 -26.5 32.5 q-17 12 -41 12 q-34 0 -61 -23.5 q-27 -23.5 -46 -62 q-19 -38.5 -29 -86 q-10 -47.5 -10 -95.5 q0 -67 19 -90.5 q19 -23.5 48 -23.5 Z" /><glyph glyph-name="eogonek" unicode="&#x119;" d="M196 -218 q-45 0 -69 22.5 q-24 22.5 -24 58.5 q0 28 14 50 q14 22 34 40 q20 18 39 31 l0 54 l48 -44 q-12 -2 -28.5 -4 q-16.5 -2 -28.5 -2 q-53 0 -86 24.5 q-33 24.5 -49 64.5 q-16 40 -16 89 q0 55 19 110.5 q19 55.5 54.5 102 q35.5 46.5 86 74 q50.5 27.5 113.5 27.5 q25 0 51.5 -6.5 q26.5 -6.5 45.5 -26.5 q19 -20 19 -61 q0 -48 -29 -82.5 q-29 -34.5 -74.5 -56.5 q-45.5 -22 -96 -33.5 q-50.5 -11.5 -94.5 -14.5 l0 32 q54 2 96.5 22 q42.5 20 68.5 55 q26 35 26 82 q0 26 -9 39.5 q-9 13.5 -30 13.5 q-26 0 -51.5 -23 q-25.5 -23 -46.5 -60.5 q-21 -37.5 -33.5 -83 q-12.5 -45.5 -12.5 -90.5 q0 -72 27 -99 q27 -27 74 -27 q39 0 72.5 15.5 q33.5 15.5 62.5 51.5 l22 -17 q-28 -43 -58.5 -68.5 q-30.5 -25.5 -62.5 -37.5 q-24 -17 -44.5 -33.5 q-20.5 -16.5 -33.5 -36 q-13 -19.5 -13 -46.5 q0 -27 13.5 -38.5 q13.5 -11.5 40.5 -11.5 q24 0 41.5 8.5 q17.5 8.5 37.5 22.5 l16 -21 q-29 -26 -58.5 -46 q-29.5 -20 -73.5 -20 Z" /><glyph glyph-name="uni0260" unicode="&#x260;" d="M135 -225 q-31 0 -59 5 q-28 5 -48.5 15.5 q-20.5 10.5 -32.5 25.5 q-12 15 -12 35 q0 23 14 38 q14 15 38 15 q22 0 34.5 -14.5 q12.5 -14.5 23.5 -33.5 q11 -19 27 -33 q16 -14 44 -14 q52 0 81 40 q29 40 45 118 l23 111 l73 348 l10 53 q11 59 40 111.5 q29 52.5 77 85 q48 32.5 118 32.5 q48 0 78.5 -17 q30.5 -17 30.5 -50 q0 -25 -15.5 -37 q-15.5 -12 -32.5 -12 q-20 0 -30.5 11 q-10.5 11 -18.5 26 q-8 15 -19 26.5 q-11 11.5 -31 11.5 q-31 0 -53 -25 q-22 -25 -33 -80 l-112 -557 q-17 -87 -53.5 -138.5 q-36.5 -51.5 -88.5 -74 q-52 -22.5 -118 -22.5 ZM159 -13 q-65 0 -96.5 44 q-31.5 44 -31.5 120 q0 68 20 127.5 q20 59.5 55 105 q35 45.5 82.5 71 q47.5 25.5 102.5 25.5 q37 0 59.5 -12 q22.5 -12 32.5 -21 l22 0 l-79 -380 l-21 0 q-21 -20 -42.5 -38.5 q-21.5 -18.5 -46.5 -30 q-25 -11.5 -57 -11.5 ZM203 58 q29 0 54 15.5 q25 15.5 44 42 q19 26.5 27 58.5 q7 28 12.5 54.5 q5.5 26.5 9.5 49 q4 22.5 6 41 q2 18.5 2 30.5 q0 41 -20.5 65.5 q-20.5 24.5 -55.5 24.5 q-32 0 -59 -22 q-27 -22 -46 -60.5 q-19 -38.5 -29 -87 q-10 -48.5 -10 -101.5 q0 -47 12.5 -78.5 q12.5 -31.5 52.5 -31.5 Z" /><glyph glyph-name="hbar" unicode="&#x127;" d="M393 -11 q-29 0 -44.5 8.5 q-15.5 8.5 -22 22.5 q-6.5 14 -6.5 28 q0 13 2.5 25 q2.5 12 3.5 16 l58 228 q0 0 3.5 16 q3.5 16 3.5 30 q0 15 -6 25.5 q-6 10.5 -21 10.5 q-21 0 -45.5 -20 q-24.5 -20 -49.5 -51 q-25 -31 -46.5 -66 q-21.5 -35 -38 -65.5 q-16.5 -30.5 -23.5 -47.5 l18 112 q15 27 37 63.5 q22 36.5 53 71.5 q31 35 69.5 58.5 q38.5 23.5 84.5 23.5 q29 0 45 -10.5 q16 -10.5 22 -27.5 q6 -17 6 -35 q0 -19 -3.5 -41.5 q-3.5 -22.5 -5.5 -33.5 l-56 -225 q0 0 -2 -7.5 q-2 -7.5 -2 -16.5 q0 -19 20 -19 q26 0 44.5 18.5 q18.5 18.5 28.5 31.5 l24 -18 q-13 -17 -31.5 -42 q-18.5 -25 -47 -44 q-28.5 -19 -72.5 -19 ZM131 0 l-101 0 l126 605 q0 0 2 11.5 q2 11.5 2 22.5 q0 12 -8.5 19 q-8.5 7 -24.5 7 q-10 0 -21.5 -1 q-11.5 -1 -11.5 -1 l0 31 l146 11 l34 0 l-72 -323 l-27 -111 l15 0 l-59 -271 ZM396 534 l-338 0 l10 42 l338 0 l-10 -42 Z" /><glyph glyph-name="icircumflex" unicode="î" d="M119 -10 q-34 0 -51.5 15 q-17.5 15 -17.5 41 q0 13 3.5 32.5 q3.5 19.5 13.5 63.5 l50 233 q0 0 1.5 9.5 q1.5 9.5 1.5 21.5 q0 10 -6 19.5 q-6 9.5 -26 9.5 q-13 0 -23.5 -1 q-10.5 -1 -10.5 -1 l0 32 l150 11 l31 0 l-72 -354 q0 0 -3 -15.5 q-3 -15.5 -3 -26.5 q0 -19 19 -19 q26 0 44 18.5 q18 18.5 30 31.5 l24 -17 q-17 -24 -37.5 -48 q-20.5 -24 -48 -40 q-27.5 -16 -69.5 -16 ZM78 521 l-46 0 l129 153 l75 0 l69 -153 l-45 0 l-74 94 l-108 -94 Z" /><glyph glyph-name="itilde" unicode="&#x129;" d="M119 -10 q-34 0 -51.5 15 q-17.5 15 -17.5 41 q0 13 3.5 32.5 q3.5 19.5 13.5 63.5 l50 233 q0 0 1.5 9.5 q1.5 9.5 1.5 21.5 q0 10 -6 19.5 q-6 9.5 -26 9.5 q-13 0 -23.5 -1 q-10.5 -1 -10.5 -1 l0 32 l150 11 l31 0 l-72 -354 q0 0 -3 -15.5 q-3 -15.5 -3 -26.5 q0 -19 19 -19 q26 0 44 18.5 q18 18.5 30 31.5 l24 -17 q-17 -24 -37.5 -48 q-20.5 -24 -48 -40 q-27.5 -16 -69.5 -16 ZM60 533 l-31 0 q17 50 48 80 q31 30 67 30 q27 0 43.5 -10.5 q16.5 -10.5 31.5 -21 q15 -10.5 35 -10.5 q17 0 33 10 q16 10 29 36 l30 0 q-22 -58 -50 -84.5 q-28 -26.5 -67 -26.5 q-27 0 -43.5 10.5 q-16.5 10.5 -30.5 21 q-14 10.5 -37 10.5 q-16 0 -31.5 -10 q-15.5 -10 -26.5 -35 Z" /><glyph glyph-name="idieresis" unicode="ï" d="M119 -10 q-34 0 -51.5 15 q-17.5 15 -17.5 41 q0 13 3.5 32.5 q3.5 19.5 13.5 63.5 l50 233 q0 0 1.5 9.5 q1.5 9.5 1.5 21.5 q0 10 -6 19.5 q-6 9.5 -26 9.5 q-13 0 -23.5 -1 q-10.5 -1 -10.5 -1 l0 32 l150 11 l31 0 l-72 -354 q0 0 -3 -15.5 q-3 -15.5 -3 -26.5 q0 -19 19 -19 q26 0 44 18.5 q18 18.5 30 31.5 l24 -17 q-17 -24 -37.5 -48 q-20.5 -24 -48 -40 q-27.5 -16 -69.5 -16 ZM87 552 q-26 0 -42.5 15.5 q-16.5 15.5 -16.5 44.5 q0 27 16.5 43.5 q16.5 16.5 43.5 16.5 q29 0 44.5 -17 q15.5 -17 15.5 -43 q0 -28 -17 -44 q-17 -16 -44 -16 ZM285 552 q-27 0 -43.5 15.5 q-16.5 15.5 -16.5 44.5 q0 27 16.5 43.5 q16.5 16.5 44.5 16.5 q29 0 44 -17 q15 -17 15 -43 q0 -28 -16.5 -44 q-16.5 -16 -43.5 -16 Z" /><glyph glyph-name="imacron" unicode="&#x12b;" d="M119 -10 q-34 0 -51.5 15 q-17.5 15 -17.5 41 q0 13 3.5 32.5 q3.5 19.5 13.5 63.5 l50 233 q0 0 1.5 9.5 q1.5 9.5 1.5 21.5 q0 10 -6 19.5 q-6 9.5 -26 9.5 q-13 0 -23.5 -1 q-10.5 -1 -10.5 -1 l0 32 l150 11 l31 0 l-72 -354 q0 0 -3 -15.5 q-3 -15.5 -3 -26.5 q0 -19 19 -19 q26 0 44 18.5 q18 18.5 30 31.5 l24 -17 q-17 -24 -37.5 -48 q-20.5 -24 -48 -40 q-27.5 -16 -69.5 -16 ZM311 555 l-272 0 l13 61 l272 0 l-13 -61 Z" /><glyph glyph-name="ibreve" unicode="&#x12d;" d="M119 -10 q-34 0 -51.5 15 q-17.5 15 -17.5 41 q0 13 3.5 32.5 q3.5 19.5 13.5 63.5 l50 233 q0 0 1.5 9.5 q1.5 9.5 1.5 21.5 q0 10 -6 19.5 q-6 9.5 -26 9.5 q-13 0 -23.5 -1 q-10.5 -1 -10.5 -1 l0 32 l150 11 l31 0 l-72 -354 q0 0 -3 -15.5 q-3 -15.5 -3 -26.5 q0 -19 19 -19 q26 0 44 18.5 q18 18.5 30 31.5 l24 -17 q-17 -24 -37.5 -48 q-20.5 -24 -48 -40 q-27.5 -16 -69.5 -16 ZM173 529 q-57 0 -86.5 27.5 q-29.5 27.5 -29.5 83.5 q0 11 1 22 q1 11 3 22 l34 0 q2 -54 24 -70 q22 -16 68 -16 q30 0 50.5 6.5 q20.5 6.5 37.5 25 q17 18.5 34 54.5 l34 0 q-22 -79 -63.5 -117 q-41.5 -38 -106.5 -38 Z" /><glyph glyph-name="iogonek" unicode="&#x12f;" d="M109 -218 q-41 0 -66 22.5 q-25 22.5 -25 59.5 q0 29 14.5 52 q14.5 23 35.5 41.5 q21 18.5 42 32.5 l0 4 q-29 3 -44.5 15.5 q-15.5 12.5 -15.5 36.5 q0 13 3.5 32.5 q3.5 19.5 13.5 63.5 l50 233 q0 0 1.5 9.5 q1.5 9.5 1.5 21.5 q0 10 -6 19.5 q-6 9.5 -26 9.5 q-13 0 -23.5 -1 q-10.5 -1 -10.5 -1 l0 32 l151 11 l31 0 l-75 -354 q0 0 -2.5 -16 q-2.5 -16 -2.5 -27 q0 -19 18 -19 q17 0 31.5 9 q14.5 9 25.5 21 q11 12 19 21 l24 -17 q-19 -27 -40 -52.5 q-21 -25.5 -53 -39.5 q-20 -13 -40 -28 q-20 -15 -33.5 -35.5 q-13.5 -20.5 -13.5 -50.5 q0 -25 13 -37.5 q13 -12.5 35 -12.5 q29 0 45.5 7.5 q16.5 7.5 39.5 23.5 l16 -21 q-31 -29 -60.5 -47.5 q-29.5 -18.5 -73.5 -18.5 ZM197 552 q-26 0 -43 16 q-17 16 -17 45 q0 29 16.5 45.5 q16.5 16.5 46.5 16.5 q29 0 45 -16.5 q16 -16.5 16 -45.5 q0 -28 -17.5 -44.5 q-17.5 -16.5 -46.5 -16.5 Z" /><glyph glyph-name="uni0268" unicode="&#x268;" d="M125 -10 q-34 0 -51.5 15 q-17.5 15 -17.5 41 q0 13 3 32.5 q3 19.5 13 63.5 l50 233 q0 0 1.5 9.5 q1.5 9.5 1.5 21.5 q0 10 -6 19.5 q-6 9.5 -26 9.5 q-13 0 -23 -1 q-10 -1 -10 -1 l0 32 l150 11 l31 0 l-74 -354 q0 0 -3 -15.5 q-3 -15.5 -3 -26.5 q0 -19 19 -19 q26 0 44.5 18.5 q18.5 18.5 30.5 31.5 l24 -17 q-17 -24 -37 -48 q-20 -24 -48 -40 q-28 -16 -69 -16 ZM270 244 l-251 0 l8 42 l251 0 l-8 -42 ZM202 552 q-26 0 -43 16 q-17 16 -17 45 q0 29 16.5 45.5 q16.5 16.5 46.5 16.5 q29 0 45 -16.5 q16 -16.5 16 -45.5 q0 -28 -17.5 -44.5 q-17.5 -16.5 -46.5 -16.5 Z" /><glyph glyph-name="jcircumflex" unicode="&#x135;" d="M-42 -227 q-52 0 -79.5 22.5 q-27.5 22.5 -27.5 57.5 q0 19 11 35.5 q11 16.5 35 16.5 q24 0 33 -14 q9 -14 12.5 -32 q3.5 -18 8.5 -32.5 q5 -14.5 20 -14.5 q15 0 27.5 17 q12.5 17 23.5 43 q11 26 19 57.5 q8 31.5 14.5 61 q6.5 29.5 10.5 51.5 l62 333 q0 0 1.5 9.5 q1.5 9.5 1.5 22.5 q0 10 -6 19 q-6 9 -26 9 q-13 0 -23.5 -1 q-10.5 -1 -10.5 -1 l0 32 l150 11 l31 0 l-71 -394 q-6 -33 -16 -74 q-10 -41 -26 -82 q-16 -41 -40 -75.5 q-24 -34.5 -57.5 -56 q-33.5 -21.5 -77.5 -21.5 ZM87 521 l-45 0 l131 156 l74 0 l71 -156 l-43 0 l-77 96 l-111 -96 Z" /><glyph glyph-name="uni01F0" unicode="&#x1f0;" d="M-42 -227 q-52 0 -79.5 22.5 q-27.5 22.5 -27.5 57.5 q0 19 11 35.5 q11 16.5 35 16.5 q24 0 33 -14 q9 -14 12.5 -32 q3.5 -18 8.5 -32.5 q5 -14.5 20 -14.5 q15 0 27.5 17 q12.5 17 23.5 43 q11 26 19 57.5 q8 31.5 14.5 61 q6.5 29.5 10.5 51.5 l62 333 q0 0 1.5 9.5 q1.5 9.5 1.5 22.5 q0 10 -6 19 q-6 9 -26 9 q-13 0 -23.5 -1 q-10.5 -1 -10.5 -1 l0 32 l150 11 l31 0 l-71 -394 q-6 -33 -16 -74 q-10 -41 -26 -82 q-16 -41 -40 -75.5 q-24 -34.5 -57.5 -56 q-33.5 -21.5 -77.5 -21.5 ZM215 521 l-75 0 l-71 156 l44 0 l77 -96 l110 96 l46 0 l-131 -156 Z" /><glyph glyph-name="uni0199" unicode="&#x199;" d="M129 0 l-101 0 l98 490 q14 70 48.5 120 q34.5 50 86 76.5 q51.5 26.5 115.5 26.5 q32 0 56 -7 q24 -7 38.5 -21 q14.5 -14 14.5 -38 q0 -27 -15.5 -40 q-15.5 -13 -37.5 -13 q-18 0 -28.5 12.5 q-10.5 12.5 -19 28.5 q-8.5 16 -21.5 28 q-13 12 -36 12 q-16 0 -34 -8.5 q-18 -8.5 -32.5 -29 q-14.5 -20.5 -21.5 -57.5 l-69 -351 l-3 -29 l-38 -200 ZM363 -10 q-31 0 -49 15 q-18 15 -28 34.5 q-10 19.5 -17 34.5 l-63 169 l72 57 l79 -184 q10 -25 21.5 -40 q11.5 -15 31.5 -15 q28 0 44.5 15.5 q16.5 15.5 33.5 38.5 l24 -16 q-6 -10 -17.5 -28 q-11.5 -18 -29 -37 q-17.5 -19 -43 -31.5 q-25.5 -12.5 -59.5 -12.5 ZM232 245 l-79 -68 l6 65 l20 0 l149 134 q10 10 15.5 18.5 q5.5 8.5 5.5 20.5 q0 13 -11.5 19.5 q-11.5 6.5 -33.5 6.5 l3 28 l222 0 l-3 -28 q-48 -1 -76 -20 q-28 -19 -55 -40 l-124 -107 l-39 -29 Z" /><glyph glyph-name="kgreenlandic" unicode="&#x138;" d="M253 244 l-78 -67 l5 65 l20 0 l149 134 q10 10 16 18.5 q6 8.5 6 20.5 q0 13 -12 19.5 q-12 6.5 -33 6.5 l3 28 l222 0 l-3 -28 q-49 -1 -77.5 -19.5 q-28.5 -18.5 -53.5 -40.5 l-124 -107 l-40 -30 ZM151 0 l-101 0 l75 377 q1 3 2 10.5 q1 7.5 1 18.5 q0 11 -6 20 q-6 9 -26 9 q-13 0 -23 -1 q-10 -1 -10 -1 l0 32 l148 11 l32 0 l-51 -247 l-3 -29 l-38 -200 ZM384 -10 q-30 0 -49 14.5 q-19 14.5 -28.5 34 q-9.5 19.5 -15.5 35.5 l-64 169 l72 57 l79 -184 q11 -25 22 -40 q11 -15 31 -15 q28 0 44.5 15.5 q16.5 15.5 33.5 38.5 l24 -16 q-6 -10 -17.5 -28 q-11.5 -18 -29 -37 q-17.5 -19 -43 -31.5 q-25.5 -12.5 -59.5 -12.5 Z" /><glyph glyph-name="lslash" unicode="&#x142;" d="M125 -10 q-37 0 -53.5 15.5 q-16.5 15.5 -16.5 41.5 q0 19 4.5 46.5 q4.5 27.5 8.5 50.5 l95 460 q0 0 1.5 10 q1.5 10 1.5 22 q0 10 -5.5 20 q-5.5 10 -25.5 10 q-13 0 -23 -1 q-10 -1 -10 -1 l0 30 l151 11 l28 0 l-115 -582 q-2 -8 -4 -22 q-2 -14 -2 -21 q0 -10 5.5 -14.5 q5.5 -4.5 14.5 -4.5 q26 0 44 18.5 q18 18.5 30 31.5 l24 -17 q-17 -24 -37 -48 q-20 -24 -48 -40 q-28 -16 -68 -16 ZM331 442 l-307 -189 l-19 37 l306 188 l20 -36 Z" /><glyph glyph-name="uni019A" unicode="&#x19a;" d="M123 -10 q-37 0 -54 15.5 q-17 15.5 -17 41.5 q0 19 4.5 46.5 q4.5 27.5 9.5 50.5 l95 460 q0 0 1.5 10 q1.5 10 1.5 22 q0 10 -5.5 20 q-5.5 10 -25.5 10 q-13 0 -23.5 -1 q-10.5 -1 -10.5 -1 l0 30 l151 11 l28 0 l-115 -582 q-1 -8 -3 -22 q-2 -14 -2 -21 q0 -10 5.5 -14.5 q5.5 -4.5 14.5 -4.5 q26 0 44 18.5 q18 18.5 30 31.5 l24 -17 q-17 -24 -37.5 -48 q-20.5 -24 -48 -40 q-27.5 -16 -67.5 -16 ZM282 347 l-246 0 l8 43 l246 0 l-8 -43 Z" /><glyph glyph-name="uni026B" unicode="&#x26b;" d="M133 -10 q-37 0 -54 15.5 q-17 15.5 -17 41.5 q0 19 4 42 q4 23 10 55 l95 460 q0 0 1.5 10 q1.5 10 1.5 22 q0 10 -5.5 20 q-5.5 10 -25.5 10 q-13 0 -23.5 -1 q-10.5 -1 -10.5 -1 l0 30 l151 11 l28 0 l-115 -582 q0 0 -2.5 -16 q-2.5 -16 -2.5 -27 q0 -10 5.5 -14.5 q5.5 -4.5 14.5 -4.5 q26 0 44 18.5 q18 18.5 30 31.5 l23 -17 q-17 -24 -37 -48 q-20 -24 -48 -40 q-28 -16 -67 -16 ZM29 308 l-31 0 q19 50 52 79.5 q33 29.5 72 29.5 q7 0 16 -1.5 q9 -1.5 15 -4.5 l-20 -70 q-10 4 -19.5 7.5 q-9.5 3.5 -21.5 3.5 q-18 0 -35 -9.5 q-17 -9.5 -28 -34.5 ZM220 311 q-6 0 -12.5 1.5 q-6.5 1.5 -13.5 2.5 l17 72 q6 -5 15.5 -8 q9.5 -3 22.5 -3 q17 0 34.5 9.5 q17.5 9.5 31.5 35.5 l30 0 q-23 -58 -53.5 -84 q-30.5 -26 -71.5 -26 Z" /><glyph glyph-name="ohorn" unicode="&#x1a1;" d="M211 -11 q-59 0 -99 24.5 q-40 24.5 -59.5 69 q-19.5 44.5 -19.5 102.5 q0 59 19 112 q19 53 53 94 q34 41 81.5 65 q47.5 24 106.5 24 q28 0 49 -4.5 q21 -4.5 40 -8.5 q19 -4 39 -4 q32 0 52 12 q20 12 20 37 q0 17 -8.5 31.5 q-8.5 14.5 -8.5 34.5 q0 22 13.5 31.5 q13.5 9.5 30.5 9.5 q22 0 35.5 -15 q13.5 -15 13.5 -42 q0 -25 -11 -47.5 q-11 -22.5 -32 -40 q-21 -17.5 -51 -27.5 q-30 -10 -66 -10 q-11 0 -22.5 1.5 q-11.5 1.5 -21.5 6.5 l48 7 l0 -16 q29 -28 43.5 -66 q14.5 -38 14.5 -89 q0 -59 -19 -111.5 q-19 -52.5 -53 -93.5 q-34 -41 -81.5 -64 q-47.5 -23 -106.5 -23 ZM221 28 q35 0 61.5 24 q26.5 24 44 63.5 q17.5 39.5 26.5 88 q9 48.5 9 97.5 q0 39 -7 70.5 q-7 31.5 -24.5 51 q-17.5 19.5 -48.5 19.5 q-35 0 -61.5 -23.5 q-26.5 -23.5 -44 -62.5 q-17.5 -39 -26.5 -87.5 q-9 -48.5 -9 -97.5 q0 -38 7 -70.5 q7 -32.5 24.5 -52.5 q17.5 -20 48.5 -20 Z" /><glyph glyph-name="uni1EE1" unicode="&#x1ee1;" d="M211 -11 q-59 0 -99 24.5 q-40 24.5 -59.5 69 q-19.5 44.5 -19.5 102.5 q0 59 19 112 q19 53 53 94 q34 41 81.5 65 q47.5 24 106.5 24 q28 0 49 -4.5 q21 -4.5 40 -8.5 q19 -4 39 -4 q32 0 55 12 q23 12 23 37 q0 17 -8 31.5 q-8 14.5 -8 34.5 q0 22 13.5 31.5 q13.5 9.5 30.5 9.5 q22 0 35.5 -15 q13.5 -15 13.5 -42 q0 -25 -12.5 -47.5 q-12.5 -22.5 -35 -40 q-22.5 -17.5 -52.5 -27.5 q-30 -10 -65 -10 q-11 0 -23 2 q-12 2 -22 7 l47 6 l0 -16 q29 -28 43.5 -66 q14.5 -38 14.5 -89 q0 -59 -19 -111.5 q-19 -52.5 -53 -93.5 q-34 -41 -81.5 -64 q-47.5 -23 -106.5 -23 ZM221 28 q35 0 61.5 24 q26.5 24 44 63.5 q17.5 39.5 26.5 88 q9 48.5 9 97.5 q0 39 -7 70.5 q-7 31.5 -24.5 51 q-17.5 19.5 -48.5 19.5 q-35 0 -61.5 -23.5 q-26.5 -23.5 -44 -62.5 q-17.5 -39 -26.5 -87.5 q-9 -48.5 -9 -97.5 q0 -38 7 -70.5 q7 -32.5 24.5 -52.5 q17.5 -20 48.5 -20 ZM178 533 l-32 0 q12 34 30.5 58.5 q18.5 24.5 42.5 39 q24 14.5 49 14.5 q27 0 43.5 -10 q16.5 -10 32.5 -21 q16 -11 39 -11 q17 0 34 9.5 q17 9.5 30 36.5 l30 0 q-21 -58 -51 -85.5 q-30 -27.5 -70 -27.5 q-27 0 -44 10.5 q-17 10.5 -32.5 21 q-15.5 10.5 -39.5 10.5 q-18 0 -34.5 -9.5 q-16.5 -9.5 -27.5 -35.5 Z" /><glyph glyph-name="oslash" unicode="ø" d="M473 458 l-416 -482 l-29 25 l415 482 l30 -25 ZM214 -11 q-56 0 -96.5 23 q-40.5 23 -62.5 66 q-22 43 -22 104 q0 60 19 114 q19 54 53 95 q34 41 81 65 q47 24 104 24 q56 0 96.5 -23.5 q40.5 -23.5 62.5 -67.5 q22 -44 22 -106 q0 -60 -19 -113 q-19 -53 -53 -93.5 q-34 -40.5 -81.5 -64 q-47.5 -23.5 -103.5 -23.5 ZM224 28 q33 0 59 24 q26 24 43.5 63 q17.5 39 26.5 86.5 q9 47.5 9 96.5 q0 40 -7 72.5 q-7 32.5 -24.5 52 q-17.5 19.5 -48.5 19.5 q-36 0 -62 -23.5 q-26 -23.5 -44 -62.5 q-18 -39 -26.5 -87.5 q-8.5 -48.5 -8.5 -99.5 q0 -39 6.5 -71 q6.5 -32 25 -51 q18.5 -19 51.5 -19 Z" /><glyph glyph-name="uni0275" unicode="&#x275;" d="M214 -11 q-54 0 -95 22.5 q-41 22.5 -63.5 65.5 q-22.5 43 -22.5 105 q0 60 19 114 q19 54 53 95 q34 41 81 65 q47 24 104 24 q58 0 98.5 -24.5 q40.5 -24.5 61.5 -68.5 q21 -44 21 -104 q0 -60 -19 -113 q-19 -53 -53 -93.5 q-34 -40.5 -81.5 -64 q-47.5 -23.5 -103.5 -23.5 ZM224 28 q33 0 59 24 q26 24 43.5 63.5 q17.5 39.5 27 87 q9.5 47.5 9.5 95.5 q0 41 -7 73 q-7 32 -24.5 51.5 q-17.5 19.5 -49.5 19.5 q-36 0 -62.5 -24 q-26.5 -24 -44 -64 q-17.5 -40 -26.5 -88.5 q-9 -48.5 -9 -96.5 q0 -38 7 -70 q7 -32 25.5 -51.5 q18.5 -19.5 51.5 -19.5 ZM386 219 l-273 0 l3 43 l273 0 l-3 -43 Z" /><glyph glyph-name="oe" unicode="&#x153;" d="M204 -11 q-57 0 -95 24.5 q-38 24.5 -57 67 q-19 42.5 -19 97.5 q0 63 18.5 118 q18.5 55 52.5 96 q34 41 80.5 64.5 q46.5 23.5 102.5 23.5 q51 0 86.5 -23.5 q35.5 -23.5 56.5 -66.5 l20 0 l-61 -322 l-21 0 q-34 -40 -75 -59.5 q-41 -19.5 -89 -19.5 ZM220 28 q32 0 57 23.5 q25 23.5 42 63 q17 39.5 26.5 88 q9.5 48.5 9.5 98.5 q0 39 -7 71 q-7 32 -24 51 q-17 19 -48 19 q-33 0 -58 -23 q-25 -23 -42 -62 q-17 -39 -26 -87.5 q-9 -48.5 -9 -99.5 q0 -37 6.5 -69.5 q6.5 -32.5 23.5 -52.5 q17 -20 49 -20 ZM483 -13 q-51 0 -76.5 26 q-25.5 26 -39.5 73 l58 291 q33 47 80.5 75 q47.5 28 106.5 28 q23 0 49 -7 q26 -7 45 -26 q19 -19 19 -56 q0 -52 -28.5 -87.5 q-28.5 -35.5 -73.5 -57.5 q-45 -22 -94.5 -33.5 q-49.5 -11.5 -92.5 -14.5 l0 33 q53 2 95 22 q42 20 66.5 55.5 q24.5 35.5 24.5 81.5 q0 53 -38 53 q-26 0 -51 -23 q-25 -23 -45.5 -61 q-20.5 -38 -32.5 -83 q-12 -45 -12 -90 q0 -71 26.5 -98.5 q26.5 -27.5 70.5 -27.5 q42 0 75 15.5 q33 15.5 61 51.5 l21 -17 q-32 -50 -68 -76.5 q-36 -26.5 -73 -36.5 q-37 -10 -73 -10 Z" /><glyph glyph-name="uni01A5" unicode="&#x1a5;" d="M200 -220 l-216 0 l146 706 q15 69 48 120 q33 51 84 79 q51 28 117 28 q33 0 58 -7 q25 -7 39 -21.5 q14 -14.5 14 -38.5 q0 -27 -15.5 -39.5 q-15.5 -12.5 -36.5 -12.5 q-20 0 -31 12 q-11 12 -19.5 28 q-8.5 16 -21.5 28 q-13 12 -38 12 q-27 0 -50.5 -22 q-23.5 -22 -34.5 -77 l-35 -178 l6 0 l-103 -493 q-1 -7 -2.5 -19 q-1.5 -12 -1.5 -23 q0 -17 20.5 -33.5 q20.5 -16.5 80.5 -16.5 l-8 -32 ZM224 -11 q-26 0 -56 10.5 q-30 10.5 -41 20.5 l13 54 q11 -12 33.5 -25.5 q22.5 -13.5 52.5 -13.5 q72 0 114.5 71 q42.5 71 42.5 201 q0 47 -12 71 q-12 24 -28 32 q-16 8 -29 8 q-31 0 -54 -17.5 q-23 -17.5 -40 -45.5 q-17 -28 -30 -61 l10 88 q37 46 72 71.5 q35 25.5 80 25.5 q39 0 70 -19 q31 -19 49.5 -57 q18.5 -38 18.5 -96 q0 -94 -35 -165.5 q-35 -71.5 -94.5 -112 q-59.5 -40.5 -136.5 -40.5 Z" /><glyph glyph-name="germandbls" unicode="ß" d="M-40 -227 q-32 0 -55 10.5 q-23 10.5 -35 28 q-12 17.5 -12 39.5 q0 23 12 38.5 q12 15.5 35 15.5 q24 0 33.5 -14 q9.5 -14 12.5 -32.5 q3 -18.5 7.5 -32.5 q4.5 -14 19.5 -14 q16 0 28.5 17.5 q12.5 17.5 23.5 45 q11 27.5 18.5 59 q7.5 31.5 13 59.5 q5.5 28 8.5 47 l69 415 q16 85 45 142 q29 57 77 85 q48 28 121 28 q74 0 118.5 -29 q44.5 -29 44.5 -96 q0 -37 -16.5 -68.5 q-16.5 -31.5 -54.5 -58 q-38 -26.5 -103 -49.5 l0 -4 q28 -9 58.5 -23 q30.5 -14 57 -35 q26.5 -21 43 -53 q16.5 -32 16.5 -78 q0 -57 -19.5 -99 q-19.5 -42 -51.5 -70 q-32 -28 -72 -41 q-40 -13 -81 -13 q-51 0 -77 23 q-26 23 -26 55 q0 22 13 36 q13 14 35 14 q23 0 32.5 -13.5 q9.5 -13.5 13.5 -32 q4 -18.5 10.5 -32 q6.5 -13.5 23.5 -13.5 q25 0 45.5 17 q20.5 17 33 55 q12.5 38 12.5 100 q0 57 -15 91 q-15 34 -45 53 q-30 19 -76 31 l7 46 q55 17 84.5 36.5 q29.5 19.5 41.5 48 q12 28.5 12 69.5 q0 47 -16.5 72.5 q-16.5 25.5 -63.5 25.5 q-35 0 -57 -16 q-22 -16 -34.5 -45 q-12.5 -29 -20.5 -69 l-76 -460 q-5 -27 -14.5 -67 q-9.5 -40 -25.5 -82.5 q-16 -42.5 -40.5 -79.5 q-24.5 -37 -58.5 -60 q-34 -23 -80 -23 ZM146 423 l-96 0 l7 46 l97 0 l-8 -46 Z" /><glyph glyph-name="uni01AD" unicode="&#x1ad;" d="M122 -11 q-33 0 -51 15.5 q-18 15.5 -18 45.5 q0 13 2.5 30.5 q2.5 17.5 4.5 27.5 l67 316 l-58 0 l5 28 q22 11 40.5 20.5 q18.5 9.5 35.5 22.5 q12 50 28.5 84 q16.5 34 44.5 64 q31 33 70 51.5 q39 18.5 95 18.5 q32 0 57.5 -7 q25.5 -7 39.5 -21.5 q14 -14.5 14 -38.5 q0 -27 -15.5 -39.5 q-15.5 -12.5 -37.5 -12.5 q-19 0 -30 12 q-11 12 -20 28 q-9 16 -22 28 q-13 12 -37 12 q-27 0 -46.5 -19 q-19.5 -19 -29.5 -66 l-95 -457 q0 0 -3.5 -18.5 q-3.5 -18.5 -3.5 -31.5 q0 -9 3.5 -15 q3.5 -6 14.5 -6 q20 0 37.5 12 q17.5 12 42.5 43 l23 -17 q-14 -19 -34.5 -45 q-20.5 -26 -50.5 -45.5 q-30 -19.5 -73 -19.5 ZM327 424 l-112 0 l8 43 l113 0 l-9 -43 Z" /><glyph glyph-name="uni0288" unicode="&#x288;" d="M168 -227 q-77 0 -108.5 37 q-31.5 37 -31.5 99 q0 23 3.5 47 q3.5 24 8.5 49 l86 419 l-58 0 l5 28 q34 17 57 32.5 q23 15.5 43.5 41 q20.5 25.5 47.5 67.5 l40 0 q-31 -145 -55 -261.5 q-24 -116.5 -43 -209.5 q-19 -93 -34 -171 q-4 -22 -7 -42.5 q-3 -20.5 -3 -38.5 q0 -26 8 -40.5 q8 -14.5 30 -14.5 q20 0 32.5 12 q12.5 12 22.5 27.5 q10 15.5 22.5 27.5 q12.5 12 31.5 12 q16 0 29 -9 q13 -9 13 -30 q0 -26 -19 -44.5 q-19 -18.5 -50 -28 q-31 -9.5 -71 -9.5 ZM324 424 l-110 0 l8 43 l111 0 l-9 -43 Z" /><glyph glyph-name="tbar" unicode="&#x167;" d="M128 -11 q-34 0 -52 16 q-18 16 -18 45 q0 13 3 30.5 q3 17.5 5 28.5 l66 315 l-58 0 l5 28 q34 17 57 32.5 q23 15.5 43.5 41 q20.5 25.5 47.5 67.5 l40 0 l-28 -126 l97 0 l-9 -43 l-96 0 l-60 -292 q0 0 -3.5 -18.5 q-3.5 -18.5 -3.5 -31.5 q0 -9 3.5 -15 q3.5 -6 14.5 -6 q20 0 38 12 q18 12 42 44 l24 -18 q-15 -19 -35.5 -45 q-20.5 -26 -50.5 -45.5 q-30 -19.5 -72 -19.5 ZM313 276 l-269 0 l8 43 l269 0 l-8 -43 Z" /><glyph glyph-name="uogonek" unicode="&#x173;" d="M389 -218 q-42 0 -67 22.5 q-25 22.5 -25 59.5 q0 28 14.5 50.5 q14.5 22.5 35.5 41 q21 18.5 41 32.5 l0 4 q-27 2 -43 14 q-16 12 -16 41 q0 28 7 56.5 q7 28.5 17 67.5 l-10 0 q-13 -22 -32.5 -52.5 q-19.5 -30.5 -46.5 -60 q-27 -29.5 -61 -49.5 q-34 -20 -77 -20 q-41 0 -56.5 23 q-15.5 23 -15.5 54 q0 19 4 40 q4 21 7 34 l49 214 q0 0 2 10 q2 10 4 22.5 q2 12.5 2 21.5 q0 14 -10 20.5 q-10 6.5 -25 6.5 q-11 0 -19.5 -0.5 q-8.5 -0.5 -13.5 -1.5 l0 32 l147 11 l38 0 l-70 -317 q-1 -4 -4 -19 q-3 -15 -3 -28 q0 -18 7 -30 q7 -12 22 -12 q21 0 44 17.5 q23 17.5 46 46 q23 28.5 43 62 q20 33.5 34.5 68 q14.5 34.5 21.5 63.5 l32 146 l101 0 l-73 -352 q0 0 -3 -16 q-3 -16 -3 -27 q0 -6 4.5 -11.5 q4.5 -5.5 16.5 -5.5 q18 0 33.5 12 q15.5 12 26.5 24.5 q11 12.5 12 13.5 l24 -17 q-20 -30 -41 -53.5 q-21 -23.5 -47 -36.5 q-21 -14 -41.5 -29.5 q-20.5 -15.5 -34 -36 q-13.5 -20.5 -13.5 -49.5 q0 -26 13 -38.5 q13 -12.5 35 -12.5 q28 0 44.5 7.5 q16.5 7.5 39.5 23.5 l16 -21 q-31 -29 -60 -47.5 q-29 -18.5 -73 -18.5 Z" /><glyph glyph-name="uhorn" unicode="&#x1b0;" d="M126 -11 q-41 0 -56.5 23 q-15.5 23 -15.5 54 q0 19 4 40 q4 21 7 34 l49 214 q0 0 2 10 q2 10 4 22.5 q2 12.5 2 21.5 q0 14 -10 20.5 q-10 6.5 -25 6.5 q-11 0 -19.5 -0.5 q-8.5 -0.5 -13.5 -1.5 l0 32 l147 11 l38 0 l-70 -317 q-1 -4 -4 -19 q-3 -15 -3 -28 q0 -18 7 -30 q7 -12 22 -12 q21 0 44 17.5 q23 17.5 46 46 q23 28.5 43 62 q20 33.5 34.5 68 q14.5 34.5 21.5 63.5 l32 146 l66 0 q28 0 44 5 q16 5 23 14.5 q7 9.5 7 22.5 q0 18 -8 31 q-8 13 -8 30 q0 26 15 36 q15 10 32 10 q19 0 32.5 -12 q13.5 -12 13.5 -43 q0 -22 -10.5 -48.5 q-10.5 -26.5 -37 -47 q-26.5 -20.5 -74.5 -25.5 l-67 -325 q0 0 -3 -16 q-3 -16 -3 -27 q0 -6 4.5 -11.5 q4.5 -5.5 16.5 -5.5 q18 0 33.5 12 q15.5 12 26.5 24.5 q11 12.5 12 13.5 l24 -17 q-20 -31 -41.5 -54 q-21.5 -23 -48 -36.5 q-26.5 -13.5 -63.5 -13.5 q-30 0 -49.5 12.5 q-19.5 12.5 -19.5 44.5 q0 28 7 56.5 q7 28.5 17 67.5 l-10 0 q-13 -22 -32.5 -52.5 q-19.5 -30.5 -46.5 -60 q-27 -29.5 -61 -49.5 q-34 -20 -77 -20 Z" /><glyph glyph-name="uni0289" unicode="&#x289;" d="M131 -11 q-40 0 -55.5 23 q-15.5 23 -15.5 54 q0 19 3.5 40 q3.5 21 6.5 34 l49 214 q0 0 2 10 q2 10 4 22.5 q2 12.5 2 21.5 q0 14 -9.5 20.5 q-9.5 6.5 -25.5 6.5 q-11 0 -19 -0.5 q-8 -0.5 -14 -1.5 l0 32 l148 11 l37 0 l-70 -317 q-1 -4 -3.5 -19 q-2.5 -15 -2.5 -28 q0 -18 6.5 -30 q6.5 -12 21.5 -12 q21 0 44 17.5 q23 17.5 46 46 q23 28.5 43 62 q20 33.5 35 68 q15 34.5 21 63.5 l32 146 l102 0 l-73 -352 q0 0 -3 -16 q-3 -16 -3 -27 q0 -6 4 -11.5 q4 -5.5 16 -5.5 q18 0 34 12 q16 12 26.5 24.5 q10.5 12.5 11.5 13.5 l25 -17 q-21 -31 -42.5 -54 q-21.5 -23 -48 -36.5 q-26.5 -13.5 -63.5 -13.5 q-30 0 -49.5 12.5 q-19.5 12.5 -19.5 44.5 q0 28 7.5 56.5 q7.5 28.5 17.5 67.5 l-10 0 q-13 -22 -33 -52.5 q-20 -30.5 -46.5 -60 q-26.5 -29.5 -61 -49.5 q-34.5 -20 -77.5 -20 ZM540 259 l-507 0 l10 43 l507 0 l-10 -43 Z" /><glyph glyph-name="uni028B" unicode="&#x28b;" d="M210 -11 q-51 0 -82.5 17.5 q-31.5 17.5 -45.5 47 q-14 29.5 -14 68.5 q0 10 1 24 q1 14 5 28 l42 197 q3 18 3 30 q0 19 -11.5 24.5 q-11.5 5.5 -36.5 6.5 q-3 0 -6 -0.5 q-3 -0.5 -7 -0.5 l4 33 l148 13 l29 0 l-59 -276 q-3 -14 -5 -28.5 q-2 -14.5 -2 -31.5 q0 -38 18.5 -61 q18.5 -23 63.5 -23 q42 0 72.5 18.5 q30.5 18.5 49.5 48.5 q19 30 28.5 66.5 q9.5 36.5 9.5 72.5 q0 40 -9 65 q-9 25 -20.5 42.5 q-11.5 17.5 -20.5 32 q-9 14.5 -9 31.5 q0 20 12.5 35 q12.5 15 37.5 15 q30 0 45.5 -21 q15.5 -21 21 -53 q5.5 -32 5.5 -65 q0 -71 -16.5 -135 q-16.5 -64 -50 -113.5 q-33.5 -49.5 -83.5 -78.5 q-50 -29 -118 -29 Z" /><glyph glyph-name="uni0250" unicode="&#x250;" d="M214 -12 q-72 0 -115 27 q-43 27 -43 77 q0 13 2 28 q2 15 5 29 l47 206 q3 13 5 27 q2 14 2 24 q0 17 -9.5 23 q-9.5 6 -28.5 6 q-11 0 -20 -1 q-9 -1 -9 -1 l-1 32 l150 11 l30 0 l-13 -62 l8 0 l-7 -18 l-56 -252 q-3 -14 -4 -27 q-1 -13 -1 -23 q0 -34 13.5 -50.5 q13.5 -16.5 45.5 -16.5 q29 0 45.5 11 q16.5 11 25.5 28.5 q9 17.5 14 38.5 q6 22 20 36.5 q14 14.5 39 14.5 q18 0 29.5 -10 q11.5 -10 11.5 -32 q0 -30 -22 -59.5 q-22 -29.5 -63.5 -48 q-41.5 -18.5 -100.5 -18.5 ZM159 181 l5 34 q66 12 112 29.5 q46 17.5 70 45 q24 27.5 24 67.5 q0 32 -15 48 q-15 16 -40 16 q-23 0 -51.5 -12 q-28.5 -12 -60.5 -38 l10 37 q35 31 71 51.5 q36 20.5 85 20.5 q39 0 63.5 -14 q24.5 -14 36 -37.5 q11.5 -23.5 11.5 -52.5 q0 -40 -18.5 -69.5 q-18.5 -29.5 -51 -50.5 q-32.5 -21 -74 -35 q-41.5 -14 -87 -23.5 q-45.5 -9.5 -90.5 -16.5 Z" /><glyph glyph-name="uni0252" unicode="&#x252;" d="M251 -12 q-40 0 -63 15.5 q-23 15.5 -39 37.5 l-5 0 l-37 -46 l-60 0 l75 358 q4 20 5.5 33.5 q1.5 13.5 1.5 21.5 q0 13 -7 20 q-7 7 -26 7 q-8 0 -18.5 -1 q-10.5 -1 -12.5 -1 l0 32 l147 11 l30 0 l-22 -90 l6 0 q36 48 72.5 71 q36.5 23 80.5 23 q34 0 63 -18 q29 -18 47 -55.5 q18 -37.5 18 -98.5 q0 -71 -22 -130 q-22 -59 -58.5 -101.5 q-36.5 -42.5 -82.5 -65.5 q-46 -23 -93 -23 ZM255 28 q33 0 59.5 22.5 q26.5 22.5 46 60.5 q19.5 38 30 85.5 q10.5 47.5 10.5 97.5 q0 65 -19 91 q-19 26 -50 26 q-27 0 -52.5 -17 q-25.5 -17 -44 -45.5 q-18.5 -28.5 -27.5 -64.5 q-5 -19 -12 -51 q-7 -32 -12 -64 q-5 -32 -5 -51 q0 -22 8.5 -42.5 q8.5 -20.5 25 -34 q16.5 -13.5 42.5 -13.5 Z" /><glyph glyph-name="uni1D00" unicode="&#x1d00;" d="M112 0 l-172 0 l7 34 q22 0 36 5 q14 5 28.5 21 q14.5 16 35.5 48 l232 370 l60 0 l77 -380 q10 -36 22.5 -50 q12.5 -14 44.5 -14 l-7 -34 l-221 0 l7 34 q20 0 37 4.5 q17 4.5 17 29.5 q0 7 -1 15.5 q-1 8.5 -3 17.5 l-48 277 l-3 0 l-172 -286 q-10 -17 -13.5 -24 q-3.5 -7 -3.5 -17 q0 -10 11 -13.5 q11 -3.5 36 -3.5 l-7 -34 ZM342 155 l-237 0 l4 37 l233 0 l0 -37 Z" /><glyph glyph-name="uni0180" unicode="&#x180;" d="M200 -13 q-89 0 -165 37 l116 578 q1 3 2.5 14.5 q1.5 11.5 1.5 20.5 q0 17 -10.5 22.5 q-10.5 5.5 -25.5 5.5 q-8 0 -19.5 -1 q-11.5 -1 -11.5 -1 l0 32 l145 10 l34 0 l-62 -301 l5 0 q23 24 43.5 40.5 q20.5 16.5 43 24.5 q22.5 8 47.5 8 q59 0 99 -43 q40 -43 40 -133 q0 -64 -18.5 -120.5 q-18.5 -56.5 -54.5 -100 q-36 -43.5 -89 -68.5 q-53 -25 -121 -25 ZM220 35 q53 0 87.5 35.5 q34.5 35.5 51.5 95.5 q17 60 17 133 q0 67 -20.5 92.5 q-20.5 25.5 -49.5 25.5 q-28 0 -51.5 -16.5 q-23.5 -16.5 -39.5 -40.5 q-16 -24 -26 -47 l-47 -244 q10 -9 31 -21.5 q21 -12.5 47 -12.5 ZM404 534 l-335 0 l9 42 l335 0 l-9 -42 Z" /><glyph glyph-name="uni0299" unicode="&#x299;" d="M230 0 l-252 0 l7 34 q34 0 50 5.5 q16 5.5 23 20.5 q7 15 13 43 l55 262 q2 12 4 22 q2 10 2 17 q0 18 -13 24.5 q-13 6.5 -48 6.5 l7 34 l220 0 q32 0 60.5 -5 q28.5 -5 51 -16 q22.5 -11 35 -30 q12.5 -19 12.5 -46 q0 -37 -17 -61.5 q-17 -24.5 -46.5 -39.5 q-29.5 -15 -69.5 -25 l-1 -4 q27 -3 52.5 -13.5 q25.5 -10.5 42 -31 q16.5 -20.5 16.5 -55.5 q0 -36 -16 -63 q-16 -27 -44.5 -44.5 q-28.5 -17.5 -65.5 -26 q-37 -8.5 -78 -8.5 ZM200 38 q21 0 42.5 4.5 q21.5 4.5 40.5 16 q19 11.5 31 32.5 q12 21 12 53 q0 32 -15 49.5 q-15 17.5 -36.5 24 q-21.5 6.5 -43.5 6.5 l-57 0 l5 40 l66 0 q53 0 81 28.5 q28 28.5 28 71.5 q0 33 -19 50 q-19 17 -57 17 q-17 0 -28.5 -0.5 q-11.5 -0.5 -11.5 -0.5 l-82 -389 q4 -1 17 -2 q13 -1 27 -1 Z" /><glyph glyph-name="uni0255" unicode="&#x255;" d="M58 -121 l-34 15 q26 49 57 101 q31 52 66 96.5 q35 44.5 75 73 q40 28.5 84 28.5 q33 0 55 -17 q22 -17 22 -51 q0 -33 -23 -65 q-23 -32 -64.5 -52.5 q-41.5 -20.5 -97.5 -20.5 q-59 0 -96 24.5 q-37 24.5 -53.5 65 q-16.5 40.5 -16.5 91.5 q0 60 21 116.5 q21 56.5 58 100.5 q37 44 85 69.5 q48 25.5 104 25.5 q50 0 85 -23.5 q35 -23.5 35 -71.5 q0 -31 -15.5 -53 q-15.5 -22 -46.5 -22 q-20 0 -31.5 10 q-11.5 10 -11.5 29 q0 20 9 37.5 q9 17.5 9 29.5 q0 11 -12 19 q-12 8 -34 8 q-37 0 -65.5 -22.5 q-28.5 -22.5 -48 -60 q-19.5 -37.5 -29.5 -84 q-10 -46.5 -10 -94.5 q0 -75 25 -103.5 q25 -28.5 71 -28.5 q50 0 79 23 q29 23 29 50 q0 13 -7.5 22 q-7.5 9 -28.5 9 q-33 0 -66.5 -25 q-33.5 -25 -65 -66 q-31.5 -41 -59.5 -89 q-28 -48 -53 -95 Z" /><glyph glyph-name="uni0297" unicode="&#x297;" d="M212 -183 q-59 0 -102.5 31.5 q-43.5 31.5 -67 87 q-23.5 55.5 -23.5 124.5 q0 85 23 160.5 q23 75.5 63.5 134 q40.5 58.5 94.5 92 q54 33.5 116 33.5 q59 0 90.5 -27.5 q31.5 -27.5 31.5 -71.5 q0 -34 -16 -56 q-16 -22 -46 -22 q-20 0 -31.5 10 q-11.5 10 -11.5 26 q0 25 9 44.5 q9 19.5 9 32.5 q0 11 -10 19 q-10 8 -35 8 q-36 0 -65.5 -24 q-29.5 -24 -52.5 -62.5 q-23 -38.5 -38.5 -85.5 q-15.5 -47 -24 -92.5 q-8.5 -45.5 -8.5 -83.5 q0 -98 33.5 -153.5 q33.5 -55.5 102.5 -55.5 q47 0 82 20.5 q35 20.5 58 48.5 l20 -17 q-18 -28 -46 -56 q-28 -28 -66.5 -46.5 q-38.5 -18.5 -88.5 -18.5 Z" /><glyph glyph-name="uni0221" unicode="&#x221;" d="M332 -125 l-33 14 q21 39 44.5 80 q23.5 41 51 80 q27.5 39 57.5 70 q30 31 62.5 49.5 q32.5 18.5 67.5 18.5 q31 0 52.5 -15.5 q21.5 -15.5 21.5 -49.5 q0 -36 -27.5 -66.5 q-27.5 -30.5 -73 -49 q-45.5 -18.5 -101.5 -18.5 q-38 0 -67 9 q-29 9 -45.5 28 q-16.5 19 -16.5 47 q0 9 3 21.5 q3 12.5 20 38.5 l27 -51 l-58 0 q-35 -45 -70.5 -69.5 q-35.5 -24.5 -80.5 -24.5 q-42 0 -71.5 20.5 q-29.5 20.5 -45.5 59.5 q-16 39 -16 95 q0 64 20 121.5 q20 57.5 54.5 102 q34.5 44.5 80.5 69.5 q46 25 98 25 q32 0 57 -10 q25 -10 43 -28 l3 0 l31 160 q0 0 1.5 11 q1.5 11 1.5 21 q0 13 -6 22 q-6 9 -29 9 q-9 0 -19.5 -1 q-10.5 -1 -10.5 -1 l0 31 l148 11 l30 0 l-112 -581 q-2 -11 -4 -20.5 q-2 -9.5 -2 -19.5 q0 -18 12 -31 q12 -13 51 -13 q40 0 69.5 13 q29.5 13 46 32 q16.5 19 16.5 36 q0 13 -8.5 21 q-8.5 8 -27.5 8 q-33 0 -66.5 -25 q-33.5 -25 -65 -66.5 q-31.5 -41.5 -60.5 -90 q-29 -48.5 -53 -93.5 ZM210 58 q44 0 73 30 q29 30 48 87 q11 33 18 68.5 q7 35.5 10 65 q3 29.5 3 41.5 q0 23 -8.5 43 q-8.5 20 -26 33 q-17.5 13 -43.5 13 q-33 0 -59.5 -23 q-26.5 -23 -45.5 -62.5 q-19 -39.5 -29 -86.5 q-10 -47 -10 -96 q0 -67 19 -90 q19 -23 51 -23 Z" /><glyph glyph-name="uni1D81" unicode="&#x1d81;" d="M166 -13 q-57 0 -95 41.5 q-38 41.5 -38 133.5 q0 65 20 122.5 q20 57.5 55 101.5 q35 44 81 69 q46 25 97 25 q32 0 57 -10 q25 -10 43 -28 l3 0 l31 160 q0 0 1.5 11 q1.5 11 1.5 21 q0 13 -6 22 q-6 9 -29 9 q-9 0 -19.5 -1 q-10.5 -1 -10.5 -1 l0 31 l148 11 l30 0 l-113 -584 q0 0 -2 -15.5 q-2 -15.5 -2 -24.5 q0 -10 5.5 -14.5 q5.5 -4.5 14.5 -4.5 q23 0 42.5 18 q19.5 18 29.5 32 l23 -18 q-16 -23 -36.5 -47.5 q-20.5 -24.5 -47.5 -41 q-27 -16.5 -63 -16.5 q-33 0 -49 15.5 q-16 15.5 -16 40.5 q0 8 1.5 18 q1.5 10 2.5 18 l-9 0 q-34 -45 -70.5 -69.5 q-36.5 -24.5 -80.5 -24.5 ZM339 -223 q-39 0 -61.5 16 q-22.5 16 -22.5 46 q0 22 11.5 33 q11.5 11 28.5 11 q19 0 27.5 -10 q8.5 -10 13.5 -23 q5 -13 11 -23 q6 -10 19 -10 q15 0 30.5 11 q15.5 11 30 37.5 q14.5 26.5 24.5 73.5 l16 73 l-11 9 l78 73 l-33 -145 q-11 -49 -30 -88 q-19 -39 -50 -61.5 q-31 -22.5 -82 -22.5 ZM207 58 q30 0 56 16.5 q26 16.5 44 43 q18 26.5 26 56.5 q14 59 21.5 105 q7.5 46 7.5 69 q0 26 -9 46.5 q-9 20.5 -26.5 32.5 q-17.5 12 -41.5 12 q-34 0 -60.5 -23.5 q-26.5 -23.5 -45.5 -62 q-19 -38.5 -29 -86 q-10 -47.5 -10 -95.5 q0 -67 18.5 -90.5 q18.5 -23.5 48.5 -23.5 Z" /><glyph glyph-name="uni1E9F" unicode="&#x1e9f;" d="M226 -11 q-59 0 -102.5 27 q-43.5 27 -67 72.5 q-23.5 45.5 -23.5 102.5 q0 58 22 101.5 q22 43.5 57.5 76 q35.5 32.5 77.5 55 q42 22.5 81 37.5 l28 -29 q-45 -20 -80.5 -54 q-35.5 -34 -56.5 -84 q-21 -50 -21 -117 q0 -36 8.5 -70.5 q8.5 -34.5 29.5 -56.5 q21 -22 58 -22 q34 0 59 18 q25 18 41.5 47.5 q16.5 29.5 24 64.5 q7.5 35 7.5 69 q0 57 -18 98.5 q-18 41.5 -44 73 q-26 31.5 -53 59.5 q-27 28 -45 58 q-18 30 -18 68 q0 55 46 93 q46 38 136 38 q51 0 85 -11.5 q34 -11.5 50.5 -31 q16.5 -19.5 16.5 -40.5 q0 -18 -11.5 -32.5 q-11.5 -14.5 -36.5 -14.5 q-20 0 -29 9.5 q-9 9.5 -13 23.5 q-4 14 -10 28 q-6 14 -20 23.5 q-14 9.5 -42 9.5 q-40 0 -61.5 -19.5 q-21.5 -19.5 -21.5 -48.5 q0 -27 15 -51 q15 -24 38 -47.5 q23 -23.5 46 -49.5 q22 -24 44.5 -55.5 q22.5 -31.5 37 -70.5 q14.5 -39 14.5 -87 q0 -51 -18.5 -98 q-18.5 -47 -52.5 -84 q-34 -37 -79 -58 q-45 -21 -99 -21 Z" /><glyph glyph-name="uni0258" unicode="&#x258;" d="M156 -11 q-39 0 -66 13 q-27 13 -44 32 q-17 19 -27 39.5 q-10 20.5 -16 34.5 l26 14 q21 -37 46 -55.5 q25 -18.5 61 -18.5 q38 0 68 19 q30 19 50.5 53 q20.5 34 31 78.5 q10.5 44.5 10.5 97.5 q0 74 -20.5 109.5 q-20.5 35.5 -58.5 35.5 q-27 0 -42 -15.5 q-15 -15.5 -21 -37.5 q-6 -22 -6 -44 q0 -39 15.5 -62 q15.5 -23 41 -33 q25.5 -10 53.5 -10 q19 0 38.5 4 q19.5 4 34.5 9 l8 -30 q-26 -11 -55 -16.5 q-29 -5.5 -59 -5.5 q-45 0 -86 14 q-41 14 -66.5 43.5 q-25.5 29.5 -25.5 74.5 q0 43 23 76.5 q23 33.5 63.5 52.5 q40.5 19 89.5 19 q56 0 97 -24.5 q41 -24.5 63 -69 q22 -44.5 22 -106.5 q0 -59 -20 -111.5 q-20 -52.5 -54.5 -92.5 q-34.5 -40 -79.5 -63.5 q-45 -23.5 -95 -23.5 Z" /><glyph glyph-name="uni0259" unicode="&#x259;" d="M140 -13 q-32 0 -61 10 q-29 10 -47.5 32 q-18.5 22 -18.5 59 q0 51 37.5 89 q37.5 38 104.5 64 q67 26 157 41 l-5 -35 q-48 -7 -91.5 -25.5 q-43.5 -18.5 -71.5 -51 q-28 -32.5 -28 -81.5 q0 -28 11.5 -46.5 q11.5 -18.5 34.5 -18.5 q27 0 52 24.5 q25 24.5 44.5 63 q19.5 38.5 30.5 84.5 q11 46 11 89 q0 68 -24.5 96.5 q-24.5 28.5 -73.5 28.5 q-36 0 -69.5 -15.5 q-33.5 -15.5 -61.5 -53.5 l-21 17 q30 49 64.5 75 q34.5 26 69.5 36.5 q35 10.5 65 10.5 q45 0 74.5 -15.5 q29.5 -15.5 47 -41.5 q17.5 -26 25 -58 q7.5 -32 7.5 -65 q0 -56 -19 -112 q-19 -56 -54 -101 q-35 -45 -83.5 -72.5 q-48.5 -27.5 -106.5 -27.5 Z" /><glyph glyph-name="uni025A" unicode="&#x25a;" d="M140 -13 q-32 0 -61 10 q-29 10 -47.5 32.5 q-18.5 22.5 -18.5 59.5 q0 51 36 87 q36 36 104 64 q68 28 165 54 l-4 -34 q-53 -17 -98 -37.5 q-45 -20.5 -72.5 -52 q-27.5 -31.5 -27.5 -81.5 q0 -28 11.5 -46.5 q11.5 -18.5 34.5 -18.5 q26 0 51 23.5 q25 23.5 44.5 63 q19.5 39.5 31 84.5 q11.5 45 11.5 89 q0 63 -23.5 94.5 q-23.5 31.5 -74.5 31.5 q-36 0 -69.5 -15.5 q-33.5 -15.5 -61.5 -53.5 l-21 17 q30 49 64.5 75 q34.5 26 69.5 36.5 q35 10.5 65 10.5 q45 0 74.5 -15.5 q29.5 -15.5 47 -41.5 q17.5 -26 25 -58 q7.5 -32 7.5 -65 q0 -56 -19 -112 q-19 -56 -54 -101 q-35 -45 -83.5 -72.5 q-48.5 -27.5 -106.5 -27.5 ZM525 208 q-38 0 -56.5 21.5 q-18.5 21.5 -18.5 50.5 q0 14 3 25 l-2 1 l-74 -26 l8 36 l116 44 l16 -15 q-2 -7 -5.5 -15.5 q-3.5 -8.5 -3.5 -22.5 q0 -16 7.5 -28.5 q7.5 -12.5 29.5 -12.5 q26 0 42 19 q16 19 17 47 l26 3 l0 -11 q0 -27 -11.5 -54 q-11.5 -27 -34.5 -44.5 q-23 -17.5 -59 -17.5 Z" /><glyph glyph-name="uni025B" unicode="&#x25b;" d="M179 -11 q-46 0 -82.5 14.5 q-36.5 14.5 -57.5 43.5 q-21 29 -21 70 q0 42 19.5 69 q19.5 27 50 42.5 q30.5 15.5 63.5 20.5 l1 6 q-32 10 -58 30 q-26 20 -26 62 q0 42 28 71.5 q28 29.5 73 45.5 q45 16 94 16 q42 0 76.5 -11.5 q34.5 -11.5 54.5 -33.5 q20 -22 20 -56 q0 -25 -13.5 -45 q-13.5 -20 -39.5 -20 q-15 0 -29.5 9 q-14.5 9 -14.5 31 q0 16 6 29.5 q6 13.5 6 22.5 q0 16 -18.5 25.5 q-18.5 9.5 -45.5 9.5 q-42 0 -65.5 -26.5 q-23.5 -26.5 -23.5 -62.5 q0 -33 19.5 -55 q19.5 -22 57.5 -22 l40 0 l-10 -47 l-39 0 q-57 0 -85 -30 q-28 -30 -28 -69 q0 -36 23 -56.5 q23 -20.5 65 -20.5 q34 0 61.5 12 q27.5 12 48.5 30 q21 18 34 34 l22 -17 q-15 -29 -43 -57.5 q-28 -28.5 -68 -46.5 q-40 -18 -95 -18 Z" /><glyph glyph-name="uni025C" unicode="&#x25c;" d="M166 -11 q-47 0 -83 12.5 q-36 12.5 -56.5 34.5 q-20.5 22 -20.5 52 q0 21 13 38.5 q13 17.5 41 17.5 q23 0 33 -11.5 q10 -11.5 14 -28.5 q4 -17 9 -34.5 q5 -17.5 17.5 -29 q12.5 -11.5 39.5 -11.5 q40 0 68 28.5 q28 28.5 28 76.5 q0 31 -11.5 49 q-11.5 18 -29 28 q-17.5 10 -36.5 13.5 q-19 3.5 -34 3.5 l-28 0 l10 47 l28 0 q19 0 41.5 5 q22.5 5 43.5 16 q21 11 34.5 29 q13.5 18 13.5 43 q0 32 -21 45.5 q-21 13.5 -54 13.5 q-43 0 -79 -20.5 q-36 -20.5 -63 -50.5 l-22 18 q35 52 85 79 q50 27 110 27 q41 0 74.5 -12.5 q33.5 -12.5 53.5 -36 q20 -23.5 20 -57.5 q0 -31 -15.5 -51.5 q-15.5 -20.5 -38 -33.5 q-22.5 -13 -47 -21 q-24.5 -8 -42.5 -13 l-1 -5 q28 -4 56 -17.5 q28 -13.5 46.5 -37.5 q18.5 -24 18.5 -61 q0 -40 -21.5 -68 q-21.5 -28 -55 -44.5 q-33.5 -16.5 -71 -24 q-37.5 -7.5 -68.5 -8.5 Z" /><glyph glyph-name="uni025D" unicode="&#x25d;" d="M166 -11 q-46 0 -82 12 q-36 12 -57 34.5 q-21 22.5 -21 51.5 q0 22 13 39.5 q13 17.5 41 17.5 q23 0 33 -11.5 q10 -11.5 14 -28.5 q4 -17 9 -34.5 q5 -17.5 17 -29 q12 -11.5 39 -11.5 q42 0 69.5 29 q27.5 29 27.5 75 q0 31 -11.5 49.5 q-11.5 18.5 -29 28.5 q-17.5 10 -36.5 13.5 q-19 3.5 -34 3.5 l-28 0 l10 47 l28 0 q19 0 41.5 5 q22.5 5 43.5 16 q21 11 34.5 29 q13.5 18 13.5 43 q0 32 -21.5 45.5 q-21.5 13.5 -52.5 13.5 q-44 0 -80 -20.5 q-36 -20.5 -63 -50.5 l-22 18 q35 52 85 79 q50 27 110 27 q41 0 74 -12.5 q33 -12.5 53.5 -35.5 q20.5 -23 20.5 -57 q0 -8 -2 -16 q-2 -8 -5 -15 l1 -2 l82 39 l16 -15 q-3 -8 -6 -16.5 q-3 -8.5 -3 -21.5 q0 -16 7.5 -29 q7.5 -13 29.5 -13 q25 0 41 19 q16 19 18 47 l25 4 l0 -12 q0 -27 -11.5 -54 q-11.5 -27 -34 -44.5 q-22.5 -17.5 -58.5 -17.5 q-39 0 -57 21.5 q-18 21.5 -18 50.5 q0 12 3 23 l-2 1 l-95 -43 q-21 -10 -40.5 -16 q-19.5 -6 -33.5 -10 l-1 -5 q28 -4 56 -17.5 q28 -13.5 46.5 -37.5 q18.5 -24 18.5 -61 q0 -40 -21.5 -67.5 q-21.5 -27.5 -54.5 -44.5 q-33 -17 -70.5 -24.5 q-37.5 -7.5 -69.5 -8.5 Z" /><glyph glyph-name="uni029A" unicode="&#x29a;" d="M198 -11 q-48 0 -89 13 q-41 13 -66 41 q-25 28 -25 72 q0 43 19.5 71 q19.5 28 50 43.5 q30.5 15.5 63.5 19.5 l1 6 q-32 10 -58.5 30 q-26.5 20 -26.5 62 q0 43 28 72 q28 29 73.5 45 q45.5 16 100.5 16 q57 0 104.5 -22 q47.5 -22 75.5 -67 q28 -45 28 -116 q0 -51 -15.5 -101.5 q-15.5 -50.5 -49.5 -92.5 q-34 -42 -87 -67 q-53 -25 -127 -25 ZM211 30 q36 0 65 22.5 q29 22.5 50 59.5 q21 37 32 84 q11 47 11 96 q0 73 -26.5 110.5 q-26.5 37.5 -76.5 37.5 q-31 0 -51.5 -12.5 q-20.5 -12.5 -30 -32.5 q-9.5 -20 -9.5 -41 q0 -36 20.5 -57.5 q20.5 -21.5 59.5 -21.5 l27 0 l-10 -47 l-32 0 q-55 0 -82 -28.5 q-27 -28.5 -27 -74.5 q0 -38 18.5 -66.5 q18.5 -28.5 61.5 -28.5 Z" /><glyph glyph-name="uni025E" unicode="&#x25e;" d="M242 -11 q-69 0 -115 25 q-46 25 -69 71.5 q-23 46.5 -23 108.5 q0 77 33 141.5 q33 64.5 97 104.5 q64 40 157 40 q46 0 83 -11.5 q37 -11.5 59.5 -34.5 q22.5 -23 22.5 -60 q0 -31 -13 -51.5 q-13 -20.5 -34 -33.5 q-21 -13 -44.5 -21 q-23.5 -8 -45.5 -14 l-1 -5 q27 -4 53 -17 q26 -13 44.5 -36.5 q18.5 -23.5 18.5 -61.5 q0 -41 -21.5 -69 q-21.5 -28 -55.5 -44.5 q-34 -16.5 -72.5 -24 q-38.5 -7.5 -73.5 -7.5 ZM248 30 q27 0 50.5 11 q23.5 11 38 33.5 q14.5 22.5 14.5 59.5 q0 40 -16 60 q-16 20 -39 27 q-23 7 -44 7 l-27 0 l11 47 l25 0 q24 0 52.5 8.5 q28.5 8.5 49 29 q20.5 20.5 20.5 55.5 q0 31 -20 52 q-20 21 -61 21 q-41 0 -71 -23 q-30 -23 -49.5 -62 q-19.5 -39 -29 -84 q-9.5 -45 -9.5 -90 q0 -55 13 -88 q13 -33 37 -48.5 q24 -15.5 55 -15.5 Z" /><glyph glyph-name="uni1D07" unicode="&#x1d07;" d="M374 0 l-396 0 l7 34 q32 0 48.5 4.5 q16.5 4.5 24 19.5 q7.5 15 13.5 45 l56 261 q2 12 3.5 22 q1.5 10 1.5 17 q0 18 -13 25 q-13 7 -48 7 l7 34 l389 0 l-22 -125 l-31 0 q1 36 -6 54 q-7 18 -29.5 23.5 q-22.5 5.5 -66.5 5.5 l-75 0 l-82 -387 l65 0 q39 0 65 4.5 q26 4.5 44 16 q18 11.5 33 31.5 q15 20 32 52 l33 0 l-53 -144 ZM334 156 l-32 0 q5 20 5 34 q0 21 -15.5 26 q-15.5 5 -56.5 5 l-78 0 l8 38 l78 0 q36 0 54 5 q18 5 26 19 q8 14 14 44 l33 0 l-36 -171 Z" /><glyph glyph-name="uni0262" unicode="&#x262;" d="M240 -11 q-93 0 -149.5 51 q-56.5 51 -56.5 152 q0 65 24 118 q24 53 64 91 q40 38 90 58.5 q50 20.5 104 20.5 q37 0 59 -7.5 q22 -7.5 36.5 -15.5 q14.5 -8 24.5 -8 q10 0 16.5 8.5 q6.5 8.5 16.5 22.5 l29 0 l-34 -170 l-37 0 q2 43 -12.5 72 q-14.5 29 -41 44 q-26.5 15 -59.5 15 q-47 0 -86 -30.5 q-39 -30.5 -62.5 -85 q-23.5 -54.5 -23.5 -128.5 q0 -82 30.5 -124.5 q30.5 -42.5 79.5 -42.5 q24 0 47.5 8.5 q23.5 8.5 35.5 19.5 l15 75 q2 9 3 16.5 q1 7.5 1 12.5 q0 17 -11.5 23.5 q-11.5 6.5 -41.5 6.5 l6 33 l202 0 l-6 -33 q-33 0 -45 -11.5 q-12 -11.5 -18 -41.5 l-19 -96 q-39 -22 -82.5 -38 q-43.5 -16 -98.5 -16 Z" /><glyph glyph-name="uni029B" unicode="&#x29b;" d="M240 -11 q-93 0 -149.5 51 q-56.5 51 -56.5 153 q0 65 24 118 q24 53 63.5 90.5 q39.5 37.5 90 58 q50.5 20.5 104.5 20.5 q38 0 60.5 -8 q22.5 -8 34.5 -16 q12 -8 21 -8 q15 0 20 25 q13 58 27.5 100.5 q14.5 42.5 40.5 65 q26 22.5 72 22.5 q39 0 59.5 -16 q20.5 -16 20.5 -44 q0 -22 -12.5 -33.5 q-12.5 -11.5 -29.5 -11.5 q-18 0 -26.5 9.5 q-8.5 9.5 -13 23 q-4.5 13.5 -10 23 q-5.5 9.5 -18.5 9.5 q-23 0 -37.5 -42 q-14.5 -42 -30.5 -121 l-30 -148 l-37 0 q3 43 -12 72.5 q-15 29.5 -41.5 44 q-26.5 14.5 -59.5 14.5 q-37 0 -68.5 -18.5 q-31.5 -18.5 -54.5 -51.5 q-23 -33 -36 -77.5 q-13 -44.5 -13 -97.5 q0 -82 30 -124 q30 -42 80 -42 q24 0 47.5 8.5 q23.5 8.5 35.5 19.5 l15 75 q2 8 3 15.5 q1 7.5 1 13.5 q0 17 -11.5 23.5 q-11.5 6.5 -41.5 6.5 l6 33 l202 0 l-6 -33 q-33 0 -45 -11.5 q-12 -11.5 -18 -41.5 l-19 -96 q-39 -22 -82.5 -38 q-43.5 -16 -98.5 -16 Z" /><glyph glyph-name="uni0263" unicode="&#x263;" d="M144 -227 q-46 0 -67 24 q-21 24 -21 54 q0 31 17 64.5 q17 33.5 44 66.5 q27 33 57 60 l10 -46 q-44 -49 -62.5 -81 q-18.5 -32 -18.5 -58 q0 -19 9.5 -32 q9.5 -13 28.5 -13 q21 0 33.5 18 q12.5 18 12.5 52 q0 27 -6 55.5 q-6 28.5 -10 47.5 l-12 5 l0 30 l-59 317 q-4 26 -11 47.5 q-7 21.5 -21 34.5 q-14 13 -43 13 q-7 0 -15.5 -0.5 q-8.5 -0.5 -13.5 -1.5 l0 34 l143 11 l26 0 q11 -19 18.5 -38 q7.5 -19 13 -45 q5.5 -26 11.5 -66 l23 -138 l16 -128 q5 -13 11.5 -39 q6.5 -26 11 -55.5 q4.5 -29.5 4.5 -53.5 q0 -46 -18.5 -77 q-18.5 -31 -48 -46.5 q-29.5 -15.5 -63.5 -15.5 ZM244 34 l-18 72 l22 0 q71 102 106.5 156 q35.5 54 35.5 80 q0 18 -12 32.5 q-12 14.5 -24 30 q-12 15.5 -12 35.5 q0 18 12.5 30.5 q12.5 12.5 36.5 12.5 q32 0 49.5 -22.5 q17.5 -22.5 17.5 -59.5 q0 -28 -11.5 -62.5 q-11.5 -34.5 -40.5 -81.5 q-22 -39 -51 -79.5 q-29 -40.5 -57.5 -77.5 q-28.5 -37 -53.5 -66 Z" /><glyph glyph-name="uniA727" unicode="&#xa727;" d="M195 -221 q-31 0 -53 10 q-22 10 -34.5 28 q-12.5 18 -12.5 39 q0 21 11 37.5 q11 16.5 36 16.5 q23 0 32.5 -14 q9.5 -14 13 -32.5 q3.5 -18.5 8.5 -32 q5 -13.5 19 -13.5 q18 0 32.5 21 q14.5 21 27.5 54 q13 33 23.5 71.5 q10.5 38.5 18.5 73.5 l63 273 q0 0 3.5 18 q3.5 18 3.5 34 q0 16 -5.5 27 q-5.5 11 -21.5 11 q-21 0 -45 -20 q-24 -20 -48.5 -52 q-24.5 -32 -46.5 -68 q-22 -36 -39 -69.5 q-17 -33.5 -27 -54.5 l24 124 q14 26 36 62.5 q22 36.5 52.5 72.5 q30.5 36 68.5 60 q38 24 85 24 q41 0 56 -20.5 q15 -20.5 15 -54.5 q0 -19 -3 -39.5 q-3 -20.5 -6 -33.5 l-55 -245 q-9 -38 -21 -80 q-12 -42 -30.5 -82.5 q-18.5 -40.5 -43.5 -73.5 q-25 -33 -59.5 -52.5 q-34.5 -19.5 -77.5 -19.5 ZM129 0 l-101 0 l126 605 q0 0 2 11.5 q2 11.5 2 22.5 q0 12 -8.5 19 q-8.5 7 -24.5 7 q-10 0 -21 -1 q-11 -1 -11 -1 l0 31 l146 11 l33 0 l-75 -330 l-23 -104 l15 0 l-60 -271 Z" /><glyph glyph-name="uni0267" unicode="&#x267;" d="M128 0 l-101 0 l100 494 q13 68 47.5 117 q34.5 49 85.5 75.5 q51 26.5 116 26.5 q31 0 55 -6.5 q24 -6.5 38.5 -21 q14.5 -14.5 14.5 -37.5 q0 -28 -14.5 -40.5 q-14.5 -12.5 -37.5 -12.5 q-19 0 -29.5 12 q-10.5 12 -19 28 q-8.5 16 -21 28.5 q-12.5 12.5 -34.5 12.5 q-26 0 -52 -21 q-26 -21 -37 -75 l-43 -202 l-23 -107 l15 0 l-60 -271 ZM194 -221 q-31 0 -53 10 q-22 10 -34.5 28 q-12.5 18 -12.5 39 q0 21 11 37.5 q11 16.5 36 16.5 q23 0 32.5 -14 q9.5 -14 13 -32.5 q3.5 -18.5 8.5 -32 q5 -13.5 19 -13.5 q18 0 32.5 21 q14.5 21 27.5 54 q13 33 23.5 71.5 q10.5 38.5 18.5 73.5 l63 273 q0 0 3.5 18 q3.5 18 3.5 34 q0 16 -5.5 27 q-5.5 11 -21.5 11 q-20 0 -44 -20 q-24 -20 -49 -51.5 q-25 -31.5 -46.5 -66.5 q-21.5 -35 -37.5 -66 q-16 -31 -24 -48 l19 112 q14 26 36.5 62.5 q22.5 36.5 52.5 72.5 q30 36 68 60 q38 24 85 24 q41 0 56 -20.5 q15 -20.5 15 -54.5 q0 -19 -3 -39.5 q-3 -20.5 -6 -33.5 l-55 -245 q-9 -38 -21 -80 q-12 -42 -30.5 -82.5 q-18.5 -40.5 -43.5 -73.5 q-25 -33 -59.5 -52.5 q-34.5 -19.5 -77.5 -19.5 Z" /><glyph glyph-name="uni0266" unicode="&#x266;" d="M129 0 l-101 0 l99 494 q14 68 48 117 q34 49 85.5 75.5 q51.5 26.5 116.5 26.5 q31 0 55 -6.5 q24 -6.5 38.5 -21 q14.5 -14.5 14.5 -37.5 q0 -28 -14.5 -40.5 q-14.5 -12.5 -37.5 -12.5 q-19 0 -29.5 12 q-10.5 12 -19 28 q-8.5 16 -21 28.5 q-12.5 12.5 -35.5 12.5 q-26 0 -52 -21 q-26 -21 -37 -75 l-41 -195 l-25 -114 l15 0 l-59 -271 ZM391 -11 q-30 0 -45.5 8.5 q-15.5 8.5 -22 22.5 q-6.5 14 -6.5 28 q0 13 2.5 25 q2.5 12 3.5 16 l58 230 q0 0 3.5 15.5 q3.5 15.5 3.5 30.5 q0 15 -5.5 25.5 q-5.5 10.5 -20.5 10.5 q-21 0 -45.5 -20 q-24.5 -20 -49.5 -51.5 q-25 -31.5 -46.5 -66.5 q-21.5 -35 -38 -66 q-16.5 -31 -23.5 -48 l18 113 q14 25 36.5 61.5 q22.5 36.5 53 72 q30.5 35.5 69.5 60 q39 24.5 86 24.5 q29 0 44.5 -10.5 q15.5 -10.5 21.5 -27.5 q6 -17 6 -35 q0 -20 -4 -42 q-4 -22 -6 -33 l-56 -227 q0 0 -2 -7.5 q-2 -7.5 -2 -16.5 q0 -19 20 -19 q26 0 44.5 18.5 q18.5 18.5 28.5 31.5 l25 -18 q-10 -13 -22.5 -30.5 q-12.5 -17.5 -30 -35 q-17.5 -17.5 -42 -28.5 q-24.5 -11 -56.5 -11 Z" /><glyph glyph-name="uni0265" unicode="&#x265;" d="M458 -220 l-191 0 l64 288 l22 103 l-10 0 q-13 -22 -32.5 -52.5 q-19.5 -30.5 -46.5 -60 q-27 -29.5 -61 -49.5 q-34 -20 -77 -20 q-41 0 -56.5 23 q-15.5 23 -15.5 54 q0 19 4 40 q4 21 7 34 l49 214 q0 0 2 10 q2 10 4 22.5 q2 12.5 2 21.5 q0 14 -10 20.5 q-10 6.5 -25 6.5 q-11 0 -19.5 -0.5 q-8.5 -0.5 -13.5 -1.5 l0 32 l147 11 l38 0 l-70 -317 q-1 -4 -4 -19 q-3 -15 -3 -28 q0 -18 7 -30 q7 -12 22 -12 q21 0 44 17.5 q23 17.5 46 46 q23 28.5 43 62 q20 33.5 34.5 68 q14.5 34.5 21.5 63.5 l32 146 l101 0 l-118 -578 q0 0 -1.5 -8.5 q-1.5 -8.5 -1.5 -22.5 q0 -25 13.5 -38 q13.5 -13 57.5 -13 l-5 -33 Z" /><glyph glyph-name="uni02AE" unicode="&#x2ae;" d="M533 -220 l-191 0 l59 263 l28 128 l-10 0 q-13 -22 -33 -52.5 q-20 -30.5 -46.5 -60 q-26.5 -29.5 -61 -49.5 q-34.5 -20 -76.5 -20 q-41 0 -57 22.5 q-16 22.5 -16 54.5 q0 19 3.5 40 q3.5 21 6.5 34 l36 156 q6 28 11.5 52 q5.5 24 5.5 43 q0 23 -8.5 35.5 q-8.5 12.5 -29.5 12.5 q-21 0 -32.5 -11.5 q-11.5 -11.5 -20.5 -27.5 q-9 -16 -21.5 -27.5 q-12.5 -11.5 -34.5 -11.5 q-19 0 -30 10.5 q-11 10.5 -11 29.5 q0 25 19 42.5 q19 17.5 50.5 27 q31.5 9.5 66.5 9.5 q44 0 75 -16 q31 -16 47.5 -45.5 q16.5 -29.5 16.5 -71.5 q0 -22 -3.5 -43.5 q-3.5 -21.5 -9.5 -47.5 l-22 -97 q-1 -4 -3.5 -19 q-2.5 -15 -2.5 -28 q0 -18 6.5 -30 q6.5 -12 22.5 -12 q20 0 43 17.5 q23 17.5 46 46 q23 28.5 43 62 q20 33.5 35 68 q15 34.5 21 63.5 l33 146 l101 0 l-120 -578 q0 0 -1.5 -8.5 q-1.5 -8.5 -1.5 -22.5 q0 -25 14 -38 q14 -13 58 -13 l-5 -33 Z" /><glyph glyph-name="uni02AF" unicode="&#x2af;" d="M524 -227 q-77 0 -109.5 37 q-32.5 37 -32.5 102 q0 24 4 50.5 q4 26.5 13 69.5 l30 139 l-10 0 q-13 -22 -33 -52.5 q-20 -30.5 -46.5 -60 q-26.5 -29.5 -61 -49.5 q-34.5 -20 -77.5 -20 q-41 0 -56.5 23 q-15.5 23 -15.5 54 q0 19 3.5 40 q3.5 21 6.5 34 l36 156 q6 28 11.5 52 q5.5 24 5.5 43 q0 23 -8.5 35.5 q-8.5 12.5 -29.5 12.5 q-21 0 -32.5 -11.5 q-11.5 -11.5 -20.5 -27.5 q-9 -16 -21.5 -27.5 q-12.5 -11.5 -34.5 -11.5 q-19 0 -30 10.5 q-11 10.5 -11 29.5 q0 25 19 42.5 q19 17.5 50.5 27 q31.5 9.5 66.5 9.5 q44 0 75 -16 q31 -16 47.5 -45.5 q16.5 -29.5 16.5 -71.5 q0 -22 -3.5 -43.5 q-3.5 -21.5 -9.5 -47.5 l-22 -97 q-1 -4 -3.5 -19 q-2.5 -15 -2.5 -28 q0 -18 6.5 -30 q6.5 -12 21.5 -12 q21 0 44 17.5 q23 17.5 46 46 q23 28.5 43 62 q20 33.5 35 68 q15 34.5 21 63.5 l33 146 l101 0 l-105 -507 q-6 -29 -9.5 -53 q-3.5 -24 -3.5 -43 q0 -27 9 -41.5 q9 -14.5 29 -14.5 q21 0 34 12 q13 12 23 27.5 q10 15.5 22.5 27.5 q12.5 12 33.5 12 q14 0 26.5 -8.5 q12.5 -8.5 12.5 -27.5 q0 -28 -19 -46.5 q-19 -18.5 -50 -28 q-31 -9.5 -68 -9.5 Z" /><glyph glyph-name="uni029C" unicode="&#x29c;" d="M519 0 l-235 0 l6 34 q31 0 46 4.5 q15 4.5 22.5 19.5 q7.5 15 13.5 45 l56 261 q2 13 3.5 23 q1.5 10 1.5 17 q0 18 -12 24.5 q-12 6.5 -44 6.5 l7 34 l232 0 l-7 -34 q-33 0 -49 -6 q-16 -6 -22.5 -21 q-6.5 -15 -12.5 -44 l-56 -261 q-2 -12 -3.5 -21.5 q-1.5 -9.5 -1.5 -17.5 q0 -19 13.5 -24.5 q13.5 -5.5 48.5 -5.5 l-7 -34 ZM213 0 l-235 0 l7 34 q32 0 48.5 4.5 q16.5 4.5 24 19.5 q7.5 15 13.5 45 l56 261 q2 13 3.5 22.5 q1.5 9.5 1.5 16.5 q0 18 -13 25 q-13 7 -48 7 l7 34 l233 0 l-7 -34 q-31 0 -46.5 -6 q-15.5 -6 -21.5 -21 q-6 -15 -12 -44 l-56 -261 q-2 -12 -3.5 -22 q-1.5 -10 -1.5 -17 q0 -19 12.5 -24.5 q12.5 -5.5 44.5 -5.5 l-7 -34 ZM440 222 l-291 0 l3 40 l291 0 l-3 -40 Z" /><glyph glyph-name="uni0195" unicode="&#x195;" d="M477 -11 q-75 0 -108.5 37 q-33.5 37 -33.5 91 q0 13 1.5 28 q1.5 15 4.5 27 l34 147 q0 0 3.5 15.5 q3.5 15.5 3.5 31.5 q0 15 -5.5 25 q-5.5 10 -20.5 10 q-21 0 -44.5 -20 q-23.5 -20 -47.5 -52 q-24 -32 -44.5 -66.5 q-20.5 -34.5 -36.5 -65.5 q-16 -31 -23 -48 l17 111 q15 28 37.5 65 q22.5 37 52 72.5 q29.5 35.5 67.5 59 q38 23.5 83 23.5 q41 0 56 -23.5 q15 -23.5 15 -50.5 q0 -20 -4 -41.5 q-4 -21.5 -6 -32.5 l-28 -125 q-3 -14 -6.5 -35 q-3.5 -21 -3.5 -41 q0 -23 7 -41 q7 -18 23.5 -28 q16.5 -10 45.5 -10 q42 0 71 19 q29 19 46.5 49.5 q17.5 30.5 25.5 66.5 q8 36 8 71 q0 43 -9 69 q-9 26 -19.5 43.5 q-10.5 17.5 -19.5 31.5 q-9 14 -9 32 q0 22 14 36 q14 14 36 14 q27 0 42.5 -20.5 q15.5 -20.5 22 -54 q6.5 -33.5 6.5 -75.5 q0 -65 -15 -127 q-15 -62 -46.5 -111 q-31.5 -49 -79 -78 q-47.5 -29 -113.5 -29 ZM129 0 l-101 0 l126 605 q0 0 2 12 q2 12 2 20 q0 28 -34 28 q-8 0 -19.5 -1 q-11.5 -1 -11.5 -1 l0 31 l146 11 l33 0 l-77 -347 l-21 -87 l15 0 l-60 -271 Z" /><glyph glyph-name="uni026A" unicode="&#x26a;" d="M218 0 l-240 0 l7 34 q32 0 48.5 4.5 q16.5 4.5 24 19.5 q7.5 15 13.5 45 l56 261 q6 29 5 44 q-1 15 -14 21 q-13 6 -47 6 l7 34 l237 0 l-7 -34 q-33 0 -49 -6 q-16 -6 -22.5 -21 q-6.5 -15 -12.5 -44 l-56 -261 q-6 -29 -5 -44 q1 -15 15.5 -20 q14.5 -5 46.5 -5 l-7 -34 Z" /><glyph glyph-name="uni029D" unicode="&#x29d;" d="M-49 -226 q-28 0 -52 10 q-24 10 -38 29 q-14 19 -14 47 q0 36 22 62 q22 26 58.5 40 q36.5 14 79.5 14 q46 0 85.5 -14 q39.5 -14 70.5 -34 q31 -20 50 -39 l-26 -26 q-33 31 -80 53 q-47 22 -100 22 q-30 0 -55.5 -8 q-25.5 -8 -41.5 -25 q-16 -17 -16 -43 q0 -26 18 -37.5 q18 -11.5 36 -11.5 q34 0 56 31 q22 31 36 83 q14 52 26 115 l62 333 q0 0 1.5 9.5 q1.5 9.5 1.5 22.5 q0 10 -6 19 q-6 9 -26 9 q-13 0 -23.5 -1 q-10.5 -1 -10.5 -1 l0 32 l150 11 l31 0 l-71 -394 q-6 -33 -16 -74 q-10 -41 -25.5 -82 q-15.5 -41 -40 -75.5 q-24.5 -34.5 -59 -55.5 q-34.5 -21 -83.5 -21 ZM209 552 q-29 0 -45.5 16 q-16.5 16 -16.5 45 q0 29 16.5 45.5 q16.5 16.5 45.5 16.5 q30 0 46 -17 q16 -17 16 -45 q0 -28 -16 -44.5 q-16 -16.5 -46 -16.5 Z" /><glyph glyph-name="uni025F" unicode="&#x25f;" d="M-36 -220 q-52 0 -79 22.5 q-27 22.5 -27 56.5 q0 19 11 35.5 q11 16.5 34 16.5 q24 0 33.5 -14 q9.5 -14 13 -32 q3.5 -18 8.5 -32 q5 -14 20 -14 q14 0 27 16 q13 16 23.5 42 q10.5 26 18.5 56.5 q8 30.5 14.5 59.5 q6.5 29 10.5 51 l62 331 q0 0 1.5 9.5 q1.5 9.5 1.5 22.5 q0 10 -6 19 q-6 9 -26 9 q-13 0 -23.5 -1 q-10.5 -1 -10.5 -1 l0 32 l149 11 l32 0 l-71 -392 q-6 -33 -16 -73 q-10 -40 -26 -80.5 q-16 -40.5 -40 -75 q-24 -34.5 -57 -55 q-33 -20.5 -78 -20.5 ZM284 237 l-251 0 l8 41 l250 0 l-7 -41 Z" /><glyph glyph-name="uni1D84" unicode="&#x1d84;" d="M131 0 l-101 0 l120 603 q0 0 1.5 9.5 q1.5 9.5 1.5 21.5 q0 10 -5.5 20.5 q-5.5 10.5 -25.5 10.5 q-13 0 -23.5 -1 q-10.5 -1 -10.5 -1 l0 31 l150 11 l29 0 l-95 -476 l-3 -29 l-38 -200 ZM316 -225 q-39 0 -61.5 16 q-22.5 16 -22.5 46 q0 22 12 33 q12 11 29 11 q18 0 26.5 -10 q8.5 -10 14 -23 q5.5 -13 11.5 -23 q6 -10 19 -10 q15 0 30.5 11 q15.5 11 30 37.5 q14.5 26.5 23.5 73.5 l16 74 l-11 8 l80 80 l-35 -151 q-11 -50 -29 -89 q-18 -39 -50 -61.5 q-32 -22.5 -83 -22.5 ZM364 -10 q-30 0 -49 14.5 q-19 14.5 -28.5 34 q-9.5 19.5 -15.5 35.5 l-64 169 l72 57 l79 -184 q11 -25 22 -40 q11 -15 31 -15 q28 0 44.5 15.5 q16.5 15.5 33.5 38.5 l24 -16 q-6 -10 -17.5 -28 q-11.5 -18 -29.5 -37 q-18 -19 -43 -31.5 q-25 -12.5 -59 -12.5 ZM218 233 l-63 -56 l5 65 l20 0 l149 134 q10 10 16 18.5 q6 8.5 6 20.5 q0 13 -12 19.5 q-12 6.5 -33 6.5 l3 28 l222 0 l-3 -28 q-49 -1 -78 -20 q-29 -19 -53 -40 l-122 -105 l-57 -43 Z" /><glyph glyph-name="uni029E" unicode="&#x29e;" d="M444 -220 l-188 0 l96 464 l3 29 l38 200 l101 0 l-113 -578 q0 0 -1.5 -9 q-1.5 -9 -1.5 -22 q0 -26 13.5 -38.5 q13.5 -12.5 57.5 -12.5 l-5 -33 ZM211 0 l-222 0 l3 28 q49 2 77.5 20 q28.5 18 53.5 40 l128 111 l48 35 l70 62 l-5 -65 l-20 0 l-153 -139 q-10 -9 -16 -18 q-6 -9 -6 -19 q0 -14 11 -20.5 q11 -6.5 34 -6.5 l-3 -28 ZM317 230 l-72 -57 l-79 184 q-10 26 -21.5 41.5 q-11.5 15.5 -34.5 15.5 q-22 0 -41 -13.5 q-19 -13.5 -35 -35.5 l-24 16 q9 14 28.5 38.5 q19.5 24.5 50 43.5 q30.5 19 69.5 19 q31 0 49.5 -13 q18.5 -13 29 -32 q10.5 -19 17.5 -38 l63 -169 Z" /><glyph glyph-name="uni026C" unicode="&#x26c;" d="M168 -10 q-38 0 -54.5 15.5 q-16.5 15.5 -16.5 42.5 q0 12 2 28.5 q2 16.5 5.5 34.5 q3.5 18 5.5 33 l95 460 q0 0 1.5 10 q1.5 10 1.5 20 q0 16 -7 24 q-7 8 -28 8 q-9 0 -19 -1 q-10 -1 -10 -1 l0 30 l151 11 l28 0 l-115 -582 q-1 -5 -2.5 -13.5 q-1.5 -8.5 -2.5 -16.5 q-1 -8 -1 -13 q0 -10 5.5 -14.5 q5.5 -4.5 15.5 -4.5 q24 0 43 19 q19 19 30 31 l24 -17 q-18 -25 -38 -49 q-20 -24 -47.5 -39.5 q-27.5 -15.5 -66.5 -15.5 ZM159 227 q-66 0 -103 28.5 q-37 28.5 -37 78.5 q0 40 21 67.5 q21 27.5 53 42 q32 14.5 66 14.5 q10 0 21 -2 q11 -2 22 -8 l-18 -27 q-5 2 -10 3 q-5 1 -10 1 q-21 0 -40 -10.5 q-19 -10.5 -30.5 -28.5 q-11.5 -18 -11.5 -42 q0 -35 25.5 -49.5 q25.5 -14.5 64.5 -14.5 q48 0 86 16 q38 16 62.5 35.5 q24.5 19.5 34.5 28.5 l17 -17 q-9 -15 -26.5 -34.5 q-17.5 -19.5 -44 -38 q-26.5 -18.5 -62 -31 q-35.5 -12.5 -80.5 -12.5 Z" /><glyph glyph-name="uni0234" unicode="&#x234;" d="M64 -125 l-33 14 q20 39 44 80 q24 41 51.5 80 q27.5 39 57.5 70 q30 31 62 49.5 q32 18.5 68 18.5 q31 0 52.5 -15.5 q21.5 -15.5 21.5 -49.5 q0 -36 -27.5 -66.5 q-27.5 -30.5 -73 -49 q-45.5 -18.5 -102.5 -18.5 q-39 0 -69.5 9.5 q-30.5 9.5 -48.5 29.5 q-18 20 -18 50 q0 13 3 31 q3 18 7 39 l94 457 q0 0 1.5 10 q1.5 10 1.5 22 q0 10 -5.5 20 q-5.5 10 -25.5 10 q-13 0 -23 -1 q-10 -1 -10 -1 l0 30 l151 11 l28 0 l-116 -583 q-1 -10 -3.5 -19.5 q-2.5 -9.5 -2.5 -18.5 q0 -19 13 -31.5 q13 -12.5 51 -12.5 q40 0 69.5 13 q29.5 13 46 32 q16.5 19 16.5 36 q0 13 -8.5 21 q-8.5 8 -27.5 8 q-33 0 -66.5 -25 q-33.5 -25 -65 -66.5 q-31.5 -41.5 -60.5 -90 q-29 -48.5 -53 -93.5 Z" /><glyph glyph-name="uni1D85" unicode="&#x1d85;" d="M115 -10 q-37 0 -53.5 15.5 q-16.5 15.5 -16.5 41.5 q0 19 4.5 46.5 q4.5 27.5 8.5 50.5 l95 460 q0 0 1.5 10 q1.5 10 1.5 22 q0 10 -5.5 20 q-5.5 10 -25.5 10 q-13 0 -23 -1 q-10 -1 -10 -1 l0 30 l151 11 l28 0 l-115 -582 q-2 -8 -4 -22 q-2 -14 -2 -21 q0 -10 5.5 -14.5 q5.5 -4.5 14.5 -4.5 q26 0 44 18.5 q18 18.5 30 31.5 l24 -17 q-17 -24 -38.5 -48 q-21.5 -24 -49.5 -40 q-28 -16 -65 -16 ZM72 -225 q-39 0 -61.5 16 q-22.5 16 -22.5 46 q0 22 12 33 q12 11 29 11 q18 0 26.5 -10 q8.5 -10 14 -23 q5.5 -13 11.5 -23 q6 -10 19 -10 q15 0 30 11 q15 11 30 37.5 q15 26.5 24 73.5 l16 75 l-11 9 l79 73 l-34 -146 q-10 -50 -29 -89 q-19 -39 -50.5 -61.5 q-31.5 -22.5 -82.5 -22.5 Z" /><glyph glyph-name="uni026D" unicode="&#x26d;" d="M165 -227 q-79 0 -112 37.5 q-33 37.5 -33 100.5 q0 22 3.5 48.5 q3.5 26.5 10.5 59.5 l119 585 q0 0 1.5 10 q1.5 10 1.5 22 q0 10 -5.5 20 q-5.5 10 -25.5 10 q-13 0 -23 -1 q-10 -1 -10 -1 l0 30 l151 11 l28 0 l-147 -739 q-3 -16 -6 -33 q-3 -17 -4.5 -33 q-1.5 -16 -1.5 -29 q0 -27 9 -41.5 q9 -14.5 29 -14.5 q21 0 34 12 q13 12 23.5 27 q10.5 15 23.5 27.5 q13 12.5 34 12.5 q14 0 26 -9 q12 -9 12 -28 q0 -27 -18.5 -46 q-18.5 -19 -49.5 -28.5 q-31 -9.5 -70 -9.5 Z" /><glyph glyph-name="uni029F" unicode="&#x29f;" d="M362 0 l-384 0 l7 34 q30 1 46.5 7 q16.5 6 25.5 19.5 q9 13.5 13 37.5 l57 266 q2 13 4 22.5 q2 9.5 2 16.5 q0 18 -13.5 25 q-13.5 7 -48.5 7 l7 34 l238 0 l-7 -34 q-34 0 -50 -7.5 q-16 -7.5 -22 -22.5 q-6 -15 -12 -41 l-56 -257 q-2 -12 -4 -22.5 q-2 -10.5 -2 -16.5 q0 -17 11 -22 q11 -5 37 -5 l31 0 q36 0 57 11.5 q21 11.5 38 37 q17 25.5 41 66.5 l34 0 l-50 -156 Z" /><glyph glyph-name="uni019B" unicode="&#x19b;" d="M379 -12 q-28 0 -44 17 q-16 17 -23.5 46.5 q-7.5 29.5 -9.5 69 q-2 39.5 -2 85.5 q0 41 0 74.5 q0 33.5 -1 68.5 l-5 0 q-10 -13 -29 -43.5 q-19 -30.5 -43.5 -70 q-24.5 -39.5 -50.5 -82.5 q-26 -43 -50 -83 q-24 -40 -42 -70 l-116 0 l1 21 q54 70 111.5 145.5 q57.5 75.5 115 151 q57.5 75.5 108.5 143.5 q-5 84 -24 124 q-19 40 -56 40 q-22 0 -40.5 -11.5 q-18.5 -11.5 -38.5 -29.5 l-23 18 q7 23 25 46.5 q18 23.5 43.5 41 q25.5 17.5 53.5 17.5 q55 0 81.5 -68 q26.5 -68 30.5 -220 q3 -101 5.5 -169.5 q2.5 -68.5 8.5 -109.5 q6 -41 18 -58.5 q12 -17.5 34 -17.5 q22 0 40 14 q18 14 36 34 l24 -18 q-8 -13 -21.5 -31.5 q-13.5 -18.5 -31.5 -35 q-18 -16.5 -39.5 -28 q-21.5 -11.5 -45.5 -11.5 ZM454 589 l-284 -117 l-15 39 l284 116 l15 -38 Z" /><glyph glyph-name="uni0271" unicode="&#x271;" d="M475 -221 q-30 0 -52 10 q-22 10 -34.5 28 q-12.5 18 -12.5 39 q0 21 11 37.5 q11 16.5 36 16.5 q23 0 32.5 -14 q9.5 -14 13 -32.5 q3.5 -18.5 8 -32 q4.5 -13.5 19.5 -13.5 q17 0 32 21 q15 21 28 54 q13 33 23.5 71.5 q10.5 38.5 18.5 73.5 l63 273 q0 0 3.5 18 q3.5 18 3.5 34 q0 16 -5.5 27 q-5.5 11 -20.5 11 q-18 0 -40.5 -20 q-22.5 -20 -47 -52.5 q-24.5 -32.5 -46.5 -70 q-22 -37.5 -39 -72.5 q-17 -35 -25 -60 l13 149 l25 0 q17 33 40 69 q23 36 51.5 66.5 q28.5 30.5 61.5 50 q33 19.5 70 19.5 q38 0 52.5 -21 q14.5 -21 14.5 -54 q0 -19 -3.5 -39.5 q-3.5 -20.5 -5.5 -33.5 l-55 -245 q-9 -38 -21.5 -80 q-12.5 -42 -30.5 -82.5 q-18 -40.5 -43.5 -73.5 q-25.5 -33 -59.5 -52.5 q-34 -19.5 -78 -19.5 ZM147 0 l-101 0 l80 375 q0 0 2 11 q2 11 2 22 q0 13 -7 20 q-7 7 -26 7 q-9 0 -20.5 -1 q-11.5 -1 -11.5 -1 l0 32 l150 11 l27 0 l-51 -216 l-8 -106 l-36 -154 ZM417 0 l-102 0 q11 41 20.5 76.5 q9.5 35.5 17 66.5 q7.5 31 15 59.5 q7.5 28.5 14 57.5 q6.5 29 12.5 61 q1 1 3.5 15.5 q2.5 14.5 2.5 26.5 q0 16 -5.5 27 q-5.5 11 -21.5 11 q-24 0 -52 -27 q-28 -27 -56 -70 q-28 -43 -52 -91.5 q-24 -48.5 -40 -90.5 l6 154 l25 0 q15 28 37 62.5 q22 34.5 50.5 67 q28.5 32.5 64 53.5 q35.5 21 77.5 21 q28 0 42 -10.5 q14 -10.5 20 -26.5 q6 -16 6 -34 q0 -21 -4 -43 q-4 -22 -5 -25 l-20 -74 l-20 -113 l-35 -154 Z" /><glyph glyph-name="uni026F" unicode="&#x26f;" d="M126 -11 q-41 0 -56.5 23 q-15.5 23 -15.5 54 q0 19 4 40 q4 21 6 34 l50 213 q0 0 2 9.5 q2 9.5 4 22 q2 12.5 2 20.5 q0 15 -10 22 q-10 7 -26 7 q-10 0 -18.5 -0.5 q-8.5 -0.5 -13.5 -1.5 l-1 32 l148 11 l38 0 l-70 -316 q-1 -4 -4 -19 q-3 -15 -3 -28 q0 -18 6.5 -30 q6.5 -12 22.5 -12 q22 0 48 25 q26 25 52 65.5 q26 40.5 48 89 q22 48.5 36 96.5 l-37 -167 q-12 -19 -31 -50.5 q-19 -31.5 -44.5 -63.5 q-25.5 -32 -60 -54 q-34.5 -22 -76.5 -22 ZM394 -11 q-28 0 -44 11.5 q-16 11.5 -22.5 29 q-6.5 17.5 -6.5 35.5 q0 13 2 25.5 q2 12.5 6.5 31 q4.5 18.5 10.5 49.5 l-17 0 l21 63 l55 239 l101 0 l-63 -314 q-1 -4 -4 -19 q-3 -15 -3 -28 q0 -19 6.5 -30.5 q6.5 -11.5 21.5 -11.5 q18 0 39 17 q21 17 42.5 45.5 q21.5 28.5 40 62.5 q18.5 34 32.5 68.5 q14 34.5 21 63.5 l-11 -156 l-24 0 q-13 -22 -32 -52.5 q-19 -30.5 -43.5 -60 q-24.5 -29.5 -56.5 -49.5 q-32 -20 -72 -20 ZM651 -10 q-30 0 -49.5 12.5 q-19.5 12.5 -19.5 44.5 q0 24 5.5 51 q5.5 27 13.5 58 q8 31 16 68 l12 84 l36 165 l101 0 l-73 -352 q0 0 -3 -16 q-3 -16 -3 -26 q0 -7 4.5 -12.5 q4.5 -5.5 16.5 -5.5 q18 0 34 12 q16 12 26.5 24.5 q10.5 12.5 11.5 13.5 l24 -17 q-20 -31 -41.5 -54 q-21.5 -23 -48 -36.5 q-26.5 -13.5 -63.5 -13.5 Z" /><glyph glyph-name="uni0270" unicode="&#x270;" d="M711 -220 l-190 0 l88 407 l24 140 l32 146 l102 0 l-119 -577 q0 0 -1.5 -9 q-1.5 -9 -1.5 -23 q0 -25 13.5 -38 q13.5 -13 57.5 -13 l-5 -33 ZM125 -11 q-40 0 -55.5 23 q-15.5 23 -15.5 54 q0 19 4 40 q4 21 6 34 l50 213 q0 0 2 9.5 q2 9.5 4 22 q2 12.5 2 21.5 q0 14 -10 21 q-10 7 -25 7 q-11 0 -19.5 -0.5 q-8.5 -0.5 -13.5 -1.5 l-1 32 l148 11 l38 0 l-70 -316 q-1 -4 -4 -19 q-3 -15 -3 -28 q0 -18 7 -30 q7 -12 22 -12 q18 0 37.5 16 q19.5 16 40.5 43 q21 27 39.5 59.5 q18.5 32.5 33 66 q14.5 33.5 22.5 61.5 l-25 -136 q-13 -21 -32.5 -53 q-19.5 -32 -45 -63.5 q-25.5 -31.5 -59.5 -53 q-34 -21.5 -77 -21.5 ZM394 -11 q-28 0 -44 11.5 q-16 11.5 -22.5 29 q-6.5 17.5 -6.5 36.5 q0 12 2 24 q2 12 6.5 31 q4.5 19 10.5 50 l-17 0 l13 29 l63 273 l101 0 l-63 -314 q-1 -4 -4 -19 q-3 -15 -3 -28 q0 -18 6.5 -30 q6.5 -12 21.5 -12 q18 0 39.5 17.5 q21.5 17.5 42.5 46 q21 28.5 39.5 62 q18.5 33.5 32.5 68 q14 34.5 21 63.5 l-11 -156 l-24 0 q-13 -22 -32 -52.5 q-19 -30.5 -43.5 -60 q-24.5 -29.5 -56.5 -49.5 q-32 -20 -72 -20 Z" /><glyph glyph-name="uni0235" unicode="&#x235;" d="M353 -125 l-33 14 q20 39 44 80 q24 41 51.5 80 q27.5 39 57.5 70 q30 31 62 49.5 q32 18.5 68 18.5 q31 0 52.5 -15.5 q21.5 -15.5 21.5 -49.5 q0 -36 -27.5 -66.5 q-27.5 -30.5 -73.5 -49 q-46 -18.5 -102 -18.5 q-39 0 -69.5 9.5 q-30.5 9.5 -48.5 29.5 q-18 20 -18 50 q0 12 1.5 21 q1.5 9 7.5 33 l49 182 q0 0 3.5 16.5 q3.5 16.5 3.5 33.5 q0 17 -5.5 27.5 q-5.5 10.5 -20.5 10.5 q-21 0 -45 -20.5 q-24 -20.5 -48 -52.5 q-24 -32 -45 -67 q-21 -35 -36.5 -66 q-15.5 -31 -22.5 -49 l17 112 q14 25 36 62 q22 37 52 73.5 q30 36.5 68 61.5 q38 25 85 25 q41 0 55 -22.5 q14 -22.5 14 -51.5 q0 -23 -3.5 -42 q-3.5 -19 -5.5 -30 l-55 -220 q-2 -10 -3.5 -17 q-1.5 -7 -1.5 -14 q0 -19 13 -31 q13 -12 52 -12 q39 0 68.5 13 q29.5 13 46 32 q16.5 19 16.5 36 q0 13 -8.5 21 q-8.5 8 -27.5 8 q-33 0 -66.5 -25 q-33.5 -25 -65 -66.5 q-31.5 -41.5 -60.5 -90 q-29 -48.5 -53 -93.5 ZM148 0 l-101 0 l80 375 q0 0 2 11 q2 11 2 22 q0 13 -8 20 q-8 7 -25 7 q-10 0 -21 -1 q-11 -1 -11 -1 l0 32 l147 11 l30 0 l-50 -208 l17 0 l-62 -268 Z" /><glyph glyph-name="uni0272" unicode="&#x272;" d="M-48 -227 q-50 0 -77 23 q-27 23 -27 57 q0 20 11 36 q11 16 35 16 q23 0 32.5 -14 q9.5 -14 13 -32 q3.5 -18 8.5 -32.5 q5 -14.5 20 -14.5 q14 0 26.5 15.5 q12.5 15.5 23 41 q10.5 25.5 18.5 55 q8 29.5 14 57 q6 27.5 10 47.5 l70 347 q0 0 1.5 10 q1.5 10 1.5 21 q0 12 -6.5 20.5 q-6.5 8.5 -25.5 8.5 q-12 0 -22.5 -1 q-10.5 -1 -10.5 -1 l0 32 l147 11 l30 0 l-47 -208 l12 0 l-44 -198 q-8 -38 -20 -79 q-12 -41 -29 -80 q-17 -39 -40 -70 q-23 -31 -54 -49.5 q-31 -18.5 -71 -18.5 ZM410 -11 q-42 0 -57.5 18.5 q-15.5 18.5 -15.5 43.5 q0 12 2 22.5 q2 10.5 3 15.5 l60 224 q0 0 3.5 16.5 q3.5 16.5 3.5 32.5 q0 17 -5.5 28 q-5.5 11 -21.5 11 q-21 0 -45 -20.5 q-24 -20.5 -48.5 -52.5 q-24.5 -32 -46 -67.5 q-21.5 -35.5 -38 -66.5 q-16.5 -31 -24.5 -49 l20 113 q14 25 36 62 q22 37 52 73.5 q30 36.5 69 61.5 q39 25 87 25 q41 0 55 -23 q14 -23 14 -51 q0 -22 -3 -40.5 q-3 -18.5 -6 -31.5 l-57 -229 q0 0 -1.5 -7.5 q-1.5 -7.5 -1.5 -16.5 q0 -19 19 -19 q25 0 43.5 18 q18.5 18 29.5 32 l24 -18 q-8 -11 -20 -28.5 q-12 -17.5 -30 -35 q-18 -17.5 -42.5 -29.5 q-24.5 -12 -57.5 -12 Z" /><glyph glyph-name="uni0273" unicode="&#x273;" d="M454 -227 q-76 0 -108.5 37 q-32.5 37 -32.5 101 q0 23 4 50 q4 27 13 65 l69 287 q0 0 3.5 16.5 q3.5 16.5 3.5 32.5 q0 17 -5.5 28 q-5.5 11 -21.5 11 q-20 0 -44 -20.5 q-24 -20.5 -48.5 -52.5 q-24.5 -32 -46 -67 q-21.5 -35 -37.5 -66 q-16 -31 -23 -49 l18 112 q13 25 35 62 q22 37 52 73.5 q30 36.5 68.5 61.5 q38.5 25 86.5 25 q42 0 56 -22.5 q14 -22.5 14 -51.5 q0 -23 -3 -41.5 q-3 -18.5 -6 -30.5 l-85 -368 q-6 -30 -10 -53.5 q-4 -23.5 -4 -42.5 q0 -27 9 -41.5 q9 -14.5 29 -14.5 q21 0 33.5 12 q12.5 12 23 27.5 q10.5 15.5 22.5 27.5 q12 12 33 12 q15 0 27 -8.5 q12 -8.5 12 -28.5 q0 -27 -18.5 -45.5 q-18.5 -18.5 -49.5 -28 q-31 -9.5 -69 -9.5 ZM148 0 l-101 0 l80 375 q0 0 1.5 11 q1.5 11 1.5 22 q0 13 -7.5 20 q-7.5 7 -24.5 7 q-10 0 -21 -1 q-11 -1 -11 -1 l0 32 l147 11 l30 0 l-50 -208 l17 0 l-62 -268 Z" /><glyph glyph-name="uni019E" unicode="&#x19e;" d="M482 -220 l-201 0 l117 535 q0 0 3 17 q3 17 3 32 q0 15 -4.5 26 q-4.5 11 -19.5 11 q-21 0 -45 -20.5 q-24 -20.5 -48.5 -52.5 q-24.5 -32 -46 -67 q-21.5 -35 -37.5 -66 q-16 -31 -23 -49 l17 112 q15 26 37 63.5 q22 37.5 52 73.5 q30 36 68.5 60.5 q38.5 24.5 86.5 24.5 q41 0 55.5 -22 q14.5 -22 14.5 -51 q0 -22 -3.5 -41 q-3.5 -19 -5.5 -32 l-92 -436 q-1 -3 -2.5 -13 q-1.5 -10 -1.5 -21 q0 -24 16.5 -38 q16.5 -14 65.5 -14 l-6 -32 ZM148 0 l-101 0 l80 375 q0 0 1.5 11 q1.5 11 1.5 22 q0 13 -7.5 20 q-7.5 7 -24.5 7 q-10 0 -21 -1 q-11 -1 -11 -1 l0 32 l147 11 l30 0 l-50 -208 l17 0 l-62 -268 Z" /><glyph glyph-name="eng" unicode="&#x14b;" d="M213 -227 q-30 0 -52.5 10 q-22.5 10 -35 28 q-12.5 18 -12.5 40 q0 20 11 36.5 q11 16.5 36 16.5 q24 0 33 -13.5 q9 -13.5 12.5 -32 q3.5 -18.5 8.5 -32.5 q5 -14 20 -14 q17 0 32 21 q15 21 28 54.5 q13 33.5 23 71.5 q10 38 19 73 l64 279 q0 0 3 18 q3 18 3 34 q0 16 -5.5 27 q-5.5 11 -21.5 11 q-20 0 -44.5 -20.5 q-24.5 -20.5 -49 -52.5 q-24.5 -32 -46 -67.5 q-21.5 -35.5 -37.5 -67 q-16 -31.5 -24 -49.5 l19 114 q15 26 37 63 q22 37 52 73.5 q30 36.5 68 61 q38 24.5 85 24.5 q41 0 56.5 -20.5 q15.5 -20.5 15.5 -54.5 q0 -19 -3.5 -39.5 q-3.5 -20.5 -6.5 -33.5 l-55 -250 q-9 -38 -21.5 -80.5 q-12.5 -42.5 -30.5 -83 q-18 -40.5 -43.5 -73 q-25.5 -32.5 -59.5 -52.5 q-34 -20 -78 -20 ZM147 0 l-100 0 l80 375 q0 0 2 11 q2 11 2 20 q0 14 -7.5 21.5 q-7.5 7.5 -26.5 7.5 q-8 0 -19.5 -1 q-11.5 -1 -11.5 -1 l0 32 l147 11 l30 0 l-50 -208 l15 0 l-61 -268 Z" /><glyph glyph-name="uni0274" unicode="&#x274;" d="M408 -7 l-54 0 l-200 369 l-18 17 q-11 24 -20 36.5 q-9 12.5 -21.5 16.5 q-12.5 4 -33.5 4 l7 33 l145 0 l177 -325 l21 0 l-27 -45 l53 248 q2 12 4 23 q2 11 2 20 q0 21 -12.5 32.5 q-12.5 11.5 -47.5 12.5 l7 34 l190 0 l-7 -34 q-48 0 -64.5 -22.5 q-16.5 -22.5 -26.5 -68.5 l-74 -351 ZM155 -1 l-188 0 l7 34 q31 0 47.5 6.5 q16.5 6.5 26 24 q9.5 17.5 16.5 52.5 l64 299 l46 -68 l-16 0 l-48 -231 q-2 -14 -3.5 -25 q-1.5 -11 -1.5 -20 q0 -23 13.5 -30.5 q13.5 -7.5 43.5 -7.5 l-7 -34 Z" /><glyph glyph-name="uni0254" unicode="&#x254;" d="M139 -12 q-34 0 -64 10 q-30 10 -48.5 31.5 q-18.5 21.5 -18.5 55.5 q0 30 16 51 q16 21 46 21 q20 0 31.5 -10 q11.5 -10 11.5 -30 q0 -16 -5 -35.5 q-5 -19.5 -5 -29.5 q0 -13 12 -20 q12 -7 33 -7 q39 0 68 24 q29 24 47.5 62 q18.5 38 28 82.5 q9.5 44.5 9.5 86.5 q0 53 -13 81.5 q-13 28.5 -35 39 q-22 10.5 -50 10.5 q-46 0 -79 -20.5 q-33 -20.5 -54 -46.5 l-23 16 q18 29 45 56.5 q27 27.5 64.5 45.5 q37.5 18 86.5 18 q59 0 95 -28 q36 -28 52.5 -72 q16.5 -44 16.5 -94 q0 -83 -34 -151 q-34 -68 -94.5 -107.5 q-60.5 -39.5 -139.5 -39.5 Z" /><glyph glyph-name="uni0276" unicode="&#x276;" d="M210 -9 q-58 0 -97.5 25 q-39.5 25 -59.5 69 q-20 44 -20 101 q0 84 38 150 q38 66 102 104 q64 38 144 38 q25 0 45.5 -3.5 q20.5 -3.5 35.5 -5.5 l306 0 l-22 -125 l-32 0 q2 36 -5 54 q-7 18 -29 24.5 q-22 6.5 -67 6.5 l-71 0 l-82 -389 l57 0 q40 0 66.5 4.5 q26.5 4.5 45 16 q18.5 11.5 33.5 31.5 q15 20 32 52 l33 0 l-53 -144 l-314 0 q-16 -3 -39.5 -6 q-23.5 -3 -46.5 -3 ZM228 31 q29 0 53 16.5 q24 16.5 31 48.5 l58 271 q1 6 1.5 11 q0.5 5 0.5 10 q0 24 -15.5 38.5 q-15.5 14.5 -50.5 14.5 q-54 0 -90 -35.5 q-36 -35.5 -55 -96.5 q-19 -61 -19 -137 q0 -37 7.5 -69 q7.5 -32 27 -52 q19.5 -20 51.5 -20 ZM569 155 l-33 0 q2 10 3 17.5 q1 7.5 1 13.5 q0 23 -16.5 29 q-16.5 6 -54.5 6 l-65 0 l10 38 l64 0 q32 0 50.5 4 q18.5 4 28.5 18 q10 14 16 43 l33 0 l-37 -169 Z" /><glyph glyph-name="uni02A0" unicode="&#x2a0;" d="M443 -220 l-191 0 l66 293 l-9 0 q-31 -37 -58 -55.5 q-27 -18.5 -49 -24.5 q-22 -6 -40 -6 q-67 0 -98 49.5 q-31 49.5 -31 125.5 q0 70 21.5 128 q21.5 58 58.5 100.5 q37 42.5 82.5 66 q45.5 23.5 93.5 23.5 q40 0 64 -14 q24 -14 35 -27 l4 0 l9 44 q14 62 42.5 114 q28.5 52 76 84 q47.5 32 116.5 32 q48 0 78.5 -17 q30.5 -17 30.5 -51 q0 -25 -15 -36.5 q-15 -11.5 -33 -11.5 q-19 0 -29.5 11 q-10.5 11 -19 26 q-8.5 15 -19 26 q-10.5 11 -30.5 11 q-32 0 -53.5 -25 q-21.5 -25 -32.5 -80 l-133 -670 q0 0 -1.5 -9 q-1.5 -9 -1.5 -23 q0 -25 13.5 -38 q13.5 -13 57.5 -13 l-5 -33 ZM207 58 q27 0 52 15 q25 15 44.5 40.5 q19.5 25.5 29.5 58.5 q7 27 13.5 61 q6.5 34 11 65 q4.5 31 4.5 49 q0 39 -20.5 65.5 q-20.5 26.5 -56.5 26.5 q-43 0 -75.5 -37.5 q-32.5 -37.5 -51 -99 q-18.5 -61.5 -18.5 -132.5 q0 -51 13.5 -81.5 q13.5 -30.5 53.5 -30.5 Z" /><glyph glyph-name="uni027D" unicode="&#x27d;" d="M177 -227 q-76 0 -109 36.5 q-33 36.5 -33 97.5 q0 29 5.5 57.5 q5.5 28.5 12.5 63.5 l65 315 q4 15 6.5 32 q2.5 17 2.5 30 q0 14 -6 22 q-6 8 -27 8 q-8 0 -19.5 -1 q-11.5 -1 -11.5 -1 l0 32 l146 11 l31 0 l-47 -205 l14 0 l-69 -305 q-6 -29 -10.5 -50 q-4.5 -21 -4.5 -42 q0 -27 9 -43 q9 -16 30 -16 q21 0 34 12 q13 12 23 27.5 q10 15.5 22.5 27.5 q12.5 12 32.5 12 q14 0 26.5 -9 q12.5 -9 12.5 -28 q0 -27 -18.5 -46 q-18.5 -19 -49.5 -28.5 q-31 -9.5 -68 -9.5 ZM168 114 l30 145 q13 26 29 62.5 q16 36.5 37 72.5 q21 36 48 60.5 q27 24.5 62 24.5 q26 0 43 -15.5 q17 -15.5 17 -47.5 q0 -33 -18 -50 q-18 -17 -40 -17 q-18 0 -27.5 9.5 q-9.5 9.5 -13.5 19.5 q-4 10 -6 10 q-16 0 -36 -24 q-20 -24 -40 -60.5 q-20 -36.5 -37.5 -75.5 q-17.5 -39 -30.5 -70 q-13 -31 -17 -44 Z" /><glyph glyph-name="uni027C" unicode="&#x27c;" d="M212 -220 l-212 0 l120 563 q3 15 6 32 q3 17 3 30 q0 14 -6 22 q-6 8 -27 8 q-8 0 -19.5 -1 q-11.5 -1 -11.5 -1 l0 32 l146 11 l31 0 l-47 -205 l13 0 l-77 -367 q-1 -7 -2.5 -19.5 q-1.5 -12.5 -1.5 -21.5 q0 -12 6.5 -24 q6.5 -12 26.5 -19.5 q20 -7.5 60 -7.5 l-8 -32 ZM168 111 l33 149 q9 18 21 45.5 q12 27.5 27 57.5 q15 30 33.5 56.5 q18.5 26.5 42 43 q23.5 16.5 50.5 16.5 q26 0 43.5 -15.5 q17.5 -15.5 17.5 -46.5 q0 -35 -18 -51.5 q-18 -16.5 -40 -16.5 q-18 0 -27.5 9.5 q-9.5 9.5 -13.5 19.5 q-4 10 -6 10 q-16 0 -36 -24 q-20 -24 -40 -61 q-20 -37 -37.5 -76 q-17.5 -39 -31 -71 q-13.5 -32 -18.5 -45 Z" /><glyph glyph-name="uni0279" unicode="&#x279;" d="M253 -11 q-41 0 -57 18.5 q-16 18.5 -16 44.5 q0 10 3 25 q3 15 10.5 44 q7.5 29 21.5 81 l-13 0 l58 271 l104 0 l-74 -343 q-3 -12 -5 -25.5 q-2 -13.5 -2 -19.5 q0 -13 6 -18 q6 -5 16 -5 q24 0 42.5 18 q18.5 18 29.5 32 l24 -18 q-8 -11 -20 -28.5 q-12 -17.5 -29.5 -35 q-17.5 -17.5 -42 -29.5 q-24.5 -12 -56.5 -12 ZM35 -11 q-26 0 -43.5 16 q-17.5 16 -17.5 47 q0 35 19 51.5 q19 16.5 39 16.5 q18 0 28 -9.5 q10 -9.5 14 -19.5 q4 -10 5 -10 q17 0 36.5 24 q19.5 24 39 60.5 q19.5 36.5 36 74.5 q16.5 38 27.5 66 q11 28 14 35 l-23 -128 q-9 -18 -21 -45.5 q-12 -27.5 -27 -58.5 q-15 -31 -33.5 -58.5 q-18.5 -27.5 -41.5 -44.5 q-23 -17 -51 -17 Z" /><glyph glyph-name="uni027B" unicode="&#x27b;" d="M300 -227 q-76 0 -110 37 q-34 37 -34 100 q0 26 5 54 q5 28 12 60 l47 194 l-9 24 l51 231 l103 0 l-104 -508 q-7 -28 -10.5 -52 q-3.5 -24 -3.5 -43 q0 -27 9.5 -41.5 q9.5 -14.5 29.5 -14.5 q21 0 34 12 q13 12 23 27.5 q10 15.5 22.5 27.5 q12.5 12 32.5 12 q15 0 27 -8.5 q12 -8.5 12 -28.5 q0 -27 -18.5 -45.5 q-18.5 -18.5 -49.5 -28 q-31 -9.5 -69 -9.5 ZM36 -11 q-27 0 -44.5 16 q-17.5 16 -17.5 47 q0 35 19 51.5 q19 16.5 40 16.5 q18 0 27.5 -9.5 q9.5 -9.5 13.5 -19.5 q4 -10 6 -10 q16 0 36 24.5 q20 24.5 40 62 q20 37.5 38 78.5 q18 41 31.5 76.5 q13.5 35.5 20.5 54.5 l-14 -175 l-27 0 q-12 -25 -27.5 -61 q-15.5 -36 -36 -70.5 q-20.5 -34.5 -47 -58 q-26.5 -23.5 -58.5 -23.5 Z" /><glyph glyph-name="uni027A" unicode="&#x27a;" d="M256 -11 q-43 0 -58.5 19.5 q-15.5 19.5 -15.5 43.5 q0 7 1.5 16 q1.5 9 6 27.5 q4.5 18.5 14.5 54 q10 35.5 25 94.5 l1 78 l59 280 q1 1 2.5 11.5 q1.5 10.5 1.5 22.5 q0 11 -6.5 20.5 q-6.5 9.5 -26.5 9.5 q-12 0 -22 -1 q-10 -1 -10 -1 l0 30 l155 11 l29 0 l-119 -573 q-3 -14 -4.5 -27 q-1.5 -13 -1.5 -20 q0 -12 5.5 -17.5 q5.5 -5.5 16.5 -5.5 q23 0 42 18 q19 18 30 32 l24 -18 q-8 -11 -20.5 -28.5 q-12.5 -17.5 -30 -35.5 q-17.5 -18 -42 -29.5 q-24.5 -11.5 -56.5 -11.5 ZM35 -11 q-25 0 -42.5 15.5 q-17.5 15.5 -17.5 46.5 q0 36 18.5 52.5 q18.5 16.5 39.5 16.5 q18 0 27.5 -9.5 q9.5 -9.5 14 -19.5 q4.5 -10 5.5 -10 q16 0 36 24 q20 24 40 61 q20 37 37 75 q17 38 28.5 66.5 q11.5 28.5 13.5 35.5 l-1 -139 l-27 0 q-11 -24 -27 -60 q-16 -36 -37 -71.5 q-21 -35.5 -47.5 -59.5 q-26.5 -24 -60.5 -24 Z" /><glyph glyph-name="uni027E" unicode="&#x27e;" d="M123 0 l-105 0 l49 227 q17 75 48.5 132 q31.5 57 78.5 89 q47 32 108 32 q47 0 77 -18.5 q30 -18.5 30 -52.5 q0 -24 -14.5 -36.5 q-14.5 -12.5 -33.5 -12.5 q-21 0 -31.5 12 q-10.5 12 -18 26.5 q-7.5 14.5 -17 26.5 q-9.5 12 -28.5 12 q-23 0 -42.5 -23 q-19.5 -23 -30.5 -73 l-70 -341 Z" /><glyph glyph-name="uni027F" unicode="&#x27f;" d="M203 -11 q-37 0 -55 17 q-18 17 -18 49 q0 8 1.5 18 q1.5 10 3.5 20 l49 198 q7 29 12 55.5 q5 26.5 5 44.5 q0 48 -39 48 q-20 0 -31.5 -12 q-11.5 -12 -20 -27.5 q-8.5 -15.5 -21 -27.5 q-12.5 -12 -34.5 -12 q-18 0 -31 10.5 q-13 10.5 -13 30.5 q0 24 18.5 41.5 q18.5 17.5 49 27.5 q30.5 10 68.5 10 q46 0 77.5 -14.5 q31.5 -14.5 47.5 -43.5 q16 -29 16 -74 q0 -20 -3 -45 q-3 -25 -8 -46 l-36 -147 q-2 -6 -3 -13.5 q-1 -7.5 -1 -13.5 q0 -12 5.5 -16.5 q5.5 -4.5 14.5 -4.5 q17 0 31 9 q14 9 24.5 21 q10.5 12 16.5 20 l24 -18 q-14 -21 -33.5 -45.5 q-19.5 -24.5 -48 -42 q-28.5 -17.5 -68.5 -17.5 Z" /><glyph glyph-name="uni0280" unicode="&#x280;" d="M181 209 l8 37 l32 -1 q66 2 103 31.5 q37 29.5 37 79.5 q0 29 -12 45.5 q-12 16.5 -31.5 22.5 q-19.5 6 -42.5 6 q-11 0 -19.5 -0.5 q-8.5 -0.5 -18.5 -2.5 l-69 -324 q-3 -12 -4.5 -21.5 q-1.5 -9.5 -1.5 -17.5 q0 -19 12 -24.5 q12 -5.5 46 -6.5 l-7 -33 l-235 0 l7 34 q31 0 47 4 q16 4 24.5 19 q8.5 15 14.5 46 l57 267 q2 11 4 19.5 q2 8.5 1 14.5 q0 17 -13 24 q-13 7 -49 8 l7 33 l208 0 q53 0 92.5 -10 q39.5 -10 61 -34 q21.5 -24 21.5 -66 q0 -33 -14.5 -57 q-14.5 -24 -37.5 -40 q-23 -16 -48.5 -25.5 q-25.5 -9.5 -47.5 -15.5 l0 -3 q12 -7 21.5 -21.5 q9.5 -14.5 25 -44.5 q15.5 -30 45.5 -85 q13 -22 29 -28 q16 -6 41 -6 l-7 -33 l-145 0 q-24 53 -38.5 87.5 q-14.5 34.5 -23.5 57 q-9 22.5 -18 40.5 q-6 13 -13 18.5 q-7 5.5 -22 5.5 l-27 0 Z" /><glyph glyph-name="uni0281" unicode="&#x281;" d="M192 0 l-214 0 l7 34 q33 0 49 5 q16 5 23.5 19 q7.5 14 12.5 40 l56 266 q3 13 4.5 22.5 q1.5 9.5 1.5 16.5 q0 18 -13 25 q-13 7 -48 7 l7 34 l232 0 l-7 -34 q-31 0 -46 -5.5 q-15 -5.5 -21 -20.5 q-6 -15 -12 -42 l-70 -326 q8 -1 17.5 -2 q9.5 -1 20.5 -1 q31 0 59 12 q28 12 46.5 36 q18.5 24 18.5 61 q0 37 -22 57 q-22 20 -65 21 l-45 -4 l7 38 l25 0 q18 0 26 6.5 q8 6.5 21 18.5 q13 14 26.5 30 q13.5 16 31 37 q17.5 21 42 49.5 q24.5 28.5 60.5 68.5 l152 0 l-8 -35 q-27 0 -45.5 -5 q-18.5 -5 -40.5 -28 q-41 -43 -66 -70 q-25 -27 -41.5 -43 q-16.5 -16 -28.5 -25 q-12 -9 -26 -15 l-1 -4 q41 -9 72 -35.5 q31 -26.5 31 -75.5 q0 -37 -20.5 -62.5 q-20.5 -25.5 -55 -41 q-34.5 -15.5 -74.5 -22.5 q-40 -7 -79 -7 Z" /><glyph glyph-name="uni0282" unicode="&#x282;" d="M80 -227 q-57 0 -79 29.5 q-22 29.5 -22 73.5 q0 19 3.5 38 q3.5 19 7.5 40 l41 208 l30 0 q8 -66 28.5 -101 q20.5 -35 71.5 -35 q35 0 55.5 16.5 q20.5 16.5 20.5 51.5 q0 37 -21 64 q-21 27 -52 57 q-34 33 -60 66 q-26 33 -26 79 q0 52 37.5 86 q37.5 34 102.5 34 q38 0 66.5 -10 q28.5 -10 41.5 -19 l3 0 l26 28 l24 0 l-23 -158 l-29 0 q-3 58 -26 91 q-23 33 -67 33 q-32 0 -48.5 -16.5 q-16.5 -16.5 -16.5 -38.5 q0 -28 25 -57 q25 -29 59 -65 q33 -35 58.5 -70.5 q25.5 -35.5 25.5 -80.5 q0 -35 -19 -64 q-19 -29 -56 -47.5 q-37 -18.5 -92 -18.5 q-43 0 -72 11 q-29 11 -44 19 l-4 0 l-17 -83 q-4 -18 -6 -33 q-2 -15 -2 -26 q0 -36 12.5 -49 q12.5 -13 28.5 -13 q15 0 25 10.5 q10 10.5 18.5 23.5 q8.5 13 19.5 23.5 q11 10.5 29 10.5 q12 0 23 -8 q11 -8 11 -26 q0 -23 -14.5 -39.5 q-14.5 -16.5 -40 -25.5 q-25.5 -9 -57.5 -9 Z" /><glyph glyph-name="uni1D8A" unicode="&#x1d8a;" d="M167 -13 q-43 0 -71.5 10.5 q-28.5 10.5 -44.5 17.5 l-4 0 l-22 -26 l-27 0 l30 173 l30 0 q8 -66 28.5 -101 q20.5 -35 71.5 -35 q35 0 55.5 16.5 q20.5 16.5 20.5 51.5 q0 37 -21 64 q-21 27 -52 57 q-22 22 -42.5 42.5 q-20.5 20.5 -33 44 q-12.5 23.5 -12.5 54.5 q0 54 37 89 q37 35 106 35 q37 0 65.5 -10 q28.5 -10 41.5 -19 l4 0 l26 28 l23 0 l-23 -158 l-29 0 q-3 58 -26 91 q-23 33 -67 33 q-36 0 -52 -18.5 q-16 -18.5 -16 -40.5 q0 -19 12 -37 q12 -18 32 -37.5 q20 -19.5 43 -43.5 q34 -37 59 -70.5 q25 -33.5 25 -80.5 q0 -35 -19 -64 q-19 -29 -56 -47.5 q-37 -18.5 -92 -18.5 ZM131 -227 q-37 0 -60.5 17.5 q-23.5 17.5 -23.5 44.5 q0 22 11.5 33 q11.5 11 28.5 11 q19 0 27.5 -10 q8.5 -10 14 -23 q5.5 -13 11.5 -23 q6 -10 19 -10 q14 0 29.5 11 q15.5 11 30 37.5 q14.5 26.5 24.5 73.5 l14 68 l-24 18 l92 73 l-32 -148 q-10 -50 -28.5 -89 q-18.5 -39 -50.5 -61.5 q-32 -22.5 -83 -22.5 Z" /><glyph glyph-name="longs" unicode="&#x17f;" d="M-33 -227 q-51 0 -77.5 22.5 q-26.5 22.5 -26.5 56.5 q0 22 12 37.5 q12 15.5 34 15.5 q25 0 34.5 -14 q9.5 -14 12.5 -32.5 q3 -18.5 7.5 -32.5 q4.5 -14 18.5 -14 q16 0 28.5 17 q12.5 17 22.5 45 q10 28 17 59.5 q7 31.5 12.5 59.5 q5.5 28 7.5 47 l66 400 q8 55 19 100 q11 45 30 78 q14 24 34 45 q20 21 51.5 34.5 q31.5 13.5 79.5 13.5 q32 0 56 -9.5 q24 -9.5 37.5 -27 q13.5 -17.5 13.5 -42.5 q0 -24 -14 -36 q-14 -12 -33 -12 q-23 0 -32.5 13.5 q-9.5 13.5 -12.5 30.5 q-3 20 -8 35.5 q-5 15.5 -22 15.5 q-33 0 -53.5 -38.5 q-20.5 -38.5 -31.5 -101.5 l-72 -456 q-4 -27 -13 -67 q-9 -40 -24.5 -82 q-15.5 -42 -39 -78.5 q-23.5 -36.5 -56.5 -59.5 q-33 -23 -78 -23 ZM144 421 l-97 0 l6 46 l96 0 l-5 -46 Z" /><glyph glyph-name="uni1E9C" unicode="&#x1e9c;" d="M-21 -227 q-51 0 -77.5 22.5 q-26.5 22.5 -26.5 56.5 q0 22 11.5 37.5 q11.5 15.5 33.5 15.5 q25 0 34.5 -14 q9.5 -14 13 -32.5 q3.5 -18.5 8 -32.5 q4.5 -14 18.5 -14 q16 0 28.5 17 q12.5 17 22.5 45 q10 28 17 59.5 q7 31.5 12 59.5 q5 28 8 47 l63 393 q8 44 14.5 77.5 q6.5 33.5 15.5 59.5 q9 26 21 48 q14 24 34.5 45 q20.5 21 52 34.5 q31.5 13.5 78.5 13.5 q33 0 57 -9.5 q24 -9.5 37 -27 q13 -17.5 13 -42.5 q0 -24 -13.5 -36 q-13.5 -12 -32.5 -12 q-23 0 -33 13.5 q-10 13.5 -13 31.5 q-3 20 -8 35 q-5 15 -22 15 q-32 0 -53 -38.5 q-21 -38.5 -31 -101.5 l-72 -456 q-5 -27 -14 -67 q-9 -40 -24 -82 q-15 -42 -38.5 -78.5 q-23.5 -36.5 -56.5 -59.5 q-33 -23 -78 -23 ZM149 277 l-109 -66 l-19 36 l133 83 l59 33 l110 67 l20 -36 l-140 -87 l-54 -30 ZM155 421 l-96 0 l6 46 l96 0 l-6 -46 Z" /><glyph glyph-name="uni1E9D" unicode="&#x1e9d;" d="M-33 -227 q-51 0 -77.5 22.5 q-26.5 22.5 -26.5 56.5 q0 22 12 37.5 q12 15.5 34 15.5 q25 0 34.5 -14 q9.5 -14 12.5 -32.5 q3 -18.5 7.5 -32.5 q4.5 -14 18.5 -14 q16 0 28.5 17 q12.5 17 22.5 45 q10 28 17 59.5 q7 31.5 12.5 59.5 q5.5 28 7.5 47 l66 401 q8 49 19 96.5 q11 47.5 30 80.5 q14 24 34 45 q20 21 51.5 34.5 q31.5 13.5 79.5 13.5 q32 0 56 -9.5 q24 -9.5 37.5 -27 q13.5 -17.5 13.5 -42.5 q0 -24 -14 -36 q-14 -12 -33 -12 q-23 0 -32.5 13.5 q-9.5 13.5 -12.5 30.5 q-3 20 -8 35.5 q-5 15.5 -22 15.5 q-33 0 -53.5 -38.5 q-20.5 -38.5 -31.5 -101.5 l-72 -456 q-4 -27 -13 -67 q-9 -40 -24.5 -82 q-15.5 -42 -39 -78.5 q-23.5 -36.5 -56.5 -59.5 q-33 -23 -78 -23 ZM144 421 l-97 0 l6 46 l96 0 l-5 -46 ZM349 532 l-285 0 l8 42 l284 0 l-7 -42 Z" /><glyph glyph-name="uni01AB" unicode="&#x1ab;" d="M122 -11 q-33 0 -51 16 q-18 16 -18 45 q0 13 2.5 30.5 q2.5 17.5 4.5 28.5 l67 315 l-58 0 l5 28 q34 17 57 32.5 q23 15.5 43.5 41 q20.5 25.5 47.5 67.5 l40 0 l-96 -461 q0 0 -3.5 -18.5 q-3.5 -18.5 -3.5 -31.5 q0 -9 3.5 -15 q3.5 -6 14.5 -6 q20 0 37.5 12 q17.5 12 42.5 44 l23 -18 q-14 -20 -36.5 -46 q-22.5 -26 -52.5 -45 q-30 -19 -69 -19 ZM83 -225 q-38 0 -60 16 q-22 16 -22 46 q0 22 11.5 33 q11.5 11 29.5 11 q18 0 26.5 -10 q8.5 -10 13.5 -23 q5 -13 11.5 -23 q6.5 -10 19.5 -10 q14 0 29.5 10.5 q15.5 10.5 30.5 37 q15 26.5 24 74.5 l16 81 l-10 7 l77 74 l-33 -151 q-11 -50 -29.5 -89 q-18.5 -39 -50.5 -61.5 q-32 -22.5 -84 -22.5 ZM325 424 l-110 0 l8 43 l111 0 l-9 -43 Z" /><glyph glyph-name="uni0236" unicode="&#x236;" d="M72 -125 l-33 14 q21 39 45 80 q24 41 51.5 80 q27.5 39 57.5 70 q30 31 62 49.5 q32 18.5 67 18.5 q32 0 53.5 -15.5 q21.5 -15.5 21.5 -49.5 q0 -36 -27.5 -66.5 q-27.5 -30.5 -73.5 -49 q-46 -18.5 -102 -18.5 q-39 0 -69.5 9.5 q-30.5 9.5 -49 29.5 q-18.5 20 -18.5 50 q0 9 2 22.5 q2 13.5 6 30.5 l62 296 l-58 0 l5 28 q34 16 57 31.5 q23 15.5 43.5 40.5 q20.5 25 47.5 67 l40 0 l-99 -473 q0 -7 -2.5 -17.5 q-2.5 -10.5 -2.5 -19.5 q0 -18 13 -30.5 q13 -12.5 52 -12.5 q39 0 68 13 q29 13 45.5 32 q16.5 19 16.5 36 q0 13 -8 21 q-8 8 -27 8 q-33 0 -66.5 -25 q-33.5 -25 -65 -66.5 q-31.5 -41.5 -60.5 -90 q-29 -48.5 -54 -93.5 ZM325 426 l-110 0 l8 43 l111 0 l-9 -43 Z" /><glyph glyph-name="uni0287" unicode="&#x287;" d="M84 -124 l-40 0 l96 463 q0 0 3.5 18.5 q3.5 18.5 3.5 32.5 q0 9 -3.5 14.5 q-3.5 5.5 -17.5 5.5 q-17 0 -34.5 -11.5 q-17.5 -11.5 -41.5 -41.5 l-24 18 q15 19 35 43.5 q20 24.5 50 43 q30 18.5 72 18.5 q35 0 52.5 -15.5 q17.5 -15.5 17.5 -45.5 q0 -13 -2.5 -30.5 q-2.5 -17.5 -5.5 -28.5 l-66 -315 l58 0 l-5 -28 q-34 -16 -57 -32 q-23 -16 -43.5 -41 q-20.5 -25 -47.5 -68 ZM83 2 l-111 0 l9 43 l110 0 l-8 -43 Z" /><glyph glyph-name="uni1D1C" unicode="&#x1d1c;" d="M231 -11 q-56 0 -94 16.5 q-38 16.5 -57 47 q-19 30.5 -19 71.5 q0 18 2.5 33.5 q2.5 15.5 4.5 26.5 l39 181 q3 15 4 24 q1 9 1 17 q0 16 -12 22.5 q-12 6.5 -49 6.5 l7 34 l236 0 l-7 -33 q-33 0 -48.5 -5 q-15.5 -5 -21.5 -20 q-6 -15 -12 -45 l-38 -175 q-4 -17 -6 -31 q-2 -14 -2 -28 q0 -23 10.5 -43 q10.5 -20 33.5 -31.5 q23 -11.5 60 -11.5 q45 0 72.5 17 q27.5 17 43 47.5 q15.5 30.5 22.5 68.5 l35 166 q3 16 5 29 q2 13 2 24 q0 23 -13.5 31 q-13.5 8 -47.5 8 l7 32 l194 0 l-7 -32 q-33 0 -50 -7.5 q-17 -7.5 -26 -26.5 q-9 -19 -16 -56 l-30 -143 q-13 -67 -37 -115 q-24 -48 -67.5 -74 q-43.5 -26 -118.5 -26 Z" /><glyph glyph-name="uni028D" unicode="&#x28d;" d="M79 -10 q-25 0 -40 14.5 q-15 14.5 -21 38 q-6 23.5 -6 47.5 q0 82 33.5 154.5 q33.5 72.5 88.5 131.5 q55 59 119 100 l69 0 q4 -59 6.5 -116.5 q2.5 -57.5 6 -114.5 q3.5 -57 8.5 -117 l4 0 l163 348 l99 0 q4 -112 9.5 -191.5 q5.5 -79.5 14.5 -145.5 q4 -31 11.5 -53.5 q7.5 -22.5 26.5 -22.5 q22 0 41.5 19 q19.5 19 30.5 33 l24 -18 q-14 -21 -33.5 -45.5 q-19.5 -24.5 -46 -41.5 q-26.5 -17 -64.5 -18 q-30 0 -49.5 18 q-19.5 18 -31.5 60.5 q-12 42.5 -18 114 q-6 71.5 -8 178.5 l3 42 l-4 0 l-185 -406 l-77 0 q-8 94 -14.5 186 q-6.5 92 -10.5 188 l2 41 l-3 0 q-48 -37 -81 -81 q-33 -44 -50 -89 q-17 -45 -17 -88 q0 -26 7.5 -41.5 q7.5 -15.5 17.5 -26 q10 -10.5 17.5 -22 q7.5 -11.5 7.5 -29.5 q0 -25 -15 -36 q-15 -11 -35 -11 Z" /><glyph glyph-name="uni1D8D" unicode="&#x1d8d;" d="M323 -10 q-35 0 -55 25.5 q-20 25.5 -31 74.5 l-27 111 l-11 20 l-30 101 q-12 42 -24 64.5 q-12 22.5 -30.5 32 q-18.5 9.5 -48.5 9.5 q-11 0 -19 -1 q-8 -1 -15 -2 l0 34 l137 16 l36 0 q17 -21 30 -51.5 q13 -30.5 22 -69.5 l13 -62 l10 -21 l25 -82 q20 -64 35.5 -91 q15.5 -27 37.5 -27 q19 0 35 15 q16 15 34 40 l24 -17 q-12 -13 -26.5 -33.5 q-14.5 -20.5 -32.5 -40 q-18 -19.5 -40 -32.5 q-22 -13 -49 -13 ZM25 -10 q-33 0 -47 16.5 q-14 16.5 -14 35.5 q0 18 11.5 31.5 q11.5 13.5 30.5 13.5 q15 0 32 -6.5 q17 -6.5 31 -6.5 q13 0 24 10.5 q11 10.5 33 42.5 l76 115 l22 -52 l-17 0 l-60 -103 q-22 -38 -49 -67.5 q-27 -29.5 -73 -29.5 ZM274 -226 q-40 0 -62 15.5 q-22 15.5 -22 45.5 q0 22 11.5 33.5 q11.5 11.5 28.5 11.5 q19 0 27.5 -10 q8.5 -10 13 -23.5 q4.5 -13.5 11.5 -23 q7 -9.5 21 -9.5 q19 0 43.5 26 q24.5 26 39.5 95 l17 85 l-10 8 l78 81 l-35 -163 q-10 -46 -28.5 -85 q-18.5 -39 -50 -63 q-31.5 -24 -83.5 -24 ZM343 354 l-66 -104 l-20 53 l15 0 l47 81 q14 25 31.5 47 q17.5 22 41 35.5 q23.5 13.5 54.5 13.5 q29 0 41.5 -12.5 q12.5 -12.5 12.5 -33.5 q0 -26 -14.5 -38.5 q-14.5 -12.5 -33.5 -12.5 q-16 0 -28.5 6 q-12.5 6 -27.5 6 q-16 0 -28 -10 q-12 -10 -25 -31 Z" /><glyph glyph-name="uni028E" unicode="&#x28e;" d="M73 -11 q-31 0 -49.5 22.5 q-18.5 22.5 -18.5 61.5 q0 40 18 81 q18 41 45.5 84.5 q27.5 43.5 57.5 88.5 q24 37 39.5 61 q15.5 24 27 40.5 q11.5 16.5 22.5 32 q11 15.5 25 36.5 q53 78 90.5 124.5 q37.5 46.5 69.5 68 q32 21.5 69 21.5 q41 0 63 -20 q22 -20 22 -48 q0 -22 -14 -36 q-14 -14 -35 -14 q-18 0 -29 9 q-11 9 -17.5 21 q-6.5 12 -12.5 21 q-6 9 -15 9 q-9 0 -20.5 -8.5 q-11.5 -8.5 -26 -27 q-14.5 -18.5 -34 -49.5 q-19.5 -31 -47 -77 q-27.5 -46 -63.5 -108 l-23 0 l-110 -171 q-16 -25 -24 -45 q-8 -20 -8 -34 q0 -20 12 -34.5 q12 -14.5 24 -29.5 q12 -15 12 -36 q0 -18 -13 -31 q-13 -13 -37 -13 ZM361 -11 q-32 0 -52 18 q-20 18 -32.5 53.5 q-12.5 35.5 -21.5 86.5 l-22 136 l-10 116 l75 108 l60 -334 q8 -48 18 -79 q10 -31 36 -31 q17 0 34.5 15.5 q17.5 15.5 34.5 37.5 l24 -18 q-15 -22 -35 -47.5 q-20 -25.5 -46.5 -43.5 q-26.5 -18 -62.5 -18 Z" /><glyph glyph-name="uni028F" unicode="&#x28f;" d="M295 0 l-240 0 l7 34 q33 1 49 5 q16 4 23 18 q7 14 14 45 l17 77 l-68 163 q-18 46 -29 65 q-11 19 -22.5 23.5 q-11.5 4.5 -31.5 4.5 l6 34 l216 0 l-7 -36 q-30 0 -42 -5.5 q-12 -5.5 -12 -15.5 q0 -4 3.5 -11.5 q3.5 -7.5 6.5 -16.5 l42 -101 l16 -52 l3 0 l113 159 q14 20 14 30 q0 7 -8.5 10.5 q-8.5 3.5 -33.5 3.5 l7 35 l167 0 l-6 -34 q-24 0 -40.5 -6 q-16.5 -6 -31.5 -21 q-15 -15 -35 -43 l-130 -181 l-17 -82 q-3 -12 -4 -21.5 q-1 -9.5 -1 -16.5 q0 -19 13.5 -24.5 q13.5 -5.5 48.5 -5.5 l-7 -34 Z" /><glyph glyph-name="uni0291" unicode="&#x291;" d="M123 -143 l-35 15 q28 49 59 101 q31 52 66 97 q35 45 74.5 73 q39.5 28 83.5 28 q35 0 57.5 -19 q22.5 -19 22.5 -57 q0 -32 -19.5 -64.5 q-19.5 -32.5 -56.5 -54 q-37 -21.5 -89 -21.5 q-43 0 -71 9.5 q-28 9.5 -50 21.5 q-22 12 -45.5 22 q-23.5 10 -57.5 10 q-17 0 -29.5 -5.5 q-12.5 -5.5 -29.5 -22.5 l-27 27 l344 364 l0 5 l-150 0 q-29 0 -45.5 -8.5 q-16.5 -8.5 -26 -27 q-9.5 -18.5 -19.5 -50.5 l-36 0 l38 169 l360 0 l-3 -38 l-310 -328 l0 -5 q35 -3 58.5 -16 q23.5 -13 42 -28 q18.5 -15 37.5 -26 q19 -11 45 -11 q36 0 65.5 22.5 q29.5 22.5 29.5 56.5 q0 17 -10.5 26.5 q-10.5 9.5 -28.5 9.5 q-33 0 -66 -25.5 q-33 -25.5 -64.5 -66.5 q-31.5 -41 -60 -89 q-28.5 -48 -53.5 -94 Z" /><glyph glyph-name="uni0290" unicode="&#x290;" d="M435 -227 q-58 0 -79 28 q-21 28 -21 70 q0 18 3 38 q3 20 7 40 l6 32 l-13 8 l43 15 q-23 -18 -46.5 -25.5 q-23.5 -7.5 -52.5 -7.5 q-39 0 -66 7 q-27 7 -49 16 q-22 9 -45.5 16.5 q-23.5 7.5 -56.5 7.5 q-17 0 -30 -5 q-13 -5 -32 -23 l-27 27 l344 364 l0 5 l-150 0 q-29 0 -45.5 -8.5 q-16.5 -8.5 -26 -27 q-9.5 -18.5 -19.5 -50.5 l-36 0 l38 169 l360 0 l-3 -38 l-310 -328 l0 -5 q31 -3 53.5 -15.5 q22.5 -12.5 42 -26.5 q19.5 -14 40.5 -24 q21 -10 47 -10 q31 0 47.5 16.5 q16.5 16.5 29.5 40.5 l30 -6 l-29 -143 q-4 -20 -6 -33 q-2 -13 -2 -26 q0 -29 11 -43.5 q11 -14.5 27 -14.5 q15 0 25.5 10.5 q10.5 10.5 19 23.5 q8.5 13 20 23.5 q11.5 10.5 29.5 10.5 q13 0 23 -8 q10 -8 10 -27 q0 -33 -31.5 -53 q-31.5 -20 -79.5 -20 Z" /><glyph glyph-name="uni1D8E" unicode="&#x1d8e;" d="M245 -227 q-39 0 -61.5 16 q-22.5 16 -22.5 46 q0 22 11.5 33 q11.5 11 28.5 11 q19 0 27.5 -10 q8.5 -10 13.5 -23 q5 -13 11 -23 q6 -10 19 -10 q15 0 29.5 10.5 q14.5 10.5 27.5 37.5 q13 27 22 75 l8 40 l-2 2 q-28 -9 -58 -9 q-43 0 -73.5 7 q-30.5 7 -56 17 q-25.5 10 -50.5 17.5 q-25 7.5 -57 7.5 q-17 0 -29.5 -5.5 q-12.5 -5.5 -29.5 -22.5 l-27 27 l344 364 l0 5 l-150 0 q-29 0 -45.5 -8.5 q-16.5 -8.5 -26 -27 q-9.5 -18.5 -19.5 -50.5 l-36 0 l38 169 l360 0 l-3 -38 l-310 -328 l0 -5 q35 -3 60.5 -16 q25.5 -13 45.5 -28 q20 -15 41 -25.5 q21 -10.5 47 -10.5 q28 0 43.5 11.5 q15.5 11.5 29.5 41.5 l29 -6 l-21 -114 q-10 -53 -27.5 -93 q-17.5 -40 -48.5 -62.5 q-31 -22.5 -82 -22.5 Z" /><glyph glyph-name="uni0292" unicode="&#x292;" d="M93 -225 q-43 0 -80 12 q-37 12 -59.5 35 q-22.5 23 -22.5 55 q0 22 12 38.5 q12 16.5 39 16.5 q29 0 39.5 -19.5 q10.5 -19.5 17.5 -40.5 q7 -25 21 -42.5 q14 -17.5 49 -17.5 q44 0 78.5 27.5 q34.5 27.5 54 73.5 q19.5 46 19.5 99 q0 64 -28.5 95.5 q-28.5 31.5 -72.5 31.5 q-18 0 -30 -4.5 q-12 -4.5 -16 -6.5 l-28 25 l230 228 l0 5 l-149 0 q-29 0 -45.5 -8.5 q-16.5 -8.5 -26 -27 q-9.5 -18.5 -19.5 -50.5 l-36 0 l39 169 l359 0 l-3 -38 l-257 -255 l2 -2 q2 0 8 0.5 q6 0.5 15 0.5 q46 0 83.5 -18.5 q37.5 -18.5 60.5 -55.5 q23 -37 23 -93 q0 -57 -24 -100.5 q-24 -43.5 -64 -73 q-40 -29.5 -89 -44.5 q-49 -15 -100 -15 Z" /><glyph glyph-name="uni0293" unicode="&#x293;" d="M92 -225 q-39 0 -71 11 q-32 11 -52 33.5 q-20 22.5 -20 53.5 q0 30 19 52 q19 22 53 33.5 q34 11.5 80 11.5 q60 0 109 -17 q49 -17 86.5 -41 q37.5 -24 62.5 -46.5 q25 -22.5 35 -34.5 l-25 -25 q-22 25 -61 54.5 q-39 29.5 -91.5 51.5 q-52.5 22 -116.5 22 q-51 0 -78.5 -16 q-27.5 -16 -27.5 -43 q0 -31 29.5 -46 q29.5 -15 68.5 -15 q55 0 92.5 28 q37.5 28 57.5 73.5 q20 45.5 20 98.5 q0 66 -29 96 q-29 30 -71 30 q-20 0 -31.5 -4 q-11.5 -4 -16.5 -7 l-27 25 l230 227 l0 5 l-149 0 q-30 0 -46 -8.5 q-16 -8.5 -25.5 -27 q-9.5 -18.5 -19.5 -50.5 l-36 0 l38 169 l360 0 l-3 -38 l-257 -253 l8 -11 l-21 6 q10 2 20 3 q10 1 18 1 q45 0 83 -18.5 q38 -18.5 60.5 -55 q22.5 -36.5 22.5 -90.5 q0 -62 -25.5 -106.5 q-25.5 -44.5 -67 -73.5 q-41.5 -29 -90.5 -43.5 q-49 -14.5 -95 -14.5 Z" /><glyph glyph-name="uni01BA" unicode="&#x1ba;" d="M80 -226 q-62 0 -96 26.5 q-34 26.5 -34 71.5 q0 42 25 67 q25 25 61 40 q36 15 69 25 q21 6 47 16 q26 10 50 25.5 q24 15.5 40 37.5 q16 22 16 52 q0 30 -20 49.5 q-20 19.5 -62 19.5 q-10 0 -21 -1.5 q-11 -1.5 -20 -3.5 l-29 28 l179 155 l0 5 l-123 0 q-30 0 -46 -8.5 q-16 -8.5 -25.5 -27 q-9.5 -18.5 -19.5 -50.5 l-36 0 l38 168 l332 0 l-3 -38 l-212 -186 l25 -18 l-60 6 q20 6 37 9 q17 3 36 3 q67 0 105 -31 q38 -31 38 -81 q0 -36 -18.5 -62.5 q-18.5 -26.5 -49.5 -44.5 q-31 -18 -69 -30.5 q-38 -12.5 -78 -22.5 q-48 -12 -84.5 -22.5 q-36.5 -10.5 -56.5 -27.5 q-20 -17 -20 -47 q0 -29 19 -46.5 q19 -17.5 54 -17.5 q27 0 42 9.5 q15 9.5 24 23.5 q9 14 16.5 28 q7.5 14 18.5 23.5 q11 9.5 30 9.5 q21 0 32.5 -13 q11.5 -13 11.5 -31 q0 -29 -25.5 -49 q-25.5 -20 -63 -29.5 q-37.5 -9.5 -74.5 -9.5 Z" /><glyph glyph-name="uni0283" unicode="&#x283;" d="M-49 -227 q-51 0 -77.5 22.5 q-26.5 22.5 -26.5 56.5 q0 22 11.5 37.5 q11.5 15.5 33.5 15.5 q25 0 34.5 -14 q9.5 -14 12.5 -32.5 q3 -18.5 8 -32.5 q5 -14 19 -14 q16 0 28.5 17.5 q12.5 17.5 22 45 q9.5 27.5 17 59 q7.5 31.5 12.5 60 q5 28.5 8 46.5 l64 398 q7 44 14 76.5 q7 32.5 16 58 q9 25.5 20 45.5 q14 24 34 45 q20 21 51.5 34.5 q31.5 13.5 79.5 13.5 q32 0 56 -9.5 q24 -9.5 37.5 -27 q13.5 -17.5 13.5 -42.5 q0 -24 -14 -36 q-14 -12 -33 -12 q-22 0 -32 13 q-10 13 -12 31 q-4 19 -9 35 q-5 16 -22 16 q-33 0 -53.5 -38.5 q-20.5 -38.5 -30.5 -101.5 l-73 -455 q-4 -28 -13 -67.5 q-9 -39.5 -24.5 -82 q-15.5 -42.5 -38.5 -79 q-23 -36.5 -56.5 -59.5 q-33.5 -23 -77.5 -23 Z" /><glyph glyph-name="uni0284" unicode="&#x284;" d="M-43 -227 q-51 0 -77.5 22.5 q-26.5 22.5 -26.5 56.5 q0 22 12 37.5 q12 15.5 34 15.5 q25 0 34.5 -14 q9.5 -14 12.5 -32.5 q3 -18.5 7.5 -32.5 q4.5 -14 18.5 -14 q16 0 28.5 17.5 q12.5 17.5 22.5 45 q10 27.5 17 59 q7 31.5 12.5 60 q5.5 28.5 7.5 46.5 l65 398 q7 44 14 76.5 q7 32.5 15.5 58 q8.5 25.5 20.5 45.5 q13 24 33.5 45 q20.5 21 52 34.5 q31.5 13.5 78.5 13.5 q33 0 57 -9.5 q24 -9.5 37.5 -27 q13.5 -17.5 13.5 -42.5 q0 -24 -14 -36 q-14 -12 -33 -12 q-23 0 -32.5 13 q-9.5 13 -12.5 31 q-4 19 -8.5 35 q-4.5 16 -21.5 16 q-33 0 -53.5 -38.5 q-20.5 -38.5 -31.5 -101.5 l-72 -455 q-4 -28 -13 -67.5 q-9 -39.5 -24.5 -82 q-15.5 -42.5 -39 -79 q-23.5 -36.5 -56.5 -59.5 q-33 -23 -78 -23 ZM245 2 l-275 0 l8 42 l276 0 l-9 -42 Z" /><glyph glyph-name="uni0286" unicode="&#x286;" d="M-59 -227 q-44 0 -71.5 22.5 q-27.5 22.5 -27.5 63.5 q0 37 23 62 q23 25 60.5 37.5 q37.5 12.5 80.5 12.5 q52 0 91.5 -14.5 q39.5 -14.5 68 -34.5 q28.5 -20 45.5 -37 l-24 -26 q-29 28 -77.5 51 q-48.5 23 -106.5 23 q-31 0 -57.5 -8.5 q-26.5 -8.5 -42.5 -24 q-16 -15.5 -16 -37.5 q0 -22 13 -35 q13 -13 38 -13 q35 0 57 30 q22 30 35 82 q13 52 24 120 l60 365 q9 54 16.5 92 q7.5 38 16.5 65.5 q9 27.5 21 48.5 q13 23 33 44.5 q20 21.5 51.5 35 q31.5 13.5 77.5 13.5 q50 0 80 -20.5 q30 -20.5 30 -57.5 q0 -25 -14 -37 q-14 -12 -32 -12 q-21 0 -30.5 9.5 q-9.5 9.5 -13 23.5 q-3.5 14 -5.5 28 q-2 14 -8 24 q-6 10 -19 10 q-33 0 -53.5 -38.5 q-20.5 -38.5 -31.5 -101.5 q-3 -21 -9 -57 q-6 -36 -13.5 -81 q-7.5 -45 -15.5 -96.5 q-8 -51.5 -16.5 -104.5 q-8.5 -53 -16.5 -105 q-7 -43 -18 -88.5 q-11 -45.5 -28.5 -87.5 q-17.5 -42 -41.5 -75 q-24 -33 -57 -52 q-33 -19 -76 -19 Z" /><glyph glyph-name="uni01AA" unicode="&#x1aa;" d="M200 -227 q-78 0 -109.5 37.5 q-31.5 37.5 -31.5 98.5 q0 16 2 33 q2 17 6.5 44 q4.5 27 12.5 70 q3 14 9 47.5 q6 33.5 15 79 q9 45.5 18.5 94.5 q9.5 49 18.5 95 q9 46 16 81 q7 35 10 52 q3 18 7.5 42.5 q4.5 24.5 4.5 46.5 q0 30 -13 52 q-13 22 -50 22 q-33 0 -58 -22 q-25 -22 -25 -64 q0 -34 18.5 -56.5 q18.5 -22.5 57.5 -22.5 q19 0 37.5 5 q18.5 5 39.5 16 l-4 -35 q-17 -12 -39 -18.5 q-22 -6.5 -45 -6.5 q-51 0 -81 31.5 q-30 31.5 -30 81.5 q0 58 38 95.5 q38 37.5 104 37.5 q50 0 80 -22 q30 -22 44 -57 q14 -35 14 -75 q0 -27 -5 -59 q-5 -32 -12 -69 l-76 -403 q-9 -49 -14.5 -78.5 q-5.5 -29.5 -7.5 -47 q-2 -17.5 -2 -30.5 q0 -26 9 -40 q9 -14 29 -14 q21 0 34 12 q13 12 23.5 27 q10.5 15 23.5 27.5 q13 12.5 33 12.5 q15 0 27.5 -9 q12.5 -9 12.5 -29 q0 -26 -18.5 -44.5 q-18.5 -18.5 -50.5 -28.5 q-32 -10 -73 -10 Z" /><glyph glyph-name="uni0285" unicode="&#x285;" d="M257 -227 q-78 0 -110 37.5 q-32 37.5 -32 98.5 q0 16 2.5 33.5 q2.5 17.5 7 44 q4.5 26.5 12.5 69.5 l47 233 q6 29 11.5 57 q5.5 28 5.5 45 q0 48 -39 48 q-20 0 -31.5 -12 q-11.5 -12 -20 -27.5 q-8.5 -15.5 -21 -27.5 q-12.5 -12 -34.5 -12 q-20 0 -32 11 q-12 11 -12 30 q0 24 18.5 41.5 q18.5 17.5 49.5 27.5 q31 10 68 10 q47 0 78 -14.5 q31 -14.5 47 -43.5 q16 -29 16 -73 q0 -21 -3 -46 q-3 -25 -8 -46 l-46 -232 q-10 -49 -15.5 -78.5 q-5.5 -29.5 -7 -47 q-1.5 -17.5 -1.5 -30.5 q0 -26 9 -40 q9 -14 29 -14 q21 0 34 12 q13 12 23.5 27 q10.5 15 23.5 27.5 q13 12.5 33 12.5 q15 0 27 -9 q12 -9 12 -29 q0 -26 -18 -44.5 q-18 -18.5 -50 -28.5 q-32 -10 -73 -10 Z" /><glyph glyph-name="uni1D98" unicode="&#x1d98;" d="M31 -227 q-58 0 -80 29 q-22 29 -22 73 q0 21 3.5 39.5 q3.5 18.5 7.5 39.5 l19 94 q3 18 13 31 q10 13 32 13 q21 0 29.5 -12 q8.5 -12 12 -29 q3.5 -17 8.5 -29 q5 -12 19 -12 q20 0 34.5 23.5 q14.5 23.5 24.5 59 q10 35.5 16.5 70 q6.5 34.5 10.5 55.5 l39 244 q8 47 18 85.5 q10 38.5 28 70.5 q21 36 58 64.5 q37 28.5 102 28.5 q52 0 82 -20 q30 -20 30 -57 q0 -26 -13.5 -38 q-13.5 -12 -33.5 -12 q-20 0 -29 9.5 q-9 9.5 -12.5 23.5 q-3.5 14 -6 28 q-2.5 14 -9 24 q-6.5 10 -21.5 10 q-28 0 -49.5 -37.5 q-21.5 -37.5 -31.5 -102.5 l-42 -265 q-4 -27 -12.5 -65.5 q-8.5 -38.5 -23.5 -79.5 q-15 -41 -38.5 -76.5 q-23.5 -35.5 -58 -57.5 q-34.5 -22 -80.5 -22 q-18 0 -33.5 4 q-15.5 4 -27.5 13 l-11 -56 q-3 -17 -5.5 -32.5 q-2.5 -15.5 -2.5 -28.5 q0 -33 13 -46.5 q13 -13.5 28 -13.5 q15 0 25 10.5 q10 10.5 18.5 23.5 q8.5 13 19.5 23.5 q11 10.5 28 10.5 q13 0 24 -7.5 q11 -7.5 11 -27.5 q0 -32 -31.5 -52.5 q-31.5 -20.5 -79.5 -20.5 Z" /><glyph glyph-name="eth" unicode="ð" d="M217 -11 q-90 0 -136.5 54 q-46.5 54 -46.5 145 q0 81 32.5 144.5 q32.5 63.5 87 100 q54.5 36.5 118.5 36.5 q33 0 58.5 -9.5 q25.5 -9.5 42.5 -26.5 l4 2 q0 31 -10 69.5 q-10 38.5 -30.5 74.5 q-20.5 36 -51.5 59 q-31 23 -72 23 q-23 0 -44 -7 q-21 -7 -33 -15 l-15 24 q29 22 60 33 q31 11 66 11 q65 0 118.5 -38.5 q53.5 -38.5 85 -111 q31.5 -72.5 31.5 -177.5 q0 -45 -7.5 -97.5 q-7.5 -52.5 -25.5 -104.5 q-18 -52 -48.5 -94.5 q-30.5 -42.5 -75.5 -68.5 q-45 -26 -108 -26 ZM222 28 q33 0 59.5 23 q26.5 23 44.5 61.5 q18 38.5 27.5 85 q9.5 46.5 9.5 94.5 q0 38 -7.5 69.5 q-7.5 31.5 -25.5 50.5 q-18 19 -51 19 q-34 0 -59.5 -21 q-25.5 -21 -43 -57 q-17.5 -36 -26.5 -81.5 q-9 -45.5 -9 -95.5 q0 -37 7 -71 q7 -34 25 -55.5 q18 -21.5 49 -21.5 ZM501 640 l-275 -112 l-14 40 l273 112 l16 -40 Z" /><glyph glyph-name="thorn" unicode="þ" d="M198 -220 l-216 0 l171 823 q0 1 1.5 11.5 q1.5 10.5 1.5 20.5 q0 17 -8 23.5 q-8 6.5 -27 6.5 q-9 0 -19.5 -1 q-10.5 -1 -10.5 -1 l0 32 l147 10 l31 0 l-45 -215 l-20 -99 l-9 -60 l-87 -427 q-1 -7 -2.5 -19.5 q-1.5 -12.5 -1.5 -19.5 q0 -20 20.5 -36.5 q20.5 -16.5 80.5 -16.5 l-7 -32 ZM229 -11 q-41 0 -65.5 11 q-24.5 11 -39.5 19 l12 55 q14 -13 35.5 -26 q21.5 -13 53.5 -13 q50 0 84 35 q34 35 52 94.5 q18 59.5 18 134.5 q0 68 -21 94.5 q-21 26.5 -50 26.5 q-31 0 -55.5 -20 q-24.5 -20 -41 -47 q-16.5 -27 -24.5 -51 l4 105 l22 0 q23 25 44 41 q21 16 43 24 q22 8 47 8 q58 0 98.5 -43.5 q40.5 -43.5 40.5 -133.5 q0 -69 -21 -126.5 q-21 -57.5 -57 -99.5 q-36 -42 -82 -65 q-46 -23 -97 -23 Z" /><glyph glyph-name="uni028A" unicode="&#x28a;" d="M227 -11 q-73 0 -116.5 26.5 q-43.5 26.5 -63.5 68.5 q-20 42 -20 88 q0 55 28.5 110 q28.5 55 99.5 108 q7 5 12.5 10 q5.5 5 5.5 12 q0 12 -14.5 17 q-14.5 5 -34.5 6.5 q-20 1.5 -36 1.5 l7 32 l164 0 l5 -18 q-36 -40 -65 -79.5 q-29 -39.5 -46 -88 q-17 -48.5 -17 -116.5 q0 -38 8 -69 q8 -31 27 -50.5 q19 -19.5 54 -19.5 q38 0 63.5 22 q25.5 22 41 57.5 q15.5 35.5 22.5 76.5 q7 41 7 79 q0 36 -5.5 69.5 q-5.5 33.5 -15.5 63.5 q-10 30 -22 55 l10 18 l167 0 l-7 -32 q-18 0 -41 -2 q-23 -2 -40.5 -9 q-17.5 -7 -17.5 -22 q0 -4 2.5 -8 q2.5 -4 8.5 -14 q13 -16 29 -39.5 q16 -23.5 27 -55 q11 -31.5 11 -71.5 q0 -56 -25.5 -108.5 q-25.5 -52.5 -78.5 -85.5 q-53 -33 -134 -33 Z" /><glyph glyph-name="uni028C" unicode="&#x28c;" d="M74 -12 q-25 0 -40 14 q-15 14 -21 36.5 q-6 22.5 -6 46.5 q0 65 21.5 121.5 q21.5 56.5 58.5 105 q37 48.5 84 89 q47 40.5 98 72.5 l67 0 q2 -69 5.5 -129 q3.5 -60 8 -111 q4.5 -51 9.5 -97 q5 -33 13 -54.5 q8 -21.5 27 -21.5 q22 0 40.5 18.5 q18.5 18.5 30.5 33.5 l24 -18 q-13 -19 -32.5 -44 q-19.5 -25 -46.5 -43 q-27 -18 -64 -18 q-45 0 -68.5 40.5 q-23.5 40.5 -32 124 q-8.5 83.5 -7.5 215.5 l3 42 l-3 0 q-48 -39 -86.5 -81 q-38.5 -42 -60.5 -86.5 q-22 -44.5 -22 -90.5 q0 -25 7.5 -40.5 q7.5 -15.5 17.5 -26.5 q10 -11 17.5 -22.5 q7.5 -11.5 7.5 -29.5 q0 -24 -14.5 -35 q-14.5 -11 -35.5 -11 Z" /><glyph glyph-name="uni0294" unicode="&#x294;" d="M156 0 l-99 0 l65 320 q63 14 109.5 44 q46.5 30 71.5 76 q25 46 25 107 q0 56 -24 89.5 q-24 33.5 -74 33.5 q-37 0 -54 -12.5 q-17 -12.5 -24.5 -31 q-7.5 -18.5 -13 -37 q-5.5 -18.5 -16.5 -31 q-11 -12.5 -36 -12.5 q-23 0 -34 13.5 q-11 13.5 -11 33.5 q0 38 29.5 64 q29.5 26 76 40 q46.5 14 99.5 14 q92 0 140 -43 q48 -43 48 -123 q0 -48 -16 -85 q-16 -37 -42 -65 q-26 -28 -57 -47 q-31 -19 -61.5 -29.5 q-30.5 -10.5 -55.5 -13.5 l24 36 l-70 -341 Z" /><glyph glyph-name="uni02A1" unicode="&#x2a1;" d="M161 0 l-99 0 l65 320 q63 14 109.5 44 q46.5 30 71.5 76 q25 46 25 107 q0 56 -24 89.5 q-24 33.5 -74 33.5 q-37 0 -54 -12.5 q-17 -12.5 -24.5 -31 q-7.5 -18.5 -13 -37 q-5.5 -18.5 -16.5 -31 q-11 -12.5 -36 -12.5 q-23 0 -34 13.5 q-11 13.5 -11 33.5 q0 38 29.5 64 q29.5 26 76 40 q46.5 14 99.5 14 q92 0 140 -43 q48 -43 48 -123 q0 -48 -16 -85 q-16 -37 -42 -65 q-26 -28 -57 -47 q-31 -19 -61.5 -29.5 q-30.5 -10.5 -55.5 -13.5 l24 36 l-70 -341 ZM294 183 l-274 0 l5 43 l276 0 l-7 -43 Z" /><glyph glyph-name="uni0295" unicode="&#x295;" d="M242 0 l-101 0 l65 304 q-31 10 -58.5 26 q-27.5 16 -49.5 39.5 q-22 23.5 -34.5 55 q-12.5 31.5 -12.5 71.5 q0 62 31 110.5 q31 48.5 84.5 76.5 q53.5 28 123.5 28 q75 0 118.5 -31 q43.5 -31 43.5 -75 q0 -22 -12 -36 q-12 -14 -37 -14 q-24 0 -34.5 11.5 q-10.5 11.5 -15 28.5 q-4.5 17 -10 34 q-5.5 17 -18.5 28.5 q-13 11.5 -40 11.5 q-38 0 -66.5 -23 q-28.5 -23 -45 -62 q-16.5 -39 -16.5 -88 q0 -78 41 -121 q41 -43 111 -60 l-67 -315 Z" /><glyph glyph-name="uni02A2" unicode="&#x2a2;" d="M242 0 l-101 0 l65 304 q-31 10 -58.5 26 q-27.5 16 -49.5 39.5 q-22 23.5 -34.5 55 q-12.5 31.5 -12.5 71.5 q0 62 31 110.5 q31 48.5 84.5 76.5 q53.5 28 123.5 28 q75 0 118.5 -31 q43.5 -31 43.5 -75 q0 -22 -12 -36 q-12 -14 -37 -14 q-24 0 -34.5 11.5 q-10.5 11.5 -15 28.5 q-4.5 17 -10 34 q-5.5 17 -18.5 28.5 q-13 11.5 -40 11.5 q-38 0 -66.5 -23 q-28.5 -23 -45 -62 q-16.5 -39 -16.5 -88 q0 -78 41 -121 q41 -43 111 -60 l-67 -315 ZM363 183 l-277 0 l7 43 l276 0 l-6 -43 Z" /><glyph glyph-name="uni0296" unicode="&#x296;" d="M153 -12 q-77 0 -117.5 31 q-40.5 31 -40.5 72 q0 21 12 36.5 q12 15.5 37 15.5 q22 0 32.5 -11.5 q10.5 -11.5 15.5 -28 q5 -16.5 10.5 -33.5 q5.5 -17 18.5 -28.5 q13 -11.5 40 -11.5 q37 0 66.5 23.5 q29.5 23.5 46 64.5 q16.5 41 16.5 93 q0 49 -16 86.5 q-16 37.5 -48.5 62 q-32.5 24.5 -79.5 38.5 l42 204 q1 2 2.5 13.5 q1.5 11.5 1.5 20.5 q0 16 -9.5 23 q-9.5 7 -26.5 7 q-8 0 -18.5 -1 q-10.5 -1 -10.5 -1 l0 30 l154 11 l28 0 l-72 -343 l-25 55 q39 -9 73.5 -25.5 q34.5 -16.5 60.5 -41.5 q26 -25 41 -59.5 q15 -34.5 15 -78.5 q0 -63 -31.5 -114 q-31.5 -51 -87.5 -80.5 q-56 -29.5 -130 -29.5 Z" /><glyph glyph-name="uni01BE" unicode="&#x1be;" d="M163 -13 q-72 0 -116.5 30 q-44.5 30 -44.5 74 q0 26 15 40.5 q15 14.5 38 14.5 q21 0 31 -12 q10 -12 14.5 -30 q4.5 -18 10 -36 q5.5 -18 19 -30 q13.5 -12 41.5 -12 q35 0 53.5 20.5 q18.5 20.5 18.5 51.5 q0 30 -14.5 56 q-14.5 26 -36 50 q-21.5 24 -43.5 49 q-22 25 -36.5 52.5 q-14.5 27.5 -14.5 61.5 q0 14 3.5 28 q3.5 14 9.5 29 l-56 0 l5 28 q34 17 57 32.5 q23 15.5 44 41 q21 25.5 47 67.5 l40 0 l-30 -136 l-2 -18 q-9 -15 -12.5 -28.5 q-3.5 -13.5 -3.5 -25.5 q0 -28 14 -51.5 q14 -23.5 34 -45 q20 -21.5 40.5 -45 q20.5 -23.5 34.5 -51 q14 -27.5 14 -62.5 q0 -37 -19 -69.5 q-19 -32.5 -57.5 -53 q-38.5 -20.5 -97.5 -20.5 ZM312 424 l-115 0 l12 43 l111 0 l-8 -43 Z" /><glyph glyph-name="uni0264" unicode="&#x264;" d="M204 -12 q-35 0 -58.5 10.5 q-23.5 10.5 -38 28 q-14.5 17.5 -21.5 40 q-7 22.5 -7 46.5 q0 49 21 99.5 q21 50.5 56 97.5 q35 47 79 84.5 q44 37.5 91.5 59 q47.5 21.5 91.5 21.5 q29 0 52.5 -9 q23.5 -9 38 -26 q14.5 -17 14.5 -40 q0 -24 -14.5 -38 q-14.5 -14 -35.5 -14 q-16 0 -23.5 8 q-7.5 8 -12 19.5 q-4.5 11.5 -9.5 23.5 q-5 12 -14 20 q-9 8 -27 8 q-26 0 -60 -18.5 q-34 -18.5 -68.5 -49.5 q-34.5 -31 -64.5 -71 q-30 -40 -48.5 -83.5 q-18.5 -43.5 -18.5 -84.5 q0 -36 16 -61.5 q16 -25.5 48 -25.5 q31 0 49.5 23 q18.5 23 27 60 q8.5 37 8.5 78 q0 40 -7.5 83 q-7.5 43 -23 79.5 q-15.5 36.5 -38.5 59.5 q-23 23 -54 23 q-22 0 -32 -10 q-10 -10 -14.5 -24.5 q-4.5 -14.5 -8.5 -29.5 q-4 -15 -12.5 -25 q-8.5 -10 -28.5 -10 q-19 0 -31 11 q-12 11 -12 32 q0 26 18 47 q18 21 49.5 33 q31.5 12 69.5 12 q55 0 98 -24 q43 -24 73 -64.5 q30 -40.5 45.5 -90.5 q15.5 -50 15.5 -100 q0 -60 -21.5 -106.5 q-21.5 -46.5 -62 -74 q-40.5 -27.5 -95.5 -27.5 Z" /><glyph glyph-name="uni01BB" unicode="&#x1bb;" d="M366 0 l-380 0 l10 49 l172 162 q67 64 111.5 113.5 q44.5 49.5 67.5 96 q23 46.5 23 99.5 q0 57 -25.5 88.5 q-25.5 31.5 -73.5 31.5 q-42 0 -81.5 -24.5 q-39.5 -24.5 -80.5 -88.5 l-28 14 q39 79 99.5 122 q60.5 43 133.5 43 q50 0 86.5 -21 q36.5 -21 55.5 -57 q19 -36 19 -81 q0 -52 -27 -100.5 q-27 -48.5 -78 -102 q-51 -53.5 -122 -120.5 l-138 -128 l-1 -7 l67 4 l124 0 q36 0 59.5 20 q23.5 20 48.5 69 l32 0 l-74 -182 ZM461 307 l-397 0 l8 43 l397 0 l-8 -43 Z" /><glyph glyph-name="uni0278" unicode="&#x278;" d="M290 -12 q-119 0 -188 51.5 q-69 51.5 -69 149.5 q0 56 23.5 108.5 q23.5 52.5 68 93.5 q44.5 41 109.5 65.5 q65 24.5 148 24.5 q82 0 141.5 -25.5 q59.5 -25.5 91 -72 q31.5 -46.5 31.5 -111.5 q0 -57 -24.5 -108 q-24.5 -51 -71 -90.5 q-46.5 -39.5 -112.5 -62.5 q-66 -23 -148 -23 ZM300 28 q53 0 93 15.5 q40 15.5 68 42 q28 26.5 45.5 59 q17.5 32.5 25 66.5 q7.5 34 7.5 65 q0 81 -42.5 124 q-42.5 43 -120.5 43 q-59 0 -103 -22 q-44 -22 -73.5 -59.5 q-29.5 -37.5 -44.5 -83.5 q-15 -46 -15 -93 q0 -79 41 -118 q41 -39 119 -39 ZM383 -220 l-186 0 l170 823 q0 0 1 10 q1 10 1 21 q0 13 -6.5 22 q-6.5 9 -25.5 9 q-11 0 -22 -1 q-11 -1 -11 -1 l0 31 l151 11 l30 0 l-165 -804 q-1 -7 -2.5 -17 q-1.5 -10 -1.5 -20 q0 -23 13.5 -37 q13.5 -14 58.5 -14 l-5 -33 Z" /><glyph glyph-name="uni0277" unicode="&#x277;" d="M173 -11 q-41 0 -73 20.5 q-32 20.5 -51 61 q-19 40.5 -19 99.5 q0 73 28 130 q28 57 77 97.5 q49 40.5 111 61.5 q62 21 130 21 q79 0 139.5 -28.5 q60.5 -28.5 95.5 -83 q35 -54.5 35 -134.5 q0 -76 -29.5 -131 q-29.5 -55 -77 -84.5 q-47.5 -29.5 -101.5 -29.5 q-56 0 -85 28.5 q-29 28.5 -41 65.5 l-5 0 q-24 -42 -55 -68 q-31 -26 -79 -26 ZM424 37 q34 0 59.5 27 q25.5 27 41 73.5 q15.5 46.5 15.5 103.5 q0 62 -18.5 107 q-18.5 45 -55.5 69 q-37 24 -91 24 q-66 0 -120 -35 q-54 -35 -86.5 -96.5 q-32.5 -61.5 -32.5 -144.5 q0 -31 6 -60.5 q6 -29.5 19.5 -48.5 q13.5 -19 35.5 -19 q21 0 38.5 15 q17.5 15 32.5 37.5 q15 22.5 26 45.5 q-3 13 -5.5 32.5 q-2.5 19.5 -2.5 34.5 q0 53 22.5 81 q22.5 28 48.5 28 q20 0 32.5 -14 q12.5 -14 12.5 -42 q0 -27 -14.5 -60 q-14.5 -33 -42.5 -68 q4 -20 13 -40.5 q9 -20.5 25 -35 q16 -14.5 41 -14.5 Z" /><glyph glyph-name="uni01C2" unicode="&#x1c2;" d="M170 0 l-87 0 l148 704 l87 0 l-148 -704 ZM353 275 l-339 0 l11 52 l339 0 l-11 -52 ZM383 419 l-339 0 l12 52 l339 0 l-12 -52 Z" /><glyph glyph-name="uni01C0" unicode="&#x1c0;" d="M108 0 l-87 0 l148 704 l87 0 l-148 -704 Z" /><glyph glyph-name="uni01C3" unicode="&#x1c3;" d="M115 183 l-41 0 l51 397 q2 20 3.5 35 q1.5 15 5.5 30 q6 28 20.5 45 q14.5 17 50.5 17 q28 0 39 -14 q11 -14 11 -30 q0 -15 -5.5 -34.5 q-5.5 -19.5 -13.5 -48.5 l-121 -397 ZM69 -8 q-29 0 -45 17 q-16 17 -16 44 q0 27 16.5 45 q16.5 18 46.5 18 q30 0 45.5 -17.5 q15.5 -17.5 15.5 -43.5 q0 -25 -15.5 -44 q-15.5 -19 -47.5 -19 Z" /><glyph glyph-name="uni0298" unicode="&#x298;" d="M332 -13 q-92 0 -156.5 38 q-64.5 38 -98.5 105.5 q-34 67.5 -34 156.5 q0 81 28 155.5 q28 74.5 79.5 133 q51.5 58.5 123 92.5 q71.5 34 158.5 34 q75 0 129.5 -25 q54.5 -25 90 -68 q35.5 -43 53 -99 q17.5 -56 17.5 -117 q0 -83 -29 -156 q-29 -73 -81.5 -129.5 q-52.5 -56.5 -123.5 -88.5 q-71 -32 -156 -32 ZM335 25 q72 0 124 35.5 q52 35.5 86 94 q34 58.5 51 128.5 q17 70 17 141 q0 63 -16 118 q-16 55 -55 88.5 q-39 33.5 -111 33.5 q-74 0 -127 -36 q-53 -36 -87.5 -95 q-34.5 -59 -50.5 -129 q-16 -70 -16 -136 q0 -41 7.5 -84 q7.5 -43 28 -78.5 q20.5 -35.5 56 -58 q35.5 -22.5 93.5 -22.5 ZM383 281 q-26 0 -45.5 19 q-19.5 19 -19.5 45 q0 27 19 45.5 q19 18.5 46 18.5 q27 0 45.5 -18.5 q18.5 -18.5 18.5 -45.5 q0 -26 -18.5 -45 q-18.5 -19 -45.5 -19 Z" /><glyph glyph-name="uni02AC" unicode="&#x2ac;" d="M257 366 l-86 0 q-1 54 -4 97 q-3 43 -6.5 84.5 q-3.5 41.5 -8.5 87.5 q-3 25 -9 33.5 q-6 8.5 -24 8.5 q-6 0 -10.5 -0.5 q-4.5 -0.5 -12.5 -2.5 l0 25 l94 11 l39 0 q5 -45 8.5 -89 q3.5 -44 6.5 -87 q3 -43 3 -88 l-2 -30 l2 0 l134 289 l70 0 q5 -66 9.5 -130.5 q4.5 -64.5 7.5 -133.5 l-2 -26 l3 0 q54 40 82.5 88 q28.5 48 28.5 94 q0 23 -9 34 q-9 11 -18.5 21 q-9.5 10 -9.5 27 q0 17 12 25 q12 8 26 8 q30 0 40.5 -22 q10.5 -22 10.5 -48 q0 -59 -24.5 -111 q-24.5 -52 -64 -93.5 q-39.5 -41.5 -87.5 -71.5 l-64 0 q-4 63 -7.5 123.5 q-3.5 60.5 -7.5 123.5 l-4 0 l-116 -247 ZM180 -8 l-86 0 q-2 54 -5 97 q-3 43 -6.5 84 q-3.5 41 -8.5 87 q-3 25 -9 33.5 q-6 8.5 -24 8.5 q-6 0 -10.5 -0.5 q-4.5 -0.5 -12.5 -2.5 l0 25 l94 12 l39 0 q6 -45 9.5 -89 q3.5 -44 6 -87.5 q2.5 -43.5 3.5 -87.5 l-3 -30 l3 0 l133 289 l70 0 q6 -67 10 -131.5 q4 -64.5 8 -132.5 l-2 -27 l2 0 q55 40 83 88 q28 48 28 95 q0 22 -9 33.5 q-9 11.5 -18 21.5 q-9 10 -9 27 q0 17 11.5 25 q11.5 8 25.5 8 q30 0 41 -22.5 q11 -22.5 11 -48.5 q0 -58 -24.5 -110 q-24.5 -52 -64 -94 q-39.5 -42 -87.5 -71 l-65 0 q-3 63 -6.5 123 q-3.5 60 -8.5 123 l-3 0 l-116 -246 Z" /><glyph glyph-name="uni02AD" unicode="&#x2ad;" d="M144 357 l-56 0 l63 300 l339 0 l-63 -300 l-56 0 l45 217 l-227 0 l-45 -217 ZM68 -6 l-56 0 l63 300 l339 0 l-63 -300 l-56 0 l46 217 l-227 0 l-46 -217 Z" /><glyph glyph-name="uni02A4" unicode="&#x2a4;" d="M166 -13 q-57 0 -95 42 q-38 42 -38 133 q0 64 20 121.5 q20 57.5 54.5 102 q34.5 44.5 80.5 69.5 q46 25 98 25 q32 0 57 -10 q25 -10 43 -28 l3 0 l31 160 q0 0 1.5 11 q1.5 11 1.5 22 q0 12 -6 21 q-6 9 -28 9 q-10 0 -20.5 -1 q-10.5 -1 -10.5 -1 l0 31 l148 11 l30 0 l-113 -584 q0 -1 -2 -14.5 q-2 -13.5 -2 -23.5 q0 -10 4.5 -15.5 q4.5 -5.5 15.5 -5.5 q20 0 38 13.5 q18 13.5 27 25.5 l22 -17 q-14 -20 -32.5 -42 q-18.5 -22 -44 -37.5 q-25.5 -15.5 -62.5 -15.5 q-36 0 -50.5 17 q-14.5 17 -14.5 46 q0 12 3.5 28.5 q3.5 16.5 5.5 26.5 l44 -26 l-58 0 q-35 -46 -71.5 -70 q-36.5 -24 -79.5 -24 ZM209 58 q44 0 74.5 30.5 q30.5 30.5 47.5 86.5 q12 35 18.5 70.5 q6.5 35.5 9.5 64 q3 28.5 3 40.5 q0 24 -9 44 q-9 20 -26.5 32.5 q-17.5 12.5 -42.5 12.5 q-33 0 -59.5 -23.5 q-26.5 -23.5 -45.5 -62.5 q-19 -39 -29 -86.5 q-10 -47.5 -10 -95.5 q0 -67 19 -90 q19 -23 50 -23 ZM500 -225 q-42 0 -79 12 q-37 12 -59.5 35 q-22.5 23 -22.5 55 q0 22 12 38.5 q12 16.5 38 16.5 q27 0 38.5 -19 q11.5 -19 17.5 -38 q4 -14 10 -29 q6 -15 19.5 -24.5 q13.5 -9.5 40.5 -9.5 q45 0 80 28 q35 28 54.5 73.5 q19.5 45.5 19.5 98.5 q0 64 -28.5 96 q-28.5 32 -70.5 32 q-17 0 -29 -3.5 q-12 -3.5 -19 -6.5 l-26 24 l228 227 l0 5 l-289 0 l-1 83 l412 0 l-3 -38 l-257 -253 l9 -11 l-18 7 q7 1 14 2 q7 1 19 1 q46 0 84 -19.5 q38 -19.5 60.5 -56.5 q22.5 -37 22.5 -90 q0 -59 -23.5 -103 q-23.5 -44 -63.5 -73.5 q-40 -29.5 -89.5 -44.5 q-49.5 -15 -100.5 -15 Z" /><glyph glyph-name="uni02A3" unicode="&#x2a3;" d="M724 -94 q-42 0 -71.5 12 q-29.5 12 -51.5 29 q-22 17 -41.5 34.5 q-19.5 17.5 -41.5 29 q-22 11.5 -52 11.5 q-19 0 -29.5 -5 q-10.5 -5 -17.5 -11.5 q-7 -6.5 -16.5 -11.5 q-9.5 -5 -26.5 -5 q-27 0 -40.5 14.5 q-13.5 14.5 -13.5 40.5 q0 10 1.5 19.5 q1.5 9.5 2.5 17.5 l-9 0 q-36 -47 -72 -70.5 q-36 -23.5 -80 -23.5 q-57 0 -94.5 41 q-37.5 41 -37.5 132 q0 66 20 123.5 q20 57.5 54.5 101.5 q34.5 44 80.5 69.5 q46 25.5 98 25.5 q32 0 57 -10 q25 -10 43 -28 l3 0 l31 160 q0 0 1.5 11 q1.5 11 1.5 21 q0 13 -6 22 q-6 9 -29 9 q-9 0 -19.5 -1 q-10.5 -1 -10.5 -1 l0 31 l148 11 l30 0 l-113 -584 q0 0 -2 -15 q-2 -15 -2 -24 q0 -11 4.5 -14.5 q4.5 -3.5 8.5 -4.5 l299 318 l0 5 l-288 0 l7 83 l402 0 l-2 -38 l-310 -328 l0 -5 q27 -3 48 -20 q21 -17 38.5 -39.5 q17.5 -22.5 33.5 -45 q16 -22.5 34 -37.5 q18 -15 41 -15 q15 0 22.5 7 q7.5 7 7.5 16 q0 11 -6.5 26 q-6.5 15 -6.5 32 q0 18 11 34 q11 16 36 16 q25 0 38.5 -18 q13.5 -18 13.5 -49 q0 -29 -12 -48.5 q-12 -19.5 -31.5 -30.5 q-19.5 -11 -41.5 -15.5 q-22 -4.5 -42 -4.5 ZM207 58 q30 0 55.5 16.5 q25.5 16.5 44 43 q18.5 26.5 26.5 56.5 q14 59 21.5 105 q7.5 46 7.5 69 q0 26 -9 46.5 q-9 20.5 -26.5 32.5 q-17.5 12 -41.5 12 q-34 0 -60.5 -23.5 q-26.5 -23.5 -45.5 -62.5 q-19 -39 -29 -86.5 q-10 -47.5 -10 -94.5 q0 -67 18.5 -90.5 q18.5 -23.5 48.5 -23.5 Z" /><glyph glyph-name="uni02A5" unicode="&#x2a5;" d="M697 -45 q-43 0 -73 10 q-30 10 -53 23 q-23 13 -47.5 23 q-24.5 10 -57.5 10 q-19 0 -29.5 -4.5 q-10.5 -4.5 -17.5 -11 q-7 -6.5 -16.5 -11.5 q-9.5 -5 -27.5 -5 q-27 0 -40 14.5 q-13 14.5 -13 40.5 q0 10 1.5 19.5 q1.5 9.5 2.5 17.5 l-9 0 q-36 -47 -72 -70.5 q-36 -23.5 -80 -23.5 q-57 0 -94.5 41 q-37.5 41 -37.5 132 q0 66 20 123.5 q20 57.5 54.5 101.5 q34.5 44 80.5 69.5 q46 25.5 98 25.5 q32 0 57 -10 q25 -10 43 -28 l3 0 l31 160 q0 0 1.5 11 q1.5 11 1.5 22 q0 12 -6 21 q-6 9 -28 9 q-10 0 -20.5 -1 q-10.5 -1 -10.5 -1 l0 31 l148 11 l30 0 l-113 -584 q0 0 -2 -15 q-2 -15 -2 -25 q0 -10 4 -13.5 q4 -3.5 8 -4.5 l300 318 l0 5 l-295 0 l5 83 l412 0 l-4 -38 l-310 -328 l0 -5 q35 -3 58.5 -16 q23.5 -13 42.5 -28 q19 -15 37.5 -26 q18.5 -11 44.5 -11 q36 0 65.5 23 q29.5 23 29.5 57 q0 18 -11 27.5 q-11 9.5 -28 9.5 q-35 0 -70 -26.5 q-35 -26.5 -67 -68.5 l-28 21 q38 48 79 79.5 q41 31.5 88 31.5 q35 0 57.5 -19 q22.5 -19 22.5 -57 q0 -32 -19 -64.5 q-19 -32.5 -55.5 -54 q-36.5 -21.5 -88.5 -21.5 ZM533 -134 l-33 13 q15 29 33 60 q18 31 37 61 l32 -16 q-18 -28 -36 -58.5 q-18 -30.5 -33 -59.5 ZM207 58 q30 0 55.5 16.5 q25.5 16.5 44 43 q18.5 26.5 26.5 56.5 q14 59 21.5 105 q7.5 46 7.5 69 q0 26 -9 46.5 q-9 20.5 -26.5 32.5 q-17.5 12 -41.5 12 q-34 0 -60.5 -23.5 q-26.5 -23.5 -45.5 -62.5 q-19 -39 -29 -86.5 q-10 -47.5 -10 -94.5 q0 -67 18.5 -90.5 q18.5 -23.5 48.5 -23.5 Z" /><glyph glyph-name="uni02A9" unicode="&#x2a9;" d="M-34 -225 q-47 0 -74 22 q-27 22 -27 58 q0 21 11.5 36.5 q11.5 15.5 34.5 15.5 q24 0 33.5 -14 q9.5 -14 12.5 -32.5 q3 -18.5 8 -32.5 q5 -14 19 -14 q16 0 29.5 19.5 q13.5 19.5 23 50 q9.5 30.5 16.5 63.5 q7 33 12 61 q5 28 7 42 l65 398 q7 47 19 91.5 q12 44.5 31 78.5 q14 24 35.5 45 q21.5 21 54 34.5 q32.5 13.5 77.5 13.5 q34 0 58.5 -9 q24.5 -9 38 -27 q13.5 -18 13.5 -43 q0 -24 -14 -36 q-14 -12 -34 -12 q-22 0 -31.5 14 q-9.5 14 -12.5 31 q-5 22 -9.5 36 q-4.5 14 -22.5 14 q-31 0 -54 -38.5 q-23 -38.5 -34 -101.5 l-73 -454 q-5 -30 -14 -70.5 q-9 -40.5 -24.5 -82 q-15.5 -41.5 -39 -77.5 q-23.5 -36 -57 -58 q-33.5 -22 -78.5 -22 ZM428 0 l-101 0 l80 361 q0 3 2 13.5 q2 10.5 2 18.5 q0 14 -7.5 21 q-7.5 7 -26.5 7 l-31 44 l147 11 l30 0 l-49 -208 l15 0 l-61 -268 ZM495 -221 q-31 0 -53 10 q-22 10 -34.5 28 q-12.5 18 -12.5 39 q0 21 11 37.5 q11 16.5 36 16.5 q23 0 32.5 -14 q9.5 -14 13 -32.5 q3.5 -18.5 8.5 -32 q5 -13.5 19 -13.5 q18 0 32.5 21 q14.5 21 27.5 54 q13 33 23.5 71.5 q10.5 38.5 18.5 73.5 l63 273 q0 0 3.5 18 q3.5 18 3.5 34 q0 16 -5.5 27 q-5.5 11 -21.5 11 q-21 0 -45 -20.5 q-24 -20.5 -48.5 -52.5 q-24.5 -32 -46.5 -67.5 q-22 -35.5 -38 -67 q-16 -31.5 -23 -49.5 l19 114 q14 26 36.5 63 q22.5 37 52.5 73.5 q30 36.5 68 61 q38 24.5 84 24.5 q42 0 57 -20.5 q15 -20.5 15 -54.5 q0 -19 -3 -39.5 q-3 -20.5 -6 -33.5 l-55 -245 q-9 -38 -21.5 -80 q-12.5 -42 -30.5 -82.5 q-18 -40.5 -43.5 -73.5 q-25.5 -33 -59.5 -52.5 q-34 -19.5 -77 -19.5 ZM442 421 l-395 0 l6 46 l403 0 l-14 -46 Z" /><glyph glyph-name="uni02AA" unicode="&#x2aa;" d="M267 -11 q-106 0 -160 26 q-54 26 -54 85 q0 10 1.5 22 q1.5 12 5.5 31 l93 451 q0 0 1.5 10 q1.5 10 1.5 20 q0 16 -7 24 q-7 8 -28 8 q-9 0 -19 -1 q-10 -1 -10 -1 l0 30 l151 11 l28 0 l-107 -540 q-3 -15 -5 -28 q-2 -13 -2 -25 q0 -46 30 -63 q30 -17 88 -17 q73 0 115 22.5 q42 22.5 42 62.5 q0 29 -21 51.5 q-21 22.5 -59 61.5 q-32 32 -54.5 63.5 q-22.5 31.5 -22.5 70.5 q0 34 17.5 60 q17.5 26 49 41 q31.5 15 73.5 15 q38 0 66.5 -10 q28.5 -10 41.5 -19 l4 0 l26 28 l23 0 l-23 -158 l-29 0 q-3 57 -25.5 90.5 q-22.5 33.5 -67.5 33.5 q-31 0 -47.5 -15.5 q-16.5 -15.5 -16.5 -37.5 q0 -27 24.5 -56.5 q24.5 -29.5 56.5 -62.5 q30 -29 49 -51.5 q19 -22.5 28 -42.5 q9 -20 9 -45 q0 -72 -67.5 -108.5 q-67.5 -36.5 -199.5 -36.5 Z" /><glyph glyph-name="uni02AB" unicode="&#x2ab;" d="M450 -94 q-39 0 -67 12 q-28 12 -50 29 q-22 17 -42 34.5 q-20 17.5 -42.5 29 q-22.5 11.5 -49.5 11.5 q-17 0 -27.5 -5 q-10.5 -5 -18 -11 q-7.5 -6 -17.5 -11 q-10 -5 -26 -5 q-33 0 -49 15.5 q-16 15.5 -16 41.5 q0 19 3.5 41.5 q3.5 22.5 9.5 54.5 l95 461 q0 0 1.5 10 q1.5 10 1.5 22 q0 10 -5.5 20 q-5.5 10 -25.5 10 q-13 0 -23 -1 q-10 -1 -10 -1 l0 30 l151 11 l28 0 l-115 -582 q0 0 -3 -16 q-3 -16 -3 -27 q0 -10 6.5 -14.5 q6.5 -4.5 17.5 -4.5 l-41 -29 l331 349 l0 4 l-291 0 l7 84 l404 0 l-3 -38 l-310 -328 l0 -5 q28 -3 48.5 -20 q20.5 -17 38.5 -39.5 q18 -22.5 34 -45 q16 -22.5 33.5 -37.5 q17.5 -15 38.5 -15 q19 0 26 7 q7 7 7 17 q0 12 -6.5 25 q-6.5 13 -6.5 34 q0 13 10 30.5 q10 17.5 37 17.5 q25 0 38.5 -18 q13.5 -18 13.5 -47 q0 -31 -11.5 -50.5 q-11.5 -19.5 -31.5 -30.5 q-20 -11 -43 -15.5 q-23 -4.5 -47 -4.5 Z" /><glyph glyph-name="uni026E" unicode="&#x26e;" d="M232 -225 q-42 0 -79 12 q-37 12 -59.5 35 q-22.5 23 -22.5 55 q0 22 12 38.5 q12 16.5 37 16.5 q24 0 35 -12 q11 -12 17 -30 q6 -18 12.5 -36 q6.5 -18 20 -30 q13.5 -12 41.5 -12 q46 0 81 27.5 q35 27.5 54 73 q19 45.5 19 98.5 q0 65 -28 97 q-28 32 -69 32 q-18 0 -29.5 -3.5 q-11.5 -3.5 -19.5 -6.5 l-27 24 l229 227 l0 5 l-280 0 l0 83 l402 0 l-3 -38 l-257 -253 l2 -2 q3 0 8 0.5 q5 0.5 12 0.5 q47 0 85.5 -19.5 q38.5 -19.5 61 -56.5 q22.5 -37 22.5 -90 q0 -59 -23.5 -103 q-23.5 -44 -64 -73.5 q-40.5 -29.5 -89.5 -44.5 q-49 -15 -100 -15 ZM115 -10 q-37 0 -53.5 16 q-16.5 16 -16.5 42 q0 19 3 41.5 q3 22.5 10 54.5 l95 460 q0 0 1.5 10 q1.5 10 1.5 22 q0 10 -5.5 20 q-5.5 10 -25.5 10 q-13 0 -23 -1 q-10 -1 -10 -1 l0 30 l151 11 l28 0 l-115 -582 q-1 -2 -3.5 -16 q-2.5 -14 -2.5 -25 q0 -10 5 -15.5 q5 -5.5 16 -5.5 q22 0 38.5 14 q16.5 14 26.5 26 l22 -17 q-14 -20 -32 -42 q-18 -22 -44.5 -37 q-26.5 -15 -66.5 -15 Z" /><glyph glyph-name="uni02A8" unicode="&#x2a8;" d="M152 -10 q-28 0 -50 8.5 q-22 8.5 -34.5 25.5 q-12.5 17 -12.5 44 q0 13 2.5 28.5 q2.5 15.5 6.5 30.5 l63 297 l-58 0 l5 28 q34 17 57 32.5 q23 15.5 43.5 41 q20.5 25.5 47.5 67.5 l40 0 l-31 -137 l-3 -19 l-60 -294 q0 0 -2.5 -17 q-2.5 -17 -2.5 -29 q0 -6 2 -16 q2 -10 11 -17.5 q9 -7.5 28 -7.5 q35 0 72 13.5 q37 13.5 74.5 34 q37.5 20.5 74.5 41.5 q37 21 71 34.5 q34 13.5 65 13.5 q34 0 56 -17.5 q22 -17.5 22 -51.5 q0 -30 -21.5 -61.5 q-21.5 -31.5 -63 -53.5 q-41.5 -22 -100.5 -22 q-61 0 -97 25 q-36 25 -52 65.5 q-16 40.5 -16 86.5 q0 66 21 123.5 q21 57.5 58 101 q37 43.5 85.5 67.5 q48.5 24 103.5 24 q50 0 84.5 -23.5 q34.5 -23.5 34.5 -68.5 q0 -34 -15.5 -56 q-15.5 -22 -46.5 -22 q-20 0 -31 10 q-11 10 -11 26 q0 24 8.5 40.5 q8.5 16.5 8.5 29.5 q0 11 -11 19 q-11 8 -33 8 q-38 0 -67 -22.5 q-29 -22.5 -48.5 -60.5 q-19.5 -38 -29.5 -84.5 q-10 -46.5 -10 -94.5 q0 -52 13.5 -81.5 q13.5 -29.5 34.5 -41 q21 -11.5 45 -11.5 q32 0 57 11.5 q25 11.5 40 28.5 q15 17 15 37 q0 16 -10.5 23.5 q-10.5 7.5 -26.5 7.5 q-28 0 -63.5 -16.5 q-35.5 -16.5 -77 -41 q-41.5 -24.5 -86 -49.5 q-44.5 -25 -90 -41.5 q-45.5 -16.5 -89.5 -16.5 ZM325 424 l-110 0 l8 43 l111 0 l-9 -43 Z" /><glyph glyph-name="uni02A6" unicode="&#x2a6;" d="M296 -11 q-78 0 -129.5 11.5 q-51.5 11.5 -77.5 37 q-26 25.5 -26 69.5 q0 21 5 48 l59 271 l-58 0 l5 28 q34 16 57 31.5 q23 15.5 43.5 40.5 q20.5 25 47.5 67 l40 0 l-28 -124 l175 0 l-9 -43 l-174 0 l-52 -252 q0 0 -1.5 -9 q-1.5 -9 -3.5 -21.5 q-2 -12.5 -2 -23.5 q0 -52 34.5 -70 q34.5 -18 100.5 -18 q80 0 126.5 22.5 q46.5 22.5 46.5 63.5 q0 21 -11 38 q-11 17 -28.5 34 q-17.5 17 -37.5 37 q-34 35 -57.5 66.5 q-23.5 31.5 -23.5 73.5 q0 49 37 81 q37 32 102 32 q38 0 66 -10 q28 -10 42 -19 l3 0 l26 28 l23 0 l-22 -158 l-29 0 q-3 58 -26 91 q-23 33 -67 33 q-30 0 -47 -15 q-17 -15 -17 -35 q0 -28 24.5 -57 q24.5 -29 58.5 -63 q30 -31 48.5 -52.5 q18.5 -21.5 27.5 -40 q9 -18.5 9 -41.5 q0 -46 -29 -79.5 q-29 -33.5 -90.5 -53 q-61.5 -19.5 -160.5 -19.5 Z" /><glyph glyph-name="uni02A7" unicode="&#x2a7;" d="M223 -227 q-51 0 -77.5 22.5 q-26.5 22.5 -26.5 56.5 q0 22 12 37.5 q12 15.5 33 15.5 q25 0 35 -14 q10 -14 13 -32.5 q3 -18.5 7.5 -32.5 q4.5 -14 18.5 -14 q16 0 28.5 17.5 q12.5 17.5 22.5 45 q10 27.5 17 59 q7 31.5 12 60 q5 28.5 8 46.5 l65 398 q7 44 14 76.5 q7 32.5 15.5 58 q8.5 25.5 20.5 45.5 q13 24 33.5 45 q20.5 21 52 34.5 q31.5 13.5 78.5 13.5 q33 0 57 -9.5 q24 -9.5 37.5 -27 q13.5 -17.5 13.5 -42.5 q0 -24 -14 -36 q-14 -12 -33 -12 q-23 0 -32.5 14 q-9.5 14 -12.5 32 q-4 19 -9 34 q-5 15 -21 15 q-33 0 -53.5 -38.5 q-20.5 -38.5 -31.5 -101.5 l-72 -455 q-5 -28 -14 -67.5 q-9 -39.5 -24 -82 q-15 -42.5 -38.5 -79 q-23.5 -36.5 -56.5 -59.5 q-33 -23 -78 -23 ZM122 -11 q-33 0 -51 16 q-18 16 -18 45 q0 13 2.5 31.5 q2.5 18.5 4.5 27.5 l67 315 l-58 0 l5 28 q34 17 57 32.5 q23 15.5 43.5 41 q20.5 25.5 47.5 67.5 l40 0 l-28 -126 l189 0 l-9 -43 l-188 0 l-60 -292 q0 0 -3.5 -18.5 q-3.5 -18.5 -3.5 -31.5 q0 -9 3.5 -15 q3.5 -6 14.5 -6 q20 0 37.5 12 q17.5 12 42.5 44 l23 -18 q-14 -19 -34.5 -45 q-20.5 -26 -50.5 -45.5 q-30 -19.5 -73 -19.5 Z" /><glyph glyph-name="ampersand" unicode="&amp;" d="M518 -14 q-50 0 -85.5 26 q-35.5 26 -73.5 87 q-17 27 -36 66.5 q-19 39.5 -38 84.5 q-19 45 -33.5 90.5 q-14.5 45.5 -24 85.5 q-9.5 40 -9.5 67 q0 54 24.5 91.5 q24.5 37.5 68 57 q43.5 19.5 98.5 19.5 q56 0 91.5 -24 q35.5 -24 35.5 -74 q0 -37 -17.5 -69 q-17.5 -32 -62 -62 q-44.5 -30 -126.5 -62 l-9 26 q60 25 90.5 53 q30.5 28 41.5 56.5 q11 28.5 11 54.5 q0 30 -14.5 51 q-14.5 21 -47.5 21 q-41 0 -67.5 -28.5 q-26.5 -28.5 -26.5 -83.5 q0 -32 11 -75 q11 -43 28.5 -90 q17.5 -47 38.5 -91.5 q21 -44.5 41 -79.5 l14 0 l0 -23 q30 -43 60.5 -69 q30.5 -26 70.5 -26 q31 0 57 13.5 q26 13.5 53 43.5 l18 -14 q-32 -57 -80 -90 q-48 -33 -102 -33 ZM160 -16 q-63 0 -103.5 33.5 q-40.5 33.5 -40.5 98.5 q0 51 21 92 q21 41 73.5 79.5 q52.5 38.5 145.5 80.5 l8 -30 q-52 -25 -82.5 -55 q-30.5 -30 -43 -63 q-12.5 -33 -12.5 -70 q0 -49 24.5 -73.5 q24.5 -24.5 65.5 -24.5 q39 0 76.5 16 q37.5 16 68.5 43 l19 -28 q-31 -32 -63.5 -54 q-32.5 -22 -70.5 -33.5 q-38 -11.5 -86 -11.5 ZM440 142 l-17 27 q39 72 69.5 118.5 q30.5 46.5 57 72 q26.5 25.5 52.5 36 q26 10.5 56 10.5 q46 0 67 -22 q21 -22 21 -47 q0 -24 -14.5 -35 q-14.5 -11 -31.5 -11 q-17 0 -25.5 8.5 q-8.5 8.5 -14.5 19 q-6 10.5 -14 19 q-8 8.5 -22 8.5 q-26 0 -48.5 -17.5 q-22.5 -17.5 -44.5 -47 q-22 -29.5 -44 -65.5 q-22 -36 -47 -74 Z" /><glyph glyph-name="uni02B1" unicode="&#x2b1;" d="M167 255 l-88 0 l85 402 q10 45 33.5 82 q23.5 37 62.5 58.5 q39 21.5 94 21.5 q42 0 69 -14 q27 -14 27 -44 q0 -21 -13.5 -32.5 q-13.5 -11.5 -31.5 -11.5 q-19 0 -27.5 10 q-8.5 10 -15 22.5 q-6.5 12.5 -15 22.5 q-8.5 10 -24.5 10 q-21 0 -39 -14.5 q-18 -14.5 -28 -59.5 l-30 -131 l-24 -98 l13 0 l-48 -224 ZM378 246 q-35 0 -46.5 15 q-11.5 15 -11.5 34 q0 10 1.5 19.5 q1.5 9.5 2.5 12.5 l46 182 q0 0 3 12.5 q3 12.5 3 25.5 q0 12 -5 20.5 q-5 8.5 -17 8.5 q-18 0 -37.5 -16 q-19.5 -16 -39.5 -41.5 q-20 -25.5 -37.5 -54 q-17.5 -28.5 -30.5 -53 q-13 -24.5 -19 -38.5 l14 95 q13 23 31.5 53 q18.5 30 43 58 q24.5 28 55.5 46 q31 18 70 18 q33 0 48 -18.5 q15 -18.5 15 -41.5 q0 -16 -3.5 -33.5 q-3.5 -17.5 -5.5 -25.5 l-43 -183 q0 0 -1.5 -5.5 q-1.5 -5.5 -1.5 -13.5 q0 -15 15 -15 q22 0 36.5 13 q14.5 13 23.5 26 l21 -16 q-11 -16 -28 -35.5 q-17 -19.5 -41.5 -34 q-24.5 -14.5 -60.5 -14.5 Z" /><glyph glyph-name="uni02B4" unicode="&#x2b4;" d="M71 245 q-22 0 -37 12.5 q-15 12.5 -15 37.5 q0 29 16 43.5 q16 14.5 33 14.5 q15 0 22.5 -7.5 q7.5 -7.5 11 -15.5 q3.5 -8 4.5 -8 q14 0 30 20 q16 20 33 51 q17 31 31.5 64 q14.5 33 26 61 q11.5 28 16.5 42 l-10 -146 l-25 0 q-10 -19 -22.5 -48 q-12.5 -29 -29 -56.5 q-16.5 -27.5 -37.5 -46 q-21 -18.5 -48 -18.5 ZM245 247 q-22 0 -38 10.5 q-16 10.5 -16 38.5 q0 20 9 56 q9 36 23 85 l3 74 l26 122 l89 0 l-60 -281 q0 0 -2.5 -12.5 q-2.5 -12.5 -2.5 -20.5 q0 -5 3 -10 q3 -5 13 -5 q15 0 28 10 q13 10 21.5 20 q8.5 10 9.5 11 l21 -16 q-16 -24 -34.5 -42.5 q-18.5 -18.5 -41 -29 q-22.5 -10.5 -51.5 -10.5 Z" /><glyph glyph-name="uni02B5" unicode="&#x2b5;" d="M283 124 q-39 0 -61.5 12.5 q-22.5 12.5 -31.5 34.5 q-9 22 -9 49 q0 20 3.5 41.5 q3.5 21.5 8.5 44.5 l27 124 l6 81 l26 122 l89 0 l-80 -370 q-4 -16 -6.5 -32 q-2.5 -16 -2.5 -30 q0 -17 5.5 -29.5 q5.5 -12.5 23.5 -12.5 q15 0 25 9 q10 9 19 21 q9 12 19.5 21 q10.5 9 25.5 9 q13 0 21 -8.5 q8 -8.5 8 -22.5 q0 -19 -16 -33.5 q-16 -14.5 -42.5 -22.5 q-26.5 -8 -57.5 -8 ZM70 245 q-21 0 -36 12.5 q-15 12.5 -15 38.5 q0 28 16 42.5 q16 14.5 33 14.5 q15 0 22.5 -7.5 q7.5 -7.5 11 -15.5 q3.5 -8 4.5 -8 q14 0 30 20 q16 20 32.5 50.5 q16.5 30.5 31 63 q14.5 32.5 25.5 59 q11 26.5 16 37.5 l-8 -138 l-25 0 q-10 -22 -23.5 -51 q-13.5 -29 -29.5 -56 q-16 -27 -37 -44.5 q-21 -17.5 -48 -17.5 Z" /><glyph glyph-name="uni02B6" unicode="&#x2b6;" d="M239 254 l-196 0 l5 28 q35 0 46 9 q11 9 16 33 l48 226 q8 37 -2 46.5 q-10 9.5 -44 9.5 l7 29 l204 0 l-6 -29 q-26 0 -39.5 -3.5 q-13.5 -3.5 -20 -14.5 q-6.5 -11 -11.5 -35 l-55 -261 q8 -1 16.5 -2 q8.5 -1 23.5 -1 q57 0 81.5 15.5 q24.5 15.5 24.5 60.5 q0 38 -24 52 q-24 14 -70 16 l-31 0 l6 33 l27 0 q17 0 23.5 3.5 q6.5 3.5 18.5 16.5 q13 13 24 25 q11 12 26 27 q15 15 37 38 q22 23 55 59 l121 0 l-6 -29 q-22 0 -37 -5 q-15 -5 -33 -24 q-45 -45 -71 -69.5 q-26 -24.5 -41 -35 q-15 -10.5 -27 -16.5 l0 -3 q22 -5 43.5 -15 q21.5 -10 36.5 -27 q15 -17 15 -44 q0 -35 -17 -57 q-17 -22 -45 -34.5 q-28 -12.5 -62 -17 q-34 -4.5 -67 -4.5 Z" /><glyph glyph-name="uni02E4" unicode="&#x2e4;" d="M260 255 l-87 0 l53 248 l15 -27 q-24 1 -50.5 11 q-26.5 10 -50 30.5 q-23.5 20.5 -39 51 q-15.5 30.5 -15.5 70.5 q0 46 23.5 86 q23.5 40 69.5 64.5 q46 24.5 113 24.5 q67 0 102 -23.5 q35 -23.5 35 -62.5 q0 -22 -11.5 -34.5 q-11.5 -12.5 -32.5 -12.5 q-20 0 -30 10 q-10 10 -14 25 q-4 15 -9.5 30 q-5.5 15 -16.5 25.5 q-11 10.5 -36 10.5 q-37 0 -59.5 -21.5 q-22.5 -21.5 -32 -55.5 q-9.5 -34 -9.5 -71 q0 -45 17 -73.5 q17 -28.5 46 -43 q29 -14.5 64 -18.5 l6 -8 l-51 -236 Z" /><glyph glyph-name="uni02B9" unicode="&#x2b9;" d="M278 616 l-132 -222 l-38 16 l84 242 q8 21 21 38.5 q13 17.5 41 17.5 q22 0 31.5 -13 q9.5 -13 9.5 -29 q0 -14 -4.5 -25 q-4.5 -11 -12.5 -25 Z" /><glyph glyph-name="uni02BE" unicode="&#x2be;" d="M122 465 l-43 0 l12 60 l41 0 q25 0 45 17 q20 17 20 46 q0 21 -11.5 30 q-11.5 9 -31.5 9 l-41 0 l13 60 l41 0 q45 0 70 -23.5 q25 -23.5 25 -67.5 q0 -40 -18.5 -69.5 q-18.5 -29.5 -50 -45.5 q-31.5 -16 -71.5 -16 Z" /><glyph glyph-name="uni02BF" unicode="&#x2bf;" d="M221 465 l-41 0 q-45 0 -70.5 24 q-25.5 24 -25.5 68 q0 40 19 69 q19 29 50.5 45 q31.5 16 71.5 16 l43 0 l-13 -60 l-41 0 q-24 0 -44 -16 q-20 -16 -20 -46 q0 -21 11.5 -30.5 q11.5 -9.5 31.5 -9.5 l41 0 l-13 -60 Z" /><glyph glyph-name="uni02C0" unicode="&#x2c0;" d="M238 354 l-85 0 l21 102 q44 1 79 16.5 q35 15.5 56.5 48 q21.5 32.5 21.5 85.5 q0 39 -13.5 57 q-13.5 18 -40.5 18 q-22 0 -34.5 -9.5 q-12.5 -9.5 -20.5 -23 q-8 -13.5 -15 -27 q-7 -13.5 -17.5 -23 q-10.5 -9.5 -28.5 -9.5 q-17 0 -27 9.5 q-10 9.5 -10 26.5 q0 29 23.5 48.5 q23.5 19.5 59 29.5 q35.5 10 72.5 10 q45 0 76 -14.5 q31 -14.5 48 -41.5 q17 -27 17 -66 q0 -51 -25.5 -84 q-25.5 -33 -64.5 -51 q-39 -18 -77 -25 l-15 -77 Z" /><glyph glyph-name="uni02C1" unicode="&#x2c1;" d="M287 354 l-86 0 l17 79 q-27 6 -54 20 q-27 14 -44.5 40.5 q-17.5 26.5 -17.5 67.5 q0 42 22 76.5 q22 34.5 63.5 55 q41.5 20.5 98.5 20.5 q51 0 88.5 -19 q37.5 -19 37.5 -56 q0 -17 -8.5 -31 q-8.5 -14 -30.5 -14 q-17 0 -24.5 9 q-7.5 9 -10.5 22 q-3 13 -7 26 q-4 13 -14.5 22 q-10.5 9 -32.5 9 q-31 0 -51 -17.5 q-20 -17.5 -30 -45.5 q-10 -28 -10 -57 q0 -43 17 -65.5 q17 -22.5 43.5 -31 q26.5 -8.5 53.5 -8.5 l-20 -102 Z" /><glyph glyph-name="uni02C2" unicode="&#x2c2;" d="M341 496 l-14 -69 l-227 157 l7 33 l294 158 l-17 -76 l-194 -100 l151 -103 Z" /><glyph glyph-name="uni02C3" unicode="&#x2c3;" d="M377 585 l-294 -158 l16 75 l194 101 l-151 102 l15 70 l227 -158 l-7 -32 Z" /><glyph glyph-name="uni02C4" unicode="&#x2c4;" d="M117 476 l-72 0 l212 260 l33 0 l103 -260 l-74 0 l-64 171 l-138 -171 Z" /><glyph glyph-name="uni02C5" unicode="&#x2c5;" d="M228 476 l-33 0 l-102 260 l72 0 l66 -171 l136 171 l74 0 l-213 -260 Z" /><glyph glyph-name="uni02C8" unicode="&#x2c8;" d="M218 454 l-51 0 l59 281 l52 0 l-60 -281 Z" /><glyph glyph-name="uni02CC" unicode="&#x2cc;" d="M91 -205 l-51 0 l60 281 l51 0 l-60 -281 Z" /><glyph glyph-name="uni02CD" unicode="&#x2cd;" d="M266 -168 l-330 0 l14 66 l330 0 l-14 -66 Z" /><glyph glyph-name="uni02D0" unicode="&#x2d0;" d="M222 307 l-53 0 l-22 175 l173 0 l-98 -175 ZM221 20 l-173 0 l97 175 l53 0 l23 -175 Z" /><glyph glyph-name="uni02D1" unicode="&#x2d1;" d="M222 307 l-53 0 l-22 175 l173 0 l-98 -175 Z" /><glyph glyph-name="uni02D2" unicode="&#x2d2;" d="M95 72 l-52 0 l14 66 l48 0 q32 0 57 12.5 q25 12.5 40.5 36.5 q15.5 24 15.5 57 q0 34 -21 51 q-21 17 -55 17 l-48 0 l14 67 l52 0 q55 0 91.5 -33.5 q36.5 -33.5 36.5 -91.5 q0 -57 -28 -98 q-28 -41 -72.5 -62.5 q-44.5 -21.5 -92.5 -21.5 Z" /><glyph glyph-name="uni02D3" unicode="&#x2d3;" d="M238 72 l-52 0 q-54 0 -90.5 33.5 q-36.5 33.5 -36.5 90.5 q0 57 28 98.5 q28 41.5 72.5 63 q44.5 21.5 91.5 21.5 l52 0 l-14 -67 l-48 0 q-30 0 -55.5 -12.5 q-25.5 -12.5 -41 -36.5 q-15.5 -24 -15.5 -57 q0 -34 21 -51 q21 -17 54 -17 l48 0 l-14 -66 Z" /><glyph glyph-name="uni02D4" unicode="&#x2d4;" d="M197 196 l-51 0 l34 162 l51 0 l-34 -162 ZM285 156 l-245 0 l11 51 l245 0 l-11 -51 Z" /><glyph glyph-name="uni02D5" unicode="&#x2d5;" d="M188 156 l-51 0 l35 163 l51 0 l-35 -163 ZM318 307 l-245 0 l10 51 l245 0 l-10 -51 Z" /><glyph glyph-name="uni02D6" unicode="&#x2d6;" d="M190 151 l-52 0 l46 214 l51 0 l-45 -214 ZM290 234 l-216 0 l10 48 l216 0 l-10 -48 Z" /><glyph glyph-name="uni02D7" unicode="&#x2d7;" d="M284 234 l-207 0 l10 48 l207 0 l-10 -48 Z" /><glyph glyph-name="uni02DE" unicode="&#x2de;" d="M113 225 q-39 0 -57 21.5 q-18 21.5 -18 50.5 q0 11 3 22 l-2 1 l-74 -36 l8 36 l115 58 l17 -16 q-3 -7 -6 -15.5 q-3 -8.5 -3 -22.5 q0 -16 7.5 -29 q7.5 -13 29.5 -13 q26 0 41.5 19 q15.5 19 17.5 48 l25 3 l0 -12 q0 -26 -11.5 -53 q-11.5 -27 -34 -44.5 q-22.5 -17.5 -58.5 -17.5 Z" /><glyph glyph-name="uni02DF" unicode="&#x2df;" d="M352 583 l-113 -96 l-124 162 l113 93 l124 -159 ZM368 647 l-191 -159 l-74 98 l189 156 l76 -95 Z" /><glyph glyph-name="uni02E0" unicode="&#x2e0;" d="M153 72 q-40 0 -57.5 20.5 q-17.5 20.5 -17.5 48.5 q0 33 25.5 66.5 q25.5 33.5 71.5 80.5 l9 -42 q-30 -30 -47.5 -54.5 q-17.5 -24.5 -17.5 -47.5 q0 -16 8 -27.5 q8 -11.5 23 -11.5 q18 0 27 16.5 q9 16.5 9 39.5 q0 19 -4.5 37.5 q-4.5 18.5 -8.5 31.5 l-11 0 l2 32 l-47 257 q-3 21 -7.5 38.5 q-4.5 17.5 -15 29 q-10.5 11.5 -31.5 11.5 q-7 0 -14 -0.5 q-7 -0.5 -11 -1.5 l0 31 l106 9 l33 0 q9 -15 15 -30 q6 -15 10.5 -36 q4.5 -21 9.5 -55 l18 -110 l4 -70 l6 0 q38 50 63.5 88 q25.5 38 38.5 64.5 q13 26.5 13 41.5 q0 13 -10 24.5 q-10 11.5 -20 24.5 q-10 13 -10 30 q0 15 10.5 25.5 q10.5 10.5 30.5 10.5 q25 0 41.5 -17 q16.5 -17 16.5 -47 q0 -23 -11 -53 q-11 -30 -31 -64 q-19 -33 -42.5 -66.5 q-23.5 -33.5 -50.5 -68.5 q-27 -35 -60 -73 l24 39 q4 -21 12.5 -52.5 q8.5 -31.5 8.5 -62.5 q0 -36 -16.5 -59.5 q-16.5 -23.5 -41.5 -35.5 q-25 -12 -53 -12 Z" /><glyph glyph-name="uni1DA3" unicode="&#x1da3;" d="M439 77 l-163 0 l52 224 l27 104 l-8 0 q-13 -22 -30.5 -49.5 q-17.5 -27.5 -40.5 -52.5 q-23 -25 -52.5 -41 q-29.5 -16 -66.5 -16 q-34 0 -46.5 19 q-12.5 19 -12.5 41 q0 16 3.5 33.5 q3.5 17.5 5.5 25.5 l40 173 q0 0 1.5 8 q1.5 8 3.5 18.5 q2 10.5 2 18.5 q0 12 -8.5 16.5 q-8.5 4.5 -20.5 4.5 q-8 0 -14 0 q-6 0 -13 -1 l0 29 l120 9 l35 0 l-57 -261 q0 0 -3 -13 q-3 -13 -3 -25 q0 -12 5.5 -20.5 q5.5 -8.5 17.5 -8.5 q21 0 45.5 22.5 q24.5 22.5 47.5 56.5 q23 34 40.5 70 q17.5 36 23.5 64 l26 110 l88 0 l-96 -463 q0 0 -2 -8.5 q-2 -8.5 -2 -18.5 q0 -24 13.5 -33 q13.5 -9 45.5 -9 l-4 -27 Z" /><glyph glyph-name="uni02E5" unicode="&#x2e5;" d="M412 -5 l-61 0 l0 626 l-282 0 l0 62 l343 0 l0 -688 Z" /><glyph glyph-name="uni02E6" unicode="&#x2e6;" d="M404 -5 l-62 0 l0 441 l-281 0 l0 61 l281 0 l0 186 l62 0 l0 -688 Z" /><glyph glyph-name="uni02E7" unicode="&#x2e7;" d="M404 -5 l-62 0 l0 313 l-281 0 l0 61 l281 0 l0 314 l62 0 l0 -688 Z" /><glyph glyph-name="uni02E8" unicode="&#x2e8;" d="M404 -5 l-62 0 l0 185 l-281 0 l0 61 l281 0 l0 442 l62 0 l0 -688 Z" /><glyph glyph-name="uni02E9" unicode="&#x2e9;" d="M404 -5 l-343 0 l0 61 l281 0 l0 627 l62 0 l0 -688 Z" /><glyph glyph-name="uni02EC" unicode="&#x2ec;" d="M111 -156 l-33 0 l-91 232 l82 0 l47 -128 l5 0 l96 128 l84 0 l-190 -232 Z" /><glyph glyph-name="uni02ED" unicode="&#x2ed;" d="M456 653 l-333 0 l14 66 l333 0 l-14 -66 ZM429 524 l-333 0 l13 66 l333 0 l-13 -66 Z" /><glyph glyph-name="uni0300" unicode="&#x300;" d="M-103 521 l-40 0 l-89 134 l5 22 l92 0 l32 -156 Z" /><glyph glyph-name="uni0301" unicode="&#x301;" d="M-172 521 l-41 0 l62 156 l101 0 l-4 -22 l-118 -134 Z" /><glyph glyph-name="uni0302" unicode="&#x302;" d="M-257 521 l-45 0 l140 156 l74 0 l75 -156 l-43 0 l-81 96 l-120 -96 Z" /><glyph glyph-name="uni0303" unicode="&#x303;" d="M-276 533 l-31 0 q11 34 30.5 58.5 q19.5 24.5 43.5 39 q24 14.5 50 14.5 q27 0 44.5 -10 q17.5 -10 33.5 -21 q16 -11 40 -11 q17 0 34 9.5 q17 9.5 31 36.5 l31 0 q-22 -58 -53 -85.5 q-31 -27.5 -71 -27.5 q-28 0 -45.5 10.5 q-17.5 10.5 -33.5 21 q-16 10.5 -41 10.5 q-18 0 -34.5 -9.5 q-16.5 -9.5 -28.5 -35.5 Z" /><glyph glyph-name="uni0304" unicode="&#x304;" d="M-6 555 l-290 0 l13 61 l290 0 l-13 -61 Z" /><glyph glyph-name="uni0305" unicode="&#x305;" d="M50 555 l-400 0 l11 61 l400 0 l-11 -61 Z" /><glyph glyph-name="uni0306" unicode="&#x306;" d="M-154 529 q-58 0 -90.5 27.5 q-32.5 27.5 -32.5 85.5 q0 10 1 20.5 q1 10.5 3 21.5 l31 0 q2 -36 13.5 -54.5 q11.5 -18.5 33 -25 q21.5 -6.5 52.5 -6.5 q33 0 55.5 6.5 q22.5 6.5 41 25 q18.5 18.5 37.5 54.5 l35 0 q-25 -79 -67.5 -117 q-42.5 -38 -112.5 -38 Z" /><glyph glyph-name="uni0307" unicode="&#x307;" d="M-140 552 q-27 0 -44 16 q-17 16 -17 45 q0 29 17 45.5 q17 16.5 46 16.5 q29 0 45 -16.5 q16 -16.5 16 -45.5 q0 -28 -17.5 -44.5 q-17.5 -16.5 -45.5 -16.5 Z" /><glyph glyph-name="uni0308" unicode="&#x308;" d="M-35 552 q-26 0 -42.5 15.5 q-16.5 15.5 -16.5 44.5 q0 27 16.5 43.5 q16.5 16.5 43.5 16.5 q30 0 45 -17 q15 -17 15 -43 q0 -28 -17 -44 q-17 -16 -44 -16 ZM-245 552 q-26 0 -42.5 15.5 q-16.5 15.5 -16.5 44.5 q0 27 16.5 43.5 q16.5 16.5 44.5 16.5 q29 0 44 -17 q15 -17 15 -43 q0 -28 -17 -44 q-17 -16 -44 -16 Z" /><glyph glyph-name="uni0309" unicode="&#x309;" d="M-138 521 l-48 0 l13 57 q23 1 41.5 9.5 q18.5 8.5 30 27.5 q11.5 19 11.5 51 q0 17 -5 25 q-5 8 -19 8 q-16 0 -24.5 -7.5 q-8.5 -7.5 -14.5 -17.5 q-6 -10 -13.5 -17.5 q-7.5 -7.5 -20.5 -7.5 q-11 0 -17.5 7.5 q-6.5 7.5 -6.5 18.5 q0 19 15 32 q15 13 39 19 q24 6 47 6 q44 0 66 -20 q22 -20 22 -53 q0 -36 -19.5 -57 q-19.5 -21 -45 -31 q-25.5 -10 -43.5 -13 l-8 -37 Z" /><glyph glyph-name="uni030A" unicode="&#x30a;" d="M-151 528 q-40 0 -66 21 q-26 21 -26 63 q0 34 17 60.5 q17 26.5 45.5 42 q28.5 15.5 62.5 15.5 q42 0 66.5 -23 q24.5 -23 24.5 -64 q0 -52 -36.5 -83.5 q-36.5 -31.5 -87.5 -31.5 ZM-146 570 q34 0 51 22.5 q17 22.5 17 49.5 q0 47 -45 47 q-32 0 -51 -22 q-19 -22 -19 -51 q0 -21 11 -33.5 q11 -12.5 36 -12.5 Z" /><glyph glyph-name="uni030B" unicode="&#x30b;" d="M-77 521 l-42 0 l60 156 l97 0 l-2 -22 l-113 -134 ZM-223 521 l-42 0 l60 156 l97 0 l-2 -22 l-113 -134 Z" /><glyph glyph-name="uni030C" unicode="&#x30c;" d="M-120 524 l-74 0 l-75 156 l43 0 l81 -96 l119 96 l46 0 l-140 -156 Z" /><glyph glyph-name="uni030D" unicode="&#x30d;" d="M-124 516 l-69 0 l43 205 l70 0 l-44 -205 Z" /><glyph glyph-name="uni030E" unicode="&#x30e;" d="M-50 516 l-70 0 l44 205 l70 0 l-44 -205 ZM-199 516 l-69 0 l44 205 l68 0 l-43 -205 Z" /><glyph glyph-name="uni030F" unicode="&#x30f;" d="M-53 521 l-41 0 l-99 134 l3 22 l92 0 l45 -156 ZM-197 521 l-42 0 l-98 134 l2 22 l92 0 l46 -156 Z" /><glyph glyph-name="uni0310" unicode="&#x310;" d="M-154 529 q-58 0 -90.5 27.5 q-32.5 27.5 -32.5 85.5 q0 10 0.5 20.5 q0.5 10.5 2.5 21.5 l32 0 q2 -36 13.5 -54.5 q11.5 -18.5 33 -25 q21.5 -6.5 52.5 -6.5 q33 0 55.5 6.5 q22.5 6.5 41 25 q18.5 18.5 37.5 54.5 l35 0 q-25 -79 -67.5 -117 q-42.5 -38 -112.5 -38 ZM-134 648 q-26 0 -39 13.5 q-13 13.5 -13 33.5 q0 32 21 51.5 q21 19.5 54 19.5 q25 0 37.5 -13 q12.5 -13 12.5 -33 q0 -30 -19.5 -51 q-19.5 -21 -53.5 -21 Z" /><glyph glyph-name="uni0311" unicode="&#x311;" d="M-270 525 l-35 0 q25 80 67.5 117.5 q42.5 37.5 112.5 37.5 q59 0 91 -27 q32 -27 32 -86 q0 -9 -0.5 -19.5 q-0.5 -10.5 -2.5 -22.5 l-32 0 q-2 37 -13.5 55 q-11.5 18 -33 24.5 q-21.5 6.5 -52.5 6.5 q-32 0 -55 -6.5 q-23 -6.5 -41.5 -25 q-18.5 -18.5 -37.5 -54.5 Z" /><glyph glyph-name="uni0312" unicode="&#x312;" d="M-148 523 q-34 0 -52 22 q-18 22 -18 59 q0 39 18 67 q18 28 45 46 q27 18 53.5 28.5 q26.5 10.5 42.5 14.5 l9 -28 q-20 -7 -43 -18.5 q-23 -11.5 -40 -30.5 q-17 -19 -22 -49 q11 5 22 5 q21 0 36.5 -13.5 q15.5 -13.5 15.5 -38.5 q0 -23 -16.5 -43.5 q-16.5 -20.5 -50.5 -20.5 Z" /><glyph glyph-name="uni0313" unicode="&#x313;" d="M-208 512 l-8 28 q20 7 42.5 18.5 q22.5 11.5 40 31 q17.5 19.5 22.5 48.5 q-11 -5 -23 -5 q-20 0 -35.5 13.5 q-15.5 13.5 -15.5 37.5 q0 24 16.5 44 q16.5 20 50.5 20 q34 0 52 -21.5 q18 -21.5 18 -58.5 q0 -39 -18.5 -67 q-18.5 -28 -45.5 -46.5 q-27 -18.5 -53.5 -28.5 q-26.5 -10 -42.5 -14 Z" /><glyph glyph-name="uni0314" unicode="&#x314;" d="M-88 540 l-12 -28 q-20 7 -42 21 q-22 14 -37.5 39.5 q-15.5 25.5 -15.5 65.5 q0 28 9.5 53.5 q9.5 25.5 28.5 41 q19 15.5 48 15.5 q28 0 44.5 -15 q16.5 -15 16.5 -39 q0 -27 -18 -44 q-18 -17 -45 -17 q-13 0 -28 6 q-4 -13 -4 -24 q0 -30 15.5 -48.5 q15.5 -18.5 39.5 -26.5 Z" /><glyph glyph-name="uni0315" unicode="&#x315;" d="M-156 496 l-34 6 l39 196 l91 0 l-2 -23 q-6 -28 -21.5 -59.5 q-15.5 -31.5 -35 -62.5 q-19.5 -31 -37.5 -57 Z" /><glyph glyph-name="uni031A" unicode="&#x31a;" d="M-36 511 l-67 0 l32 149 l-179 0 l13 63 l246 0 l-45 -212 Z" /><glyph glyph-name="uni031B" unicode="&#x31b;" d="M-133 439 q-7 0 -17.5 0.5 q-10.5 0.5 -19.5 1.5 q-9 1 -15 1 l2 28 q15 0 33.5 0 q18.5 0 33.5 0 q32 0 47.5 11.5 q15.5 11.5 15.5 33.5 q0 17 -8 30.5 q-8 13.5 -8 29.5 q0 27 15 37 q15 10 32 10 q19 0 32.5 -12 q13.5 -12 13.5 -44 q0 -16 -6 -37 q-6 -21 -23 -42 q-17 -21 -48 -34.5 q-31 -13.5 -80 -13.5 Z" /><glyph glyph-name="uni033F" unicode="&#x33f;" d="M39 509 l-397 0 l12 59 l398 0 l-13 -59 ZM65 633 l-397 0 l12 58 l397 0 l-12 -58 Z" /><glyph glyph-name="uni0346" unicode="&#x346;" d="M-239 523 l-67 0 l33 156 l299 0 l-33 -156 l-65 0 l20 93 l-167 0 l-20 -93 Z" /><glyph glyph-name="uni034C" unicode="&#x34c;" d="M-249 659 l-31 0 q18 49 51 79.5 q33 30.5 73 30.5 q27 0 44.5 -10.5 q17.5 -10.5 33.5 -21 q16 -10.5 39 -10.5 q18 0 35.5 10 q17.5 10 31.5 36 l30 0 q-23 -58 -53.5 -84.5 q-30.5 -26.5 -71.5 -26.5 q-28 0 -45.5 10.5 q-17.5 10.5 -33 21 q-15.5 10.5 -39.5 10.5 q-19 0 -35.5 -9.5 q-16.5 -9.5 -28.5 -35.5 ZM-278 526 l-31 0 q18 50 51.5 80 q33.5 30 73.5 30 q27 0 44 -10 q17 -10 33 -21 q16 -11 40 -11 q17 0 34.5 10 q17.5 10 31.5 36 l30 0 q-23 -58 -53.5 -84.5 q-30.5 -26.5 -70.5 -26.5 q-29 0 -46.5 11 q-17.5 11 -33 21 q-15.5 10 -39.5 10 q-18 0 -35 -9.5 q-17 -9.5 -29 -35.5 Z" /><glyph glyph-name="uni0360" unicode="&#x360;" d="M191 522 q-37 0 -69 10 q-32 10 -62 22.5 q-30 12.5 -59.5 22.5 q-29.5 10 -59.5 10 q-34 0 -59 -12 q-25 -12 -40 -37 l-30 0 q20 58 60.5 86 q40.5 28 94.5 28 q35 0 67.5 -9.5 q32.5 -9.5 63 -22.5 q30.5 -13 59 -23 q28.5 -10 56.5 -10 q40 0 64.5 12 q24.5 12 39.5 37 l30 0 q-20 -58 -60 -86 q-40 -28 -96 -28 Z" /><glyph glyph-name="uni0361" unicode="&#x361;" d="M-150 543 l-32 0 q24 84 90.5 119.5 q66.5 35.5 183.5 35.5 q116 0 169 -37 q53 -37 50 -118 l-28 0 q-15 36 -38 54 q-23 18 -61 24.5 q-38 6.5 -101 6.5 q-61 0 -104 -6.5 q-43 -6.5 -73 -24.5 q-30 -18 -56 -54 Z" /><glyph glyph-name="uni0316" unicode="&#x316;" d="M-258 -212 l-41 0 l-89 134 l4 22 l93 0 l33 -156 Z" /><glyph glyph-name="uni0317" unicode="&#x317;" d="M-328 -212 l-42 0 l63 156 l101 0 l-4 -22 l-118 -134 Z" /><glyph glyph-name="uni0318" unicode="&#x318;" d="M-257 -258 l-51 0 l44 205 l51 0 l-44 -205 ZM-279 -181 l-113 0 l11 51 l112 0 l-10 -51 Z" /><glyph glyph-name="uni0319" unicode="&#x319;" d="M-340 -258 l-51 0 l43 205 l51 0 l-43 -205 ZM-223 -181 l-112 0 l10 51 l113 0 l-11 -51 Z" /><glyph glyph-name="uni031C" unicode="&#x31c;" d="M-274 -258 l-28 0 q-40 0 -66 22.5 q-26 22.5 -26 63.5 q0 60 39.5 89 q39.5 29 94.5 29 l29 0 l-10 -47 l-26 0 q-33 0 -53.5 -17.5 q-20.5 -17.5 -20.5 -48.5 q0 -21 13 -33 q13 -12 38 -12 l26 0 l-10 -46 Z" /><glyph glyph-name="uni031D" unicode="&#x31d;" d="M-280 -179 l-51 0 l26 124 l51 0 l-26 -124 ZM-211 -216 l-206 0 l10 49 l206 0 l-10 -49 Z" /><glyph glyph-name="uni031E" unicode="&#x31e;" d="M-289 -216 l-51 0 l27 124 l51 0 l-27 -124 ZM-188 -104 l-206 0 l11 49 l206 0 l-11 -49 Z" /><glyph glyph-name="uni031F" unicode="&#x31f;" d="M-300 -266 l-51 0 l45 214 l52 0 l-46 -214 ZM-200 -183 l-216 0 l11 48 l216 0 l-11 -48 Z" /><glyph glyph-name="uni0320" unicode="&#x320;" d="M-204 -178 l-207 0 l11 48 l207 0 l-11 -48 Z" /><glyph glyph-name="uni0321" unicode="&#x321;" d="M-394 -224 q-50 0 -77 23 q-27 23 -27 58 q0 18 11 34 q11 16 34 16 q24 0 33.5 -14 q9.5 -14 13.5 -32 q4 -18 9 -32 q5 -14 19 -14 q18 0 33 25 q15 25 26.5 62 q11.5 37 19.5 74 q8 37 12 61 l101 0 q-9 -40 -24.5 -85 q-15.5 -45 -39.5 -85.5 q-24 -40.5 -59.5 -65.5 q-35.5 -25 -84.5 -25 Z" /><glyph glyph-name="uni0322" unicode="&#x322;" d="M-160 -226 q-79 0 -112 37 q-33 37 -33 100 q0 14 2 30 q2 16 6 39 q4 23 11 57 l100 0 l-15 -70 q-5 -27 -8.5 -51.5 q-3.5 -24.5 -3.5 -43.5 q0 -27 9 -42 q9 -15 29 -15 q21 0 34 12.5 q13 12.5 23.5 27.5 q10.5 15 23.5 27.5 q13 12.5 33 12.5 q15 0 27 -9 q12 -9 12 -28 q0 -27 -18.5 -46 q-18.5 -19 -49.5 -28.5 q-31 -9.5 -70 -9.5 Z" /><glyph glyph-name="uni0323" unicode="&#x323;" d="M-298 -192 q-26 0 -43 16.5 q-17 16.5 -17 45.5 q0 28 16.5 45 q16.5 17 45.5 17 q30 0 46 -17 q16 -17 16 -45 q0 -29 -17.5 -45.5 q-17.5 -16.5 -46.5 -16.5 Z" /><glyph glyph-name="uni0324" unicode="&#x324;" d="M-192 -188 q-26 0 -42.5 16 q-16.5 16 -16.5 44 q0 27 16 43.5 q16 16.5 44 16.5 q29 0 44.5 -16.5 q15.5 -16.5 15.5 -43.5 q0 -28 -17 -44 q-17 -16 -44 -16 ZM-402 -188 q-26 0 -42.5 16 q-16.5 16 -16.5 44 q0 27 16.5 43.5 q16.5 16.5 44.5 16.5 q29 0 44 -16.5 q15 -16.5 15 -43.5 q0 -28 -17 -44 q-17 -16 -44 -16 Z" /><glyph glyph-name="uni0325" unicode="&#x325;" d="M-318 -254 q-40 0 -66 20.5 q-26 20.5 -26 62.5 q0 35 17.5 61.5 q17.5 26.5 46 41.5 q28.5 15 62.5 15 q42 0 66 -23 q24 -23 24 -64 q0 -52 -36.5 -83 q-36.5 -31 -87.5 -31 ZM-313 -213 q34 0 51 22.5 q17 22.5 17 50.5 q0 46 -45 46 q-32 0 -50.5 -22 q-18.5 -22 -18.5 -51 q0 -21 10.5 -33.5 q10.5 -12.5 35.5 -12.5 Z" /><glyph glyph-name="uni0326" unicode="&#x326;" d="M-377 -285 l-8 28 q20 7 42.5 18.5 q22.5 11.5 39.5 31 q17 19.5 22 48.5 q-11 -5 -22 -5 q-21 0 -36.5 13.5 q-15.5 13.5 -15.5 38.5 q0 24 17 43.5 q17 19.5 51 19.5 q34 0 52 -21.5 q18 -21.5 18 -58.5 q0 -39 -18.5 -67 q-18.5 -28 -45.5 -46 q-27 -18 -53.5 -28.5 q-26.5 -10.5 -42.5 -14.5 Z" /><glyph glyph-name="uni0327" unicode="&#x327;" d="M-303 -217 q-29 0 -52 10.5 q-23 10.5 -40 25.5 l17 24 q12 -8 29 -14 q17 -6 36 -6 q26 0 42 13 q16 13 16 37 q0 17 -9.5 26 q-9.5 9 -29.5 9 q-10 0 -20 -1.5 q-10 -1.5 -10 -1.5 l-12 12 l40 87 l32 0 l-26 -60 q3 1 9.5 1.5 q6.5 0.5 14.5 0.5 q31 0 54 -16 q23 -16 23 -53 q0 -30 -17 -51 q-17 -21 -42.5 -32 q-25.5 -11 -54.5 -11 Z" /><glyph glyph-name="uni0328" unicode="&#x328;" d="M-294 -218 q-43 0 -67.5 22.5 q-24.5 22.5 -24.5 59.5 q0 34 20.5 60.5 q20.5 26.5 47.5 47 q27 20.5 47 32.5 l50 0 q-19 -13 -39 -28.5 q-20 -15.5 -34.5 -36.5 q-14.5 -21 -14.5 -50 q0 -27 13 -39 q13 -12 36 -12 q27 0 44 7.5 q17 7.5 39 23.5 l16 -21 q-31 -29 -60 -47.5 q-29 -18.5 -73 -18.5 Z" /><glyph glyph-name="uni0329" unicode="&#x329;" d="M-287 -229 l-62 0 l38 177 l61 0 l-37 -177 Z" /><glyph glyph-name="uni032A" unicode="&#x32a;" d="M-387 -188 l-51 0 l29 133 l257 0 l-29 -133 l-49 0 l18 84 l-157 0 l-18 -84 Z" /><glyph glyph-name="uni032B" unicode="&#x32b;" d="M-372 -185 q-37 0 -58 18.5 q-21 18.5 -21 48.5 q0 6 1 11.5 q1 5.5 2 10.5 l9 41 l51 0 l-9 -42 q-1 -2 -1 -4.5 q0 -2.5 0 -4.5 q0 -14 10 -21 q10 -7 26 -7 q21 0 32 9 q11 9 15 28 l9 42 l51 0 l-9 -41 q-1 -2 -1 -4.5 q0 -2.5 0 -4.5 q0 -15 10 -22 q10 -7 25 -7 q24 0 36.5 9.5 q12.5 9.5 16.5 28.5 l9 41 l51 0 l-9 -41 q-9 -42 -38.5 -65.5 q-29.5 -23.5 -70.5 -23.5 q-24 0 -41.5 10.5 q-17.5 10.5 -23.5 24.5 l-3 0 q-10 -15 -27.5 -25 q-17.5 -10 -41.5 -10 Z" /><glyph glyph-name="uni032C" unicode="&#x32c;" d="M-274 -203 l-75 0 l-75 153 l43 0 l81 -94 l119 94 l46 0 l-139 -153 Z" /><glyph glyph-name="uni032D" unicode="&#x32d;" d="M-411 -203 l-45 0 l139 153 l74 0 l76 -153 l-43 0 l-82 94 l-119 -94 Z" /><glyph glyph-name="uni032E" unicode="&#x32e;" d="M-309 -205 q-58 0 -90.5 27 q-32.5 27 -32.5 86 q0 9 0.5 19.5 q0.5 10.5 2.5 22.5 l32 0 q2 -36 13.5 -54.5 q11.5 -18.5 33 -25 q21.5 -6.5 52.5 -6.5 q33 0 55.5 6.5 q22.5 6.5 41 25 q18.5 18.5 37.5 54.5 l35 0 q-25 -79 -67.5 -117 q-42.5 -38 -112.5 -38 Z" /><glyph glyph-name="uni032F" unicode="&#x32f;" d="M-423 -205 l-35 0 q25 80 67.5 117.5 q42.5 37.5 111.5 37.5 q59 0 91.5 -27.5 q32.5 -27.5 32.5 -85.5 q0 -10 -0.5 -20.5 q-0.5 -10.5 -2.5 -21.5 l-33 0 q-1 37 -12.5 55 q-11.5 18 -33 24.5 q-21.5 6.5 -52.5 6.5 q-32 0 -55.5 -6.5 q-23.5 -6.5 -41.5 -25 q-18 -18.5 -37 -54.5 Z" /><glyph glyph-name="uni0330" unicode="&#x330;" d="M-434 -162 l-31 0 q18 49 51 79.5 q33 30.5 73 30.5 q27 0 44.5 -10.5 q17.5 -10.5 33.5 -21 q16 -10.5 40 -10.5 q17 0 34.5 9.5 q17.5 9.5 31.5 36.5 l30 0 q-23 -58 -53.5 -84.5 q-30.5 -26.5 -70.5 -26.5 q-29 0 -46.5 10.5 q-17.5 10.5 -33 21 q-15.5 10.5 -39.5 10.5 q-19 0 -35.5 -9.5 q-16.5 -9.5 -28.5 -35.5 Z" /><glyph glyph-name="uni0331" unicode="&#x331;" d="M-154 -144 l-290 0 l13 61 l290 0 l-13 -61 Z" /><glyph glyph-name="uni0332" unicode="&#x332;" d="M-43 -141 l-512 0 l13 58 l512 0 l-13 -58 Z" /><glyph glyph-name="uni0333" unicode="&#x333;" d="M-67 -257 l-512 0 l12 58 l512 0 l-12 -58 ZM-42 -138 l-512 0 l12 58 l512 0 l-12 -58 Z" /><glyph glyph-name="uni0339" unicode="&#x339;" d="M-344 -258 l-30 0 l10 46 l26 0 q35 0 54.5 18.5 q19.5 18.5 19.5 48.5 q0 21 -12.5 32.5 q-12.5 11.5 -37.5 11.5 l-26 0 l10 47 l28 0 q40 0 65.5 -22.5 q25.5 -22.5 25.5 -64.5 q0 -60 -39 -88.5 q-39 -28.5 -94 -28.5 Z" /><glyph glyph-name="uni033A" unicode="&#x33a;" d="M-181 -188 l-257 0 l29 133 l51 0 l-18 -84 l157 0 l18 84 l49 0 l-29 -133 Z" /><glyph glyph-name="uni033B" unicode="&#x33b;" d="M-226 -246 l-191 0 l41 191 l191 0 l-41 -191 ZM-336 -103 l-21 -95 l91 0 l21 95 l-91 0 Z" /><glyph glyph-name="uni033C" unicode="&#x33c;" d="M-297 -192 l-23 0 q-6 28 -18 49.5 q-12 21.5 -43 21.5 q-15 0 -30.5 -5.5 q-15.5 -5.5 -42.5 -23.5 l14 64 q24 16 41.5 23.5 q17.5 7.5 32.5 7.5 q25 0 43 -12.5 q18 -12.5 30 -42.5 l3 0 q25 28 48 41.5 q23 13.5 46 13.5 q15 0 33.5 -7.5 q18.5 -7.5 34.5 -23.5 l-13 -64 q-20 18 -35.5 23.5 q-15.5 5.5 -30.5 5.5 q-29 0 -50 -20.5 q-21 -20.5 -40 -50.5 Z" /><glyph glyph-name="uni033D" unicode="&#x33d;" d="M-33 572 l-37 -35 l-163 172 l39 34 l161 -171 ZM-25 708 l-183 -171 l-31 36 l183 170 l31 -35 Z" /><glyph glyph-name="uni033E" unicode="&#x33e;" d="M-215 511 l4 32 q36 14 50.5 29 q14.5 15 14.5 41 q0 27 -9 53 q-9 26 -9 55 q0 49 34 80.5 q34 31.5 98 44.5 l-5 -32 q-29 -9 -46 -26 q-17 -17 -17 -42 q0 -26 10 -52 q10 -26 10 -57 q0 -32 -14 -57 q-14 -25 -43.5 -41.5 q-29.5 -16.5 -77.5 -27.5 Z" /><glyph glyph-name="uni0347" unicode="&#x347;" d="M-131 -126 l-330 0 l14 65 l330 0 l-14 -65 ZM-154 -239 l-331 0 l15 66 l330 0 l-14 -66 Z" /><glyph glyph-name="uni0359" unicode="&#x359;" d="M-339 -383 q-15 0 -27.5 10 q-12.5 10 -12.5 26 q0 12 7 28.5 q7 16.5 15 33 q8 16.5 13 28.5 q3 7 5.5 13 q2.5 6 3.5 11 l-2 2 q-18 -5 -38 -20.5 q-20 -15.5 -38.5 -28 q-18.5 -12.5 -35.5 -12.5 q-14 0 -23.5 12.5 q-9.5 12.5 -9.5 27.5 q0 19 12 26.5 q12 7.5 30.5 9.5 q18.5 2 38.5 3 q15 1 28.5 1.5 q13.5 0.5 27.5 6.5 l1 3 q-7 8 -21 16 q-14 8 -28 14 q-23 11 -42 22 q-19 11 -19 28 q0 16 12.5 28.5 q12.5 12.5 25.5 12.5 q13 0 25 -12 q12 -12 23 -29 q11 -15 21 -31 q10 -16 21 -29 l3 1 q1 9 1 18.5 q0 9.5 1 19.5 q0 10 -1 20.5 q-1 10.5 -1 21.5 q0 32 9 46.5 q9 14.5 28 14.5 q16 0 27 -9 q11 -9 11 -24 q0 -14 -8.5 -32.5 q-8.5 -18.5 -19 -39.5 q-10.5 -21 -17.5 -44 l1 -1 q20 9 40.5 23 q20.5 14 39.5 25 q19 11 32 11 q14 0 24 -11.5 q10 -11.5 10 -27.5 q0 -22 -14.5 -29 q-14.5 -7 -36.5 -7.5 q-22 -0.5 -45 -0.5 q-23 0 -42 -7 l-1 -3 q4 -3 8.5 -6 q4.5 -3 8.5 -6 q17 -12 39 -22.5 q22 -10.5 38.5 -22.5 q16.5 -12 16.5 -30 q0 -15 -12.5 -27 q-12.5 -12 -26.5 -12 q-16 0 -28.5 15 q-12.5 15 -22.5 35 q-10 20 -22 34 q-4 6 -8 11.5 q-4 5.5 -8 9.5 l-2 -1 q-1 -6 -1.5 -14 q-0.5 -8 -1.5 -16 q0 -15 1.5 -29.5 q1.5 -14.5 1.5 -27.5 q0 -57 -35 -57 Z" /><glyph glyph-name="uni035C" unicode="&#x35c;" d="M-97 -239 q-35 0 -77 3 q-42 3 -83.5 10.5 q-41.5 7.5 -76.5 23 q-35 15.5 -56 39.5 q-21 24 -21 60 q0 12 3 25 l28 0 q0 -24 21.5 -41 q21.5 -17 56.5 -27 q35 -10 74.5 -15.5 q39.5 -5.5 76.5 -7.5 q37 -2 63 -2 q26 0 63.5 2 q37.5 2 79.5 7.5 q42 5.5 81 15.5 q39 10 67.5 27 q28.5 17 39.5 41 l33 0 q-9 -43 -38.5 -72 q-29.5 -29 -71 -46.5 q-41.5 -17.5 -88.5 -27 q-47 -9.5 -93 -12.5 q-46 -3 -82 -3 Z" /><glyph glyph-name="uni0362" unicode="&#x362;" d="M192 -277 l-20 20 l28 34 q6 8 6 14 q0 9 -12 9 l-655 0 l0 62 l656 0 q3 0 7.5 4 q4.5 4 4.5 8 q0 3 -2 5.5 q-2 2.5 -5 6.5 l-28 34 l21 19 q23 -28 51.5 -55.5 q28.5 -27.5 62.5 -41.5 l0 -21 q-34 -15 -62.5 -42.5 q-28.5 -27.5 -52.5 -55.5 Z" /><glyph glyph-name="uni0334" unicode="&#x334;" d="M-359 201 l-33 0 q13 50 42 79 q29 29 71 29 q27 0 52.5 -11 q25.5 -11 50 -22 q24.5 -11 50.5 -11 q18 0 31.5 11.5 q13.5 11.5 26.5 37.5 l32 0 q-18 -58 -44.5 -85 q-26.5 -27 -69.5 -27 q-28 0 -54 11.5 q-26 11.5 -50 22 q-24 10.5 -50 10.5 q-18 0 -32 -10.5 q-14 -10.5 -23 -34.5 Z" /><glyph glyph-name="uni0335" unicode="&#x335;" d="M-63 231 l-313 0 l12 54 l313 0 l-12 -54 Z" /><glyph glyph-name="uni0336" unicode="&#x336;" d="M37 231 l-512 0 l12 54 l512 0 l-12 -54 Z" /><glyph glyph-name="uni0337" unicode="&#x337;" d="M-335 253 l-20 37 l307 188 l19 -36 l-306 -189 Z" /><glyph glyph-name="uni0338" unicode="&#x338;" d="M-439 -160 l-62 0 l543 838 l62 0 l-543 -838 Z" /><glyph glyph-name="Gamma" unicode="&#x393;" d="M288 0 l-301 0 l6 34 q37 0 57.5 6.5 q20.5 6.5 31.5 25.5 q11 19 18 55 l87 409 q8 39 6 59 q-2 20 -20 27 q-18 7 -59 7 l7 34 l526 0 l-32 -181 l-37 0 q4 51 -4.5 80.5 q-8.5 29.5 -38 41.5 q-29.5 12 -90.5 12 l-136 0 l-103 -491 q-6 -33 -2 -51.5 q4 -18.5 25.5 -26 q21.5 -7.5 64.5 -7.5 l-6 -34 Z" /><glyph glyph-name="Delta" unicode="&#x394;" d="M562 0 l-600 0 l10 39 l452 623 l57 0 l90 -623 l-9 -39 ZM388 537 l-319 -453 l381 0 l-58 453 l-4 0 Z" /><glyph glyph-name="Theta" unicode="&#x398;" d="M321 -13 q-91 0 -149 33.5 q-58 33.5 -85 92.5 q-27 59 -27 134 q0 91 28.5 168 q28.5 77 80.5 134 q52 57 123 88.5 q71 31.5 157 31.5 q91 0 149 -34.5 q58 -34.5 86 -93 q28 -58.5 28 -129.5 q0 -95 -28.5 -173 q-28.5 -78 -81 -134 q-52.5 -56 -124 -87 q-71.5 -31 -157.5 -31 ZM270 227 l-28 0 l40 194 l28 0 q-6 -31 3 -44 q9 -13 33 -13 l101 0 q43 0 54 57 l29 0 l-41 -194 l-28 0 q6 33 -1.5 46.5 q-7.5 13.5 -28.5 13.5 l-102 0 q-25 0 -38.5 -13 q-13.5 -13 -20.5 -47 ZM333 33 q54 0 96.5 21 q42.5 21 74 57.5 q31.5 36.5 52 85.5 q20.5 49 30.5 105.5 q10 56.5 10 116.5 q0 101 -41.5 153 q-41.5 52 -116.5 52 q-60 0 -108 -29.5 q-48 -29.5 -82.5 -82.5 q-34.5 -53 -53 -123 q-18.5 -70 -18.5 -152 q0 -58 15.5 -104.5 q15.5 -46.5 49.5 -73 q34 -26.5 92 -26.5 Z" /><glyph glyph-name="Lambda" unicode="&#x39b;" d="M156 0 l-214 0 l8 34 q27 0 46 8.5 q19 8.5 40.5 34 q21.5 25.5 54.5 77.5 l333 508 l59 0 l93 -537 q10 -49 26.5 -70 q16.5 -21 57.5 -21 l-7 -34 l-280 0 l8 34 q21 0 38 3.5 q17 3.5 27.5 16 q10.5 12.5 10.5 38.5 q0 12 -1 25 q-1 13 -3 19 l-55 394 l-4 0 l-262 -409 q-10 -14 -18.5 -30 q-8.5 -16 -8.5 -30 q0 -16 13 -21.5 q13 -5.5 46 -5.5 l-8 -34 Z" /><glyph glyph-name="Xi" unicode="&#x39e;" d="M536 0 l-528 0 l28 193 l35 0 q-2 -60 13 -83 q15 -23 50 -23 l307 0 q39 0 63 22 q24 22 49 84 l33 0 l-50 -193 ZM187 222 l-34 0 l46 231 l33 0 q-2 -10 -3 -18.5 q-1 -8.5 -1 -16.5 q0 -23 12.5 -32.5 q12.5 -9.5 40.5 -9.5 l129 0 q34 0 52 17 q18 17 27 60 l34 0 l-47 -231 l-33 0 q2 8 3 15 q1 7 1 14 q0 29 -14.5 39.5 q-14.5 10.5 -40.5 10.5 l-127 0 q-34 0 -52 -17.5 q-18 -17.5 -26 -61.5 ZM141 476 l-36 0 l41 181 l509 0 l-30 -179 l-36 0 q3 53 -9.5 75 q-12.5 22 -55.5 22 l-281 0 q-42 0 -62.5 -22 q-20.5 -22 -39.5 -77 Z" /><glyph glyph-name="Pi" unicode="&#x3a0;" d="M276 0 l-292 0 l8 34 q42 0 62.5 6 q20.5 6 30 26 q9.5 20 17.5 62 l84 400 q9 40 7 60 q-2 20 -20.5 27.5 q-18.5 7.5 -60.5 7.5 l7 34 l700 0 l-7 -34 q-45 0 -66.5 -8 q-21.5 -8 -31 -28.5 q-9.5 -20.5 -17.5 -59.5 l-82 -394 q-9 -45 -7 -65.5 q2 -20.5 21.5 -27 q19.5 -6.5 61.5 -6.5 l-7 -34 l-292 0 l7 34 q40 0 60 6 q20 6 30.5 27 q10.5 21 19.5 65 l99 477 l-299 0 l-100 -478 q-8 -42 -7 -63 q1 -21 19.5 -27.5 q18.5 -6.5 61.5 -6.5 l-7 -34 Z" /><glyph glyph-name="Sigma" unicode="&#x3a3;" d="M507 0 l-522 0 l7 35 l317 294 l-192 296 l6 32 l516 0 l-31 -179 l-37 0 q4 55 -5 82.5 q-9 27.5 -34.5 37 q-25.5 9.5 -72.5 9.5 l-191 0 l0 -7 l138 -226 l-2 -22 l-282 -261 l0 -5 l270 0 q40 0 67 14.5 q27 14.5 47 42 q20 27.5 39 66.5 l40 0 l-78 -209 Z" /><glyph glyph-name="Phi" unicode="&#x3a6;" d="M466 0 l-299 0 l7 34 q44 0 66 7.5 q22 7.5 32.5 30 q10.5 22.5 18.5 64.5 l81 392 q8 37 6 57.5 q-2 20.5 -20.5 29 q-18.5 8.5 -61.5 8.5 l6 34 l301 0 l-7 -34 q-43 0 -65 -8.5 q-22 -8.5 -32 -28.5 q-10 -20 -18 -56 l-80 -393 q-9 -42 -8.5 -64 q0.5 -22 19 -30.5 q18.5 -8.5 61.5 -8.5 l-7 -34 ZM313 162 l-9 -41 q-86 2 -143.5 21.5 q-57.5 19.5 -86 57 q-28.5 37.5 -28.5 93.5 q0 80 43 134 q43 54 120 84 q77 30 180 33 l-10 -39 q-66 -4 -114.5 -25 q-48.5 -21 -74.5 -67 q-26 -46 -26 -125 q0 -36 14.5 -63 q14.5 -27 46.5 -42.5 q32 -15.5 88 -20.5 ZM384 120 l9 42 q68 3 116.5 26.5 q48.5 23.5 74 70.5 q25.5 47 25.5 119 q0 62 -36.5 91.5 q-36.5 29.5 -111.5 33.5 l8 41 q124 -3 190.5 -43.5 q66.5 -40.5 66.5 -120.5 q0 -86 -42 -142 q-42 -56 -119 -84.5 q-77 -28.5 -181 -33.5 Z" /><glyph glyph-name="Psi" unicode="&#x3a8;" d="M479 0 l-300 0 l8 34 q44 0 66 7 q22 7 32.5 28.5 q10.5 21.5 19.5 65.5 l79 386 q8 39 7.5 61.5 q-0.5 22.5 -18 31.5 q-17.5 9 -61.5 9 l7 34 l292 0 l-6 -34 q-45 0 -66.5 -9 q-21.5 -9 -30.5 -31.5 q-9 -22.5 -17 -61.5 l-80 -386 q-8 -42 -7 -63.5 q1 -21.5 19.5 -29.5 q18.5 -8 62.5 -8 l-7 -34 ZM346 251 l-14 -44 q-44 0 -86 10 q-42 10 -76 30 q-34 20 -54 51.5 q-20 31.5 -20 74.5 q0 32 10.5 70 q10.5 38 20.5 74.5 q10 36.5 10 60.5 q0 17 -8.5 31 q-8.5 14 -34.5 14 l-11 0 l7 34 l22 0 q47 0 75.5 -14 q28.5 -14 41 -37 q12.5 -23 12.5 -50 q0 -19 -8.5 -52.5 q-8.5 -33.5 -17 -69 q-8.5 -35.5 -8.5 -61.5 q0 -20 6 -42 q6 -22 20.5 -40.5 q14.5 -18.5 42 -29.5 q27.5 -11 70.5 -10 ZM415 207 l5 44 q64 1 104.5 25 q40.5 24 64 62.5 q23.5 38.5 32.5 81.5 q5 26 10.5 58.5 q5.5 32.5 8.5 48.5 q12 56 59.5 93 q47.5 37 121.5 37 l21 0 l-7 -34 l-9 0 q-37 0 -51.5 -26 q-14.5 -26 -21.5 -58 q-6 -26 -11.5 -58.5 q-5.5 -32.5 -12.5 -69.5 q-11 -54 -43 -92 q-32 -38 -76.5 -62.5 q-44.5 -24.5 -95.5 -36.5 q-51 -12 -99 -13 Z" /></font>
</defs>
</svg>
