<?xml version="1.0" standalone="no"?><!DOCTYPE svg PUBLIC "-//W3C//DTD SVG 1.1//EN" "http://www.w3.org/Graphics/SVG/1.1/DTD/svg11.dtd" ><svg xmlns="http://www.w3.org/2000/svg"><metadata></metadata><defs><font id="1.002;AMMP;Now-Thin" horiz-adv-x="924"><font-face font-family="Now Thin" font-weight="250" font-stretch="normal" units-per-em="800" panose-1="0 0 3 0 0 0 0 0 0 0" ascent="736" descent="-240" x-height="0" bbox="-596 -240 872 936" underline-thickness="50" underline-position="-75" unicode-range="U+0020-fb02" /><missing-glyph horiz-adv-x="480" d="M94 0 l292 0 l0 600 l-292 0 l0 -600 ZM110 16 l0 568 l260 0 l0 -568 l-260 0 Z" /><glyph glyph-name="" unicode="A" d="M448 0 l18 0 l-216 600 l-18 0 l-217 -600 l19 0 l56 155 l302 0 l56 -155 ZM95 171 l146 407 l146 -407 l-292 0 Z" /><glyph glyph-name="" unicode="Á" d="M337 800 l-26 0 l-80 -145 l20 0 l86 145 ZM448 0 l18 0 l-216 600 l-18 0 l-217 -600 l19 0 l56 155 l302 0 l56 -155 ZM95 171 l146 407 l146 -407 l-292 0 Z" /><glyph glyph-name="" unicode="&#x102;" d="M241 660 q52 1 87 32 q34 30 35 77 l-16 0 q-1 -40 -30 -66 q-30 -26 -76 -27 q-45 1 -75 27 q-29 26 -30 66 l-16 0 q1 -47 35 -77 q34 -31 86 -32 l0 0 ZM448 0 l18 0 l-216 600 l-18 0 l-217 -600 l19 0 l56 155 l302 0 l56 -155 ZM95 171 l146 407 l146 -407 l-292 0 Z" /><glyph glyph-name="" unicode="&#x1cd;" d="M250 655 l78 145 l-25 0 l-62 -126 l-64 126 l-24 0 l77 -145 l20 0 ZM448 0 l18 0 l-216 600 l-18 0 l-217 -600 l19 0 l56 155 l302 0 l56 -155 ZM95 171 l146 407 l146 -407 l-292 0 Z" /><glyph glyph-name="" unicode="Â" d="M241 782 l62 -127 l25 0 l-78 145 l-20 0 l-77 -145 l24 0 l64 127 ZM448 0 l18 0 l-216 600 l-18 0 l-217 -600 l19 0 l56 155 l302 0 l56 -155 ZM95 171 l146 407 l146 -407 l-292 0 Z" /><glyph glyph-name="" unicode="Ä" d="M181 680 q10 0 17 7 q7 6 7 17 q0 10 -7 17 q-7 7 -17 7 q-10 0 -17 -7 q-7 -7 -7 -17 q0 -11 7 -17 q7 -7 17 -7 l0 0 ZM301 680 q10 0 17 7 q7 6 7 17 q0 10 -7 17 q-7 7 -17 7 q-10 0 -17 -7 q-7 -7 -7 -17 q0 -11 7 -17 q7 -7 17 -7 l0 0 ZM448 0 l18 0 l-216 600 l-18 0 l-217 -600 l19 0 l56 155 l302 0 l56 -155 ZM95 171 l146 407 l146 -407 l-292 0 Z" /><glyph glyph-name="" unicode="À" d="M251 655 l-80 145 l-26 0 l86 -145 l20 0 ZM448 0 l18 0 l-216 600 l-18 0 l-217 -600 l19 0 l56 155 l302 0 l56 -155 ZM95 171 l146 407 l146 -407 l-292 0 Z" /><glyph glyph-name="" unicode="&#x100;" d="M341 712 l-200 0 l0 -16 l200 0 l0 16 ZM448 0 l18 0 l-216 600 l-18 0 l-217 -600 l19 0 l56 155 l302 0 l56 -155 ZM95 171 l146 407 l146 -407 l-292 0 Z" /><glyph glyph-name="" unicode="&#x104;" d="M525 -162 q-16 -15 -33 -22 q-16 -8 -40 -8 q-30 0 -45 18 q-15 17 -15 45 q2 41 25 73 q23 31 49 56 l-216 600 l-18 0 l-217 -600 l19 0 l56 155 l302 0 l56 -154 q-27 -29 -48 -59 q-21 -31 -22 -71 q0 -36 19 -57 q18 -22 55 -22 q26 0 44 8 q19 9 36 26 l-7 12 ZM95 171 l146 407 l146 -407 l-292 0 Z" /><glyph glyph-name="" unicode="Å" d="M448 0 l18 0 l-212 588 q24 5 39 23 q15 18 16 43 q-1 29 -20 48 q-19 19 -47 20 q-29 -1 -48 -20 q-19 -19 -20 -48 q0 -24 15 -42 q15 -18 39 -24 l-213 -588 l19 0 l56 155 l302 0 l56 -155 ZM189 654 q1 23 15 38 q15 15 38 15 q22 0 37 -15 q14 -15 15 -38 q-1 -22 -15 -37 q-15 -14 -37 -15 q-23 1 -38 15 q-14 15 -15 37 l0 0 ZM95 171 l146 407 l146 -407 l-292 0 Z" /><glyph glyph-name="" unicode="Ã" d="M181 760 q17 0 30 -8 q13 -8 23 -25 q25 -40 67 -40 q31 1 50 23 q19 22 20 58 l-16 0 q0 -29 -15 -47 q-15 -17 -39 -18 q-17 0 -30 8 q-13 8 -23 25 q-25 40 -67 40 q-31 -1 -49 -23 q-19 -22 -20 -59 l16 0 q0 30 15 48 q14 18 38 18 l0 0 ZM448 0 l18 0 l-216 600 l-18 0 l-217 -600 l19 0 l56 155 l302 0 l56 -155 ZM95 171 l146 407 l146 -407 l-292 0 Z" /><glyph glyph-name="" unicode="Æ" d="M603 584 l0 16 l-347 0 l-241 -600 l19 0 l62 155 l203 0 l0 -155 l304 0 l0 16 l-288 0 l0 276 l255 0 l0 16 l-255 0 l0 276 l288 0 ZM103 171 l166 413 l30 0 l0 -413 l-196 0 Z" /><glyph glyph-name="" unicode="B" d="M338 303 q43 18 70 56 q26 38 27 87 q-2 65 -45 109 q-44 43 -109 45 l-193 0 l0 -600 l212 0 q65 2 109 46 q43 43 45 108 q-1 54 -33 95 q-32 40 -83 54 l0 0 ZM419 446 q-1 -58 -40 -97 q-39 -39 -98 -41 l-177 0 l0 276 l177 0 q59 -1 98 -40 q39 -39 40 -98 l0 0 ZM300 16 l-196 0 l0 276 l196 0 q59 -1 98 -40 q39 -39 40 -98 q-1 -58 -40 -97 q-39 -39 -98 -41 l0 0 Z" /><glyph glyph-name="" unicode="C" d="M374 -8 q86 1 156 42 q69 41 110 110 l-14 8 q-38 -65 -104 -104 q-66 -39 -148 -40 q-124 3 -206 85 q-83 82 -86 207 q3 125 86 207 q82 82 206 85 q82 -1 148 -40 q66 -39 104 -104 l14 8 q-41 69 -110 110 q-70 41 -156 42 q-131 -3 -218 -90 q-87 -87 -90 -218 q3 -131 90 -218 q87 -87 218 -90 l0 0 Z" /><glyph glyph-name="" unicode="&#x106;" d="M364 655 l20 0 l86 145 l-26 0 l-80 -145 ZM374 -8 q86 1 156 42 q69 41 110 110 l-14 8 q-38 -65 -104 -104 q-66 -39 -148 -40 q-124 3 -206 85 q-83 82 -86 207 q3 125 86 207 q82 82 206 85 q82 -1 148 -40 q66 -39 104 -104 l14 8 q-41 69 -110 110 q-70 41 -156 42 q-131 -3 -218 -90 q-87 -87 -90 -218 q3 -131 90 -218 q87 -87 218 -90 l0 0 Z" /><glyph glyph-name="" unicode="&#x10c;" d="M363 655 l20 0 l78 145 l-25 0 l-62 -126 l-64 126 l-24 0 l77 -145 ZM374 -8 q86 1 156 42 q69 41 110 110 l-14 8 q-38 -65 -104 -104 q-66 -39 -148 -40 q-124 3 -206 85 q-83 82 -86 207 q3 125 86 207 q82 82 206 85 q82 -1 148 -40 q66 -39 104 -104 l14 8 q-41 69 -110 110 q-70 41 -156 42 q-131 -3 -218 -90 q-87 -87 -90 -218 q3 -131 90 -218 q87 -87 218 -90 l0 0 Z" /><glyph glyph-name="" unicode="Ç" d="M374 8 q-124 3 -206 85 q-83 82 -86 207 q3 125 86 207 q82 82 206 85 q82 -1 148 -40 q66 -39 104 -104 l14 8 q-41 69 -110 110 q-70 41 -156 42 q-131 -3 -218 -90 q-87 -87 -90 -218 q3 -128 87 -214 q83 -86 209 -94 l-26 -58 l14 -13 q42 12 69 -3 q27 -15 28 -50 q0 -26 -17 -43 q-16 -16 -42 -17 q-21 0 -43 10 q-22 9 -35 24 l-12 -10 q15 -17 41 -28 q25 -12 49 -12 q32 1 53 22 q21 22 22 54 q-1 40 -31 60 q-30 20 -76 11 l23 53 q85 2 153 43 q68 41 108 109 l-14 8 q-38 -65 -104 -104 q-66 -39 -148 -40 l0 0 Z" /><glyph glyph-name="" unicode="&#x10a;" d="M374 680 q9 0 17 7 q7 6 7 17 q0 10 -7 17 q-8 7 -17 7 q-10 0 -17 -7 q-7 -7 -7 -17 q0 -11 7 -17 q7 -7 17 -7 l0 0 ZM374 -8 q86 1 156 42 q69 41 110 110 l-14 8 q-38 -65 -104 -104 q-66 -39 -148 -40 q-124 3 -206 85 q-83 82 -86 207 q3 125 86 207 q82 82 206 85 q82 -1 148 -40 q66 -39 104 -104 l14 8 q-41 69 -110 110 q-70 41 -156 42 q-131 -3 -218 -90 q-87 -87 -90 -218 q3 -131 90 -218 q87 -87 218 -90 l0 0 Z" /><glyph glyph-name="" unicode="D" d="M88 0 l140 0 q128 3 212 88 q85 84 88 212 q-3 128 -88 212 q-84 85 -212 88 l-140 0 l0 -600 ZM104 16 l0 568 l124 0 q121 -3 201 -83 q80 -80 83 -201 q-3 -121 -83 -201 q-80 -80 -201 -83 l-124 0 Z" /><glyph glyph-name="" unicode="Ð" d="M228 600 l-140 0 l0 -292 l-65 0 l0 -16 l65 0 l0 -292 l140 0 q128 3 212 88 q85 84 88 212 q-3 128 -88 212 q-84 85 -212 88 l0 0 ZM228 16 l-124 0 l0 276 l119 0 l0 16 l-119 0 l0 276 l124 0 q121 -3 201 -83 q80 -80 83 -201 q-3 -121 -83 -201 q-80 -80 -201 -83 l0 0 Z" /><glyph glyph-name="" unicode="&#x10e;" d="M217 655 l20 0 l78 145 l-25 0 l-62 -126 l-64 126 l-24 0 l77 -145 ZM88 0 l140 0 q128 3 212 88 q85 84 88 212 q-3 128 -88 212 q-84 85 -212 88 l-140 0 l0 -600 ZM104 16 l0 568 l124 0 q121 -3 201 -83 q80 -80 83 -201 q-3 -121 -83 -201 q-80 -80 -201 -83 l-124 0 Z" /><glyph glyph-name="" unicode="&#x110;" d="M228 600 l-140 0 l0 -292 l-65 0 l0 -16 l65 0 l0 -292 l140 0 q128 3 212 88 q85 84 88 212 q-3 128 -88 212 q-84 85 -212 88 l0 0 ZM228 16 l-124 0 l0 276 l119 0 l0 16 l-119 0 l0 276 l124 0 q121 -3 201 -83 q80 -80 83 -201 q-3 -121 -83 -201 q-80 -80 -201 -83 l0 0 Z" /><glyph glyph-name="" unicode="E" d="M397 584 l0 16 l-304 0 l0 -600 l304 0 l0 16 l-288 0 l0 276 l254 0 l0 16 l-254 0 l0 276 l288 0 Z" /><glyph glyph-name="" unicode="É" d="M341 800 l-26 0 l-80 -145 l20 0 l86 145 ZM397 584 l0 16 l-304 0 l0 -600 l304 0 l0 16 l-288 0 l0 276 l254 0 l0 16 l-254 0 l0 276 l288 0 Z" /><glyph glyph-name="" unicode="&#x11a;" d="M254 655 l78 145 l-25 0 l-62 -126 l-64 126 l-24 0 l77 -145 l20 0 ZM397 584 l0 16 l-304 0 l0 -600 l304 0 l0 16 l-288 0 l0 276 l254 0 l0 16 l-254 0 l0 276 l288 0 Z" /><glyph glyph-name="" unicode="Ê" d="M245 782 l62 -127 l25 0 l-78 145 l-20 0 l-77 -145 l24 0 l64 127 ZM397 584 l0 16 l-304 0 l0 -600 l304 0 l0 16 l-288 0 l0 276 l254 0 l0 16 l-254 0 l0 276 l288 0 Z" /><glyph glyph-name="" unicode="Ë" d="M185 680 q10 0 17 7 q7 6 7 17 q0 10 -7 17 q-7 7 -17 7 q-10 0 -17 -7 q-7 -7 -7 -17 q0 -11 7 -17 q7 -7 17 -7 l0 0 ZM305 680 q10 0 17 7 q7 6 7 17 q0 10 -7 17 q-7 7 -17 7 q-10 0 -17 -7 q-7 -7 -7 -17 q0 -11 7 -17 q7 -7 17 -7 l0 0 ZM397 584 l0 16 l-304 0 l0 -600 l304 0 l0 16 l-288 0 l0 276 l254 0 l0 16 l-254 0 l0 276 l288 0 Z" /><glyph glyph-name="" unicode="&#x116;" d="M245 680 q9 0 17 7 q7 6 7 17 q0 10 -7 17 q-8 7 -17 7 q-10 0 -17 -7 q-7 -7 -7 -17 q0 -11 7 -17 q7 -7 17 -7 l0 0 ZM397 584 l0 16 l-304 0 l0 -600 l304 0 l0 16 l-288 0 l0 276 l254 0 l0 16 l-254 0 l0 276 l288 0 Z" /><glyph glyph-name="" unicode="È" d="M255 655 l-80 145 l-26 0 l86 -145 l20 0 ZM397 584 l0 16 l-304 0 l0 -600 l304 0 l0 16 l-288 0 l0 276 l254 0 l0 16 l-254 0 l0 276 l288 0 Z" /><glyph glyph-name="" unicode="&#x112;" d="M345 712 l-200 0 l0 -16 l200 0 l0 16 ZM397 584 l0 16 l-304 0 l0 -600 l304 0 l0 16 l-288 0 l0 276 l254 0 l0 16 l-254 0 l0 276 l288 0 Z" /><glyph glyph-name="" unicode="&#x118;" d="M456 -162 q-16 -15 -33 -22 q-16 -8 -40 -8 q-30 0 -45 18 q-15 17 -15 45 q2 41 25 73 q23 31 49 56 l0 16 l-288 0 l0 276 l254 0 l0 16 l-254 0 l0 276 l288 0 l0 16 l-304 0 l0 -600 l285 0 q-27 -29 -48 -59 q-20 -30 -21 -70 q0 -36 19 -57 q18 -22 55 -22 q26 0 44 8 q19 9 36 26 l-7 12 Z" /><glyph glyph-name="" unicode="F" d="M397 584 l0 16 l-304 0 l0 -600 l16 0 l0 292 l254 0 l0 16 l-254 0 l0 276 l288 0 Z" /><glyph glyph-name="" unicode="G" d="M374 305 l0 -16 l292 0 q-7 -121 -89 -199 q-82 -79 -203 -82 q-124 3 -206 85 q-83 82 -86 207 q3 125 86 207 q82 82 206 85 q82 -1 148 -40 q66 -39 104 -104 l14 8 q-41 69 -110 110 q-70 41 -156 42 q-131 -3 -218 -90 q-87 -87 -90 -218 q3 -131 90 -218 q87 -87 218 -90 q131 3 218 90 q87 87 90 218 l0 5 l-308 0 Z" /><glyph glyph-name="" unicode="&#x11e;" d="M374 660 q52 1 87 32 q34 30 35 77 l-16 0 q-1 -40 -30 -66 q-30 -26 -76 -27 q-45 1 -75 27 q-29 26 -30 66 l-16 0 q1 -47 35 -77 q34 -31 86 -32 l0 0 ZM374 305 l0 -16 l292 0 q-7 -121 -89 -199 q-82 -79 -203 -82 q-124 3 -206 85 q-83 82 -86 207 q3 125 86 207 q82 82 206 85 q82 -1 148 -40 q66 -39 104 -104 l14 8 q-41 69 -110 110 q-70 41 -156 42 q-131 -3 -218 -90 q-87 -87 -90 -218 q3 -131 90 -218 q87 -87 218 -90 q131 3 218 90 q87 87 90 218 l0 5 l-308 0 Z" /><glyph glyph-name="" unicode="&#x122;" d="M374 305 l0 -16 l292 0 q-7 -121 -89 -199 q-82 -79 -203 -82 q-124 3 -206 85 q-83 82 -86 207 q3 125 86 207 q82 82 206 85 q82 -1 148 -40 q66 -39 104 -104 l14 8 q-41 69 -110 110 q-70 41 -156 42 q-131 -3 -218 -90 q-87 -87 -90 -218 q3 -131 90 -218 q87 -87 218 -90 q131 3 218 90 q87 87 90 218 l0 5 l-308 0 ZM299 -200 l18 0 l66 152 l-18 0 l-66 -152 Z" /><glyph glyph-name="" unicode="&#x120;" d="M374 680 q9 0 17 7 q7 6 7 17 q0 10 -7 17 q-8 7 -17 7 q-10 0 -17 -7 q-7 -7 -7 -17 q0 -11 7 -17 q7 -7 17 -7 l0 0 ZM374 305 l0 -16 l292 0 q-7 -121 -89 -199 q-82 -79 -203 -82 q-124 3 -206 85 q-83 82 -86 207 q3 125 86 207 q82 82 206 85 q82 -1 148 -40 q66 -39 104 -104 l14 8 q-41 69 -110 110 q-70 41 -156 42 q-131 -3 -218 -90 q-87 -87 -90 -218 q3 -131 90 -218 q87 -87 218 -90 q131 3 218 90 q87 87 90 218 l0 5 l-308 0 Z" /><glyph glyph-name="" unicode="H" d="M496 600 l0 -292 l-392 0 l0 292 l-16 0 l0 -600 l16 0 l0 292 l392 0 l0 -292 l16 0 l0 600 l-16 0 Z" /><glyph glyph-name="" unicode="&#x126;" d="M575 473 l-63 0 l0 127 l-16 0 l0 -127 l-392 0 l0 127 l-16 0 l0 -127 l-63 0 l0 -16 l63 0 l0 -457 l16 0 l0 292 l392 0 l0 -292 l16 0 l0 457 l63 0 l0 16 ZM496 308 l-392 0 l0 149 l392 0 l0 -149 Z" /><glyph glyph-name="" unicode="I" d="M93 0 l16 0 l0 600 l-16 0 l0 -600 Z" /><glyph glyph-name="" unicode="Í" d="M91 655 l20 0 l86 145 l-26 0 l-80 -145 ZM93 0 l16 0 l0 600 l-16 0 l0 -600 Z" /><glyph glyph-name="" unicode="&#x1cf;" d="M90 655 l20 0 l78 145 l-25 0 l-62 -126 l-64 126 l-24 0 l77 -145 ZM93 0 l16 0 l0 600 l-16 0 l0 -600 Z" /><glyph glyph-name="" unicode="Î" d="M37 655 l64 127 l62 -127 l25 0 l-78 145 l-20 0 l-77 -145 l24 0 ZM93 0 l16 0 l0 600 l-16 0 l0 -600 Z" /><glyph glyph-name="" unicode="Ï" d="M41 680 q10 0 17 7 q7 6 7 17 q0 10 -7 17 q-7 7 -17 7 q-10 0 -17 -7 q-7 -7 -7 -17 q0 -11 7 -17 q7 -7 17 -7 l0 0 ZM161 680 q10 0 17 7 q7 6 7 17 q0 10 -7 17 q-7 7 -17 7 q-10 0 -17 -7 q-7 -7 -7 -17 q0 -11 7 -17 q7 -7 17 -7 l0 0 ZM93 0 l16 0 l0 600 l-16 0 l0 -600 Z" /><glyph glyph-name="" unicode="&#x130;" d="M101 680 q9 0 17 7 q7 6 7 17 q0 10 -7 17 q-8 7 -17 7 q-10 0 -17 -7 q-7 -7 -7 -17 q0 -11 7 -17 q7 -7 17 -7 l0 0 ZM93 0 l16 0 l0 600 l-16 0 l0 -600 Z" /><glyph glyph-name="" unicode="Ì" d="M111 655 l-80 145 l-26 0 l86 -145 l20 0 ZM93 0 l16 0 l0 600 l-16 0 l0 -600 Z" /><glyph glyph-name="" unicode="&#x12a;" d="M1 696 l200 0 l0 16 l-200 0 l0 -16 ZM93 0 l16 0 l0 600 l-16 0 l0 -600 Z" /><glyph glyph-name="" unicode="&#x12e;" d="M168 -162 q-16 -15 -33 -22 q-16 -8 -40 -8 q-30 0 -45 18 q-15 17 -15 45 q2 41 25 73 q23 31 49 56 l0 600 l-16 0 l0 -596 q-28 -30 -49 -61 q-22 -31 -23 -72 q0 -36 19 -57 q18 -22 55 -22 q26 0 44 8 q19 9 36 26 l-7 12 Z" /><glyph glyph-name="" unicode="J" d="M327 600 l-260 0 l0 -16 l244 0 l0 -437 q-1 -59 -37 -98 q-35 -40 -88 -41 q-48 1 -81 34 q-34 34 -41 85 l-16 -3 q9 -57 47 -94 q37 -37 91 -38 q60 2 100 46 q40 44 41 109 l0 453 Z" /><glyph glyph-name="" unicode="K" d="M423 0 l23 0 l-292 324 l284 276 l-23 0 l-276 -268 l-35 0 l0 268 l-16 0 l0 -600 l16 0 l0 316 l34 0 l285 -316 Z" /><glyph glyph-name="" unicode="&#x136;" d="M154 324 l284 276 l-23 0 l-276 -268 l-35 0 l0 268 l-16 0 l0 -600 l16 0 l0 316 l34 0 l285 -316 l23 0 l-292 324 ZM157 -200 l18 0 l66 152 l-18 0 l-66 -152 Z" /><glyph glyph-name="" unicode="L" d="M104 16 l0 584 l-16 0 l0 -600 l256 0 l0 16 l-240 0 Z" /><glyph glyph-name="" unicode="&#x139;" d="M192 800 l-26 0 l-80 -145 l20 0 l86 145 ZM104 16 l0 584 l-16 0 l0 -600 l256 0 l0 16 l-240 0 Z" /><glyph glyph-name="" unicode="&#x13d;" d="M104 16 l0 584 l-16 0 l0 -600 l256 0 l0 16 l-240 0 ZM328 600 l-18 0 l-74 -242 l17 0 l75 242 Z" /><glyph glyph-name="" unicode="&#x13b;" d="M104 16 l0 584 l-16 0 l0 -600 l256 0 l0 16 l-240 0 ZM141 -200 l18 0 l66 152 l-18 0 l-66 -152 Z" /><glyph glyph-name="" unicode="&#x141;" d="M104 16 l0 282 l68 74 l-12 11 l-56 -62 l0 279 l-16 0 l0 -297 l-69 -76 l12 -9 l57 62 l0 -280 l256 0 l0 16 l-240 0 Z" /><glyph glyph-name="" unicode="M" d="M622 600 l-260 -580 l-260 580 l-14 0 l0 -600 l16 0 l0 563 l251 -563 l13 0 l252 563 l0 -563 l16 0 l0 600 l-14 0 Z" /><glyph glyph-name="" unicode="N" d="M518 600 l0 -560 l-424 560 l-6 0 l0 -600 l16 0 l0 559 l424 -559 l6 0 l0 600 l-16 0 Z" /><glyph glyph-name="" unicode="&#x143;" d="M402 800 l-26 0 l-80 -145 l20 0 l86 145 ZM518 600 l0 -560 l-424 560 l-6 0 l0 -600 l16 0 l0 559 l424 -559 l6 0 l0 600 l-16 0 Z" /><glyph glyph-name="" unicode="&#x147;" d="M315 655 l78 145 l-25 0 l-62 -126 l-64 126 l-24 0 l77 -145 l20 0 ZM518 600 l0 -560 l-424 560 l-6 0 l0 -600 l16 0 l0 559 l424 -559 l6 0 l0 600 l-16 0 Z" /><glyph glyph-name="" unicode="&#x145;" d="M518 600 l0 -560 l-424 560 l-6 0 l0 -600 l16 0 l0 559 l424 -559 l6 0 l0 600 l-16 0 ZM241 -200 l18 0 l66 152 l-18 0 l-66 -152 Z" /><glyph glyph-name="" unicode="&#x14a;" d="M518 600 l0 -560 l-424 560 l-6 0 l0 -600 l16 0 l0 559 l414 -546 l0 -111 q0 -32 -16 -48 q-17 -15 -44 -12 l0 -16 q35 -3 55 18 q21 20 21 58 l0 698 l-16 0 Z" /><glyph glyph-name="" unicode="Ñ" d="M246 760 q17 0 30 -8 q13 -8 23 -25 q25 -40 67 -40 q31 1 50 23 q19 22 20 58 l-16 0 q0 -29 -15 -47 q-15 -17 -39 -18 q-17 0 -30 8 q-13 8 -23 25 q-25 40 -67 40 q-31 -1 -49 -23 q-19 -22 -20 -59 l16 0 q0 30 15 48 q14 18 38 18 l0 0 ZM518 600 l0 -560 l-424 560 l-6 0 l0 -600 l16 0 l0 559 l424 -559 l6 0 l0 600 l-16 0 Z" /><glyph glyph-name="" unicode="O" d="M374 -8 q131 3 218 90 q87 87 90 218 q-3 131 -90 218 q-87 87 -218 90 q-131 -3 -218 -90 q-87 -87 -90 -218 q3 -131 90 -218 q87 -87 218 -90 l0 0 ZM374 8 q-124 3 -206 85 q-83 82 -86 207 q3 125 86 207 q82 82 206 85 q125 -3 207 -85 q82 -82 85 -207 q-3 -125 -85 -207 q-82 -82 -207 -85 l0 0 Z" /><glyph glyph-name="" unicode="Ó" d="M364 655 l20 0 l86 145 l-26 0 l-80 -145 ZM374 -8 q131 3 218 90 q87 87 90 218 q-3 131 -90 218 q-87 87 -218 90 q-131 -3 -218 -90 q-87 -87 -90 -218 q3 -131 90 -218 q87 -87 218 -90 l0 0 ZM374 8 q-124 3 -206 85 q-83 82 -86 207 q3 125 86 207 q82 82 206 85 q125 -3 207 -85 q82 -82 85 -207 q-3 -125 -85 -207 q-82 -82 -207 -85 l0 0 Z" /><glyph glyph-name="" unicode="&#x1d1;" d="M363 655 l20 0 l78 145 l-25 0 l-62 -126 l-64 126 l-24 0 l77 -145 ZM374 -8 q131 3 218 90 q87 87 90 218 q-3 131 -90 218 q-87 87 -218 90 q-131 -3 -218 -90 q-87 -87 -90 -218 q3 -131 90 -218 q87 -87 218 -90 l0 0 ZM374 8 q-124 3 -206 85 q-83 82 -86 207 q3 125 86 207 q82 82 206 85 q125 -3 207 -85 q82 -82 85 -207 q-3 -125 -85 -207 q-82 -82 -207 -85 l0 0 Z" /><glyph glyph-name="" unicode="Ô" d="M310 655 l64 127 l62 -127 l25 0 l-78 145 l-20 0 l-77 -145 l24 0 ZM374 -8 q131 3 218 90 q87 87 90 218 q-3 131 -90 218 q-87 87 -218 90 q-131 -3 -218 -90 q-87 -87 -90 -218 q3 -131 90 -218 q87 -87 218 -90 l0 0 ZM374 8 q-124 3 -206 85 q-83 82 -86 207 q3 125 86 207 q82 82 206 85 q125 -3 207 -85 q82 -82 85 -207 q-3 -125 -85 -207 q-82 -82 -207 -85 l0 0 Z" /><glyph glyph-name="" unicode="Ö" d="M314 680 q10 0 17 7 q7 6 7 17 q0 10 -7 17 q-7 7 -17 7 q-10 0 -17 -7 q-7 -7 -7 -17 q0 -11 7 -17 q7 -7 17 -7 l0 0 ZM434 680 q10 0 17 7 q7 6 7 17 q0 10 -7 17 q-7 7 -17 7 q-10 0 -17 -7 q-7 -7 -7 -17 q0 -11 7 -17 q7 -7 17 -7 l0 0 ZM374 -8 q131 3 218 90 q87 87 90 218 q-3 131 -90 218 q-87 87 -218 90 q-131 -3 -218 -90 q-87 -87 -90 -218 q3 -131 90 -218 q87 -87 218 -90 l0 0 ZM374 8 q-124 3 -206 85 q-83 82 -86 207 q3 125 86 207 q82 82 206 85 q125 -3 207 -85 q82 -82 85 -207 q-3 -125 -85 -207 q-82 -82 -207 -85 l0 0 Z" /><glyph glyph-name="" unicode="Ò" d="M384 655 l-80 145 l-26 0 l86 -145 l20 0 ZM374 -8 q131 3 218 90 q87 87 90 218 q-3 131 -90 218 q-87 87 -218 90 q-131 -3 -218 -90 q-87 -87 -90 -218 q3 -131 90 -218 q87 -87 218 -90 l0 0 ZM374 8 q-124 3 -206 85 q-83 82 -86 207 q3 125 86 207 q82 82 206 85 q125 -3 207 -85 q82 -82 85 -207 q-3 -125 -85 -207 q-82 -82 -207 -85 l0 0 Z" /><glyph glyph-name="" unicode="&#x150;" d="M292 655 l20 0 l85 145 l-26 0 l-79 -145 ZM422 655 l20 0 l85 145 l-26 0 l-79 -145 ZM374 -8 q131 3 218 90 q87 87 90 218 q-3 131 -90 218 q-87 87 -218 90 q-131 -3 -218 -90 q-87 -87 -90 -218 q3 -131 90 -218 q87 -87 218 -90 l0 0 ZM374 8 q-124 3 -206 85 q-83 82 -86 207 q3 125 86 207 q82 82 206 85 q125 -3 207 -85 q82 -82 85 -207 q-3 -125 -85 -207 q-82 -82 -207 -85 l0 0 Z" /><glyph glyph-name="" unicode="&#x14c;" d="M274 696 l200 0 l0 16 l-200 0 l0 -16 ZM374 -8 q131 3 218 90 q87 87 90 218 q-3 131 -90 218 q-87 87 -218 90 q-131 -3 -218 -90 q-87 -87 -90 -218 q3 -131 90 -218 q87 -87 218 -90 l0 0 ZM374 8 q-124 3 -206 85 q-83 82 -86 207 q3 125 86 207 q82 82 206 85 q125 -3 207 -85 q82 -82 85 -207 q-3 -125 -85 -207 q-82 -82 -207 -85 l0 0 Z" /><glyph glyph-name="" unicode="Ø" d="M557 548 l32 45 l-13 8 l-31 -45 q-37 25 -80 38 q-44 14 -91 14 q-131 -3 -218 -90 q-87 -87 -90 -218 q1 -77 35 -142 q33 -64 91 -107 l-32 -46 l13 -8 l32 46 q36 -24 79 -37 q43 -14 90 -14 q131 3 218 90 q87 87 90 218 q-1 77 -34 141 q-33 64 -91 107 l0 0 ZM82 300 q3 125 86 207 q82 82 206 85 q45 0 86 -13 q41 -13 76 -36 l-335 -479 q-55 40 -86 102 q-32 61 -33 134 l0 0 ZM374 8 q-44 0 -85 12 q-40 13 -75 36 l334 479 q55 -40 86 -101 q31 -61 32 -134 q-3 -125 -85 -207 q-82 -82 -207 -85 l0 0 Z" /><glyph glyph-name="" unicode="Õ" d="M434 687 q31 1 50 23 q19 22 20 58 l-16 0 q0 -29 -15 -47 q-15 -17 -39 -18 q-17 0 -30 8 q-13 8 -23 25 q-25 40 -67 40 q-31 -1 -49 -23 q-19 -22 -20 -59 l16 0 q0 30 15 48 q14 18 38 18 q17 0 30 -8 q13 -8 23 -25 q25 -40 67 -40 l0 0 ZM374 -8 q131 3 218 90 q87 87 90 218 q-3 131 -90 218 q-87 87 -218 90 q-131 -3 -218 -90 q-87 -87 -90 -218 q3 -131 90 -218 q87 -87 218 -90 l0 0 ZM374 8 q-124 3 -206 85 q-83 82 -86 207 q3 125 86 207 q82 82 206 85 q125 -3 207 -85 q82 -82 85 -207 q-3 -125 -85 -207 q-82 -82 -207 -85 l0 0 Z" /><glyph glyph-name="" unicode="&#x152;" d="M767 584 l0 16 l-304 0 l0 -5 q-21 6 -43 10 q-23 3 -46 3 q-131 -3 -218 -90 q-87 -87 -90 -218 q3 -131 90 -218 q87 -87 218 -90 q23 0 46 4 q22 3 43 9 l0 -5 l304 0 l0 16 l-288 0 l0 276 l255 0 l0 16 l-255 0 l0 276 l288 0 ZM374 8 q-124 3 -206 85 q-83 82 -86 207 q3 125 86 207 q82 82 206 85 q23 0 46 -3 q22 -4 43 -10 l0 -558 q-21 -6 -43 -9 q-23 -4 -46 -4 l0 0 Z" /><glyph glyph-name="" unicode="P" d="M274 600 l-186 0 l0 -600 l16 0 l0 284 l170 0 q67 2 112 46 q44 45 46 112 q-2 68 -46 112 q-45 44 -112 46 l0 0 ZM274 300 l-170 0 l0 284 l170 0 q60 -1 100 -41 q40 -40 42 -101 q-1 -61 -41 -101 q-40 -40 -101 -41 l0 0 Z" /><glyph glyph-name="" unicode="Þ" d="M279 520 l-169 0 l0 80 l-16 0 l0 -600 l16 0 l0 204 l169 0 q67 2 112 46 q45 45 47 112 q-2 68 -47 112 q-45 44 -112 46 l0 0 ZM279 220 l-169 0 l0 284 l169 0 q61 -1 101 -41 q40 -40 42 -101 q-2 -61 -42 -101 q-40 -40 -101 -41 l0 0 Z" /><glyph glyph-name="" unicode="Q" d="M473 8 q93 32 150 110 q57 78 59 182 q-3 131 -90 218 q-87 87 -218 90 q-131 -3 -218 -90 q-87 -87 -90 -218 q3 -131 90 -218 q87 -87 218 -90 q18 0 36 2 q17 2 34 6 l229 0 l0 16 l-143 0 l-57 -8 ZM82 300 q3 125 86 207 q82 82 206 85 q125 -3 207 -85 q82 -82 85 -207 q-3 -125 -85 -207 q-82 -82 -207 -85 q-124 3 -206 85 q-83 82 -86 207 l0 0 Z" /><glyph glyph-name="" unicode="R" d="M282 284 q65 5 107 49 q42 44 43 109 q-2 68 -46 112 q-45 44 -112 46 l-186 0 l0 -600 l16 0 l0 284 l162 0 l180 -284 l19 0 l-183 284 ZM104 300 l0 284 l170 0 q60 -1 100 -41 q40 -40 42 -101 q-1 -61 -41 -101 q-40 -40 -101 -41 l-170 0 Z" /><glyph glyph-name="" unicode="&#x154;" d="M337 800 l-26 0 l-80 -145 l20 0 l86 145 ZM282 284 q65 5 107 49 q42 44 43 109 q-2 68 -46 112 q-45 44 -112 46 l-186 0 l0 -600 l16 0 l0 284 l162 0 l180 -284 l19 0 l-183 284 ZM104 300 l0 284 l170 0 q60 -1 100 -41 q40 -40 42 -101 q-1 -61 -41 -101 q-40 -40 -101 -41 l-170 0 Z" /><glyph glyph-name="" unicode="&#x158;" d="M250 655 l78 145 l-25 0 l-62 -126 l-64 126 l-24 0 l77 -145 l20 0 ZM282 284 q65 5 107 49 q42 44 43 109 q-2 68 -46 112 q-45 44 -112 46 l-186 0 l0 -600 l16 0 l0 284 l162 0 l180 -284 l19 0 l-183 284 ZM104 300 l0 284 l170 0 q60 -1 100 -41 q40 -40 42 -101 q-1 -61 -41 -101 q-40 -40 -101 -41 l-170 0 Z" /><glyph glyph-name="" unicode="&#x156;" d="M282 284 q65 5 107 49 q42 44 43 109 q-2 68 -46 112 q-45 44 -112 46 l-186 0 l0 -600 l16 0 l0 284 l162 0 l180 -284 l19 0 l-183 284 ZM104 300 l0 284 l170 0 q60 -1 100 -41 q40 -40 42 -101 q-1 -61 -41 -101 q-40 -40 -101 -41 l-170 0 ZM166 -200 l18 0 l66 152 l-18 0 l-66 -152 Z" /><glyph glyph-name="" unicode="S" d="M230 -8 q68 0 122 36 q54 36 57 114 q-20 129 -157 167 q-138 39 -158 157 q2 64 45 95 q43 31 96 31 q45 -1 78 -19 q33 -18 51 -43 l13 10 q-21 28 -58 48 q-37 19 -85 20 q-58 0 -105 -34 q-48 -34 -51 -108 q20 -130 158 -168 q137 -38 157 -156 q-2 -65 -49 -100 q-47 -34 -113 -34 q-64 1 -108 30 q-44 30 -60 72 l-15 -5 q19 -48 67 -80 q48 -32 115 -33 l0 0 Z" /><glyph glyph-name="" unicode="&#x15a;" d="M232 655 l20 0 l86 145 l-26 0 l-80 -145 ZM230 -8 q68 0 122 36 q54 36 57 114 q-20 129 -157 167 q-138 39 -158 157 q2 64 45 95 q43 31 96 31 q45 -1 78 -19 q33 -18 51 -43 l13 10 q-21 28 -58 48 q-37 19 -85 20 q-58 0 -105 -34 q-48 -34 -51 -108 q20 -130 158 -168 q137 -38 157 -156 q-2 -65 -49 -100 q-47 -34 -113 -34 q-64 1 -108 30 q-44 30 -60 72 l-15 -5 q19 -48 67 -80 q48 -32 115 -33 l0 0 Z" /><glyph glyph-name="" unicode="&#x160;" d="M231 655 l20 0 l78 145 l-25 0 l-62 -126 l-64 126 l-24 0 l77 -145 ZM230 -8 q68 0 122 36 q54 36 57 114 q-20 129 -157 167 q-138 39 -158 157 q2 64 45 95 q43 31 96 31 q45 -1 78 -19 q33 -18 51 -43 l13 10 q-21 28 -58 48 q-37 19 -85 20 q-58 0 -105 -34 q-48 -34 -51 -108 q20 -130 158 -168 q137 -38 157 -156 q-2 -65 -49 -100 q-47 -34 -113 -34 q-64 1 -108 30 q-44 30 -60 72 l-15 -5 q19 -48 67 -80 q48 -32 115 -33 l0 0 Z" /><glyph glyph-name="" unicode="&#x15e;" d="M409 142 q-20 129 -157 167 q-138 39 -158 157 q2 64 45 95 q43 31 96 31 q45 -1 78 -19 q33 -18 51 -43 l13 10 q-21 28 -58 48 q-37 19 -85 20 q-58 0 -105 -34 q-48 -34 -51 -108 q20 -130 158 -168 q137 -38 157 -156 q-2 -65 -49 -100 q-47 -34 -113 -34 q-64 1 -108 30 q-44 30 -60 72 l-15 -5 q18 -46 62 -77 q45 -31 107 -36 l-27 -58 l14 -13 q42 12 69 -3 q27 -15 28 -50 q0 -26 -17 -43 q-16 -16 -42 -17 q-21 0 -43 10 q-22 9 -35 24 l-12 -10 q15 -17 41 -28 q25 -12 49 -12 q32 1 53 22 q21 22 22 54 q-1 40 -31 60 q-30 20 -76 11 l23 53 q67 0 120 37 q53 36 56 113 l0 0 Z" /><glyph glyph-name="" unicode="&#x218;" d="M230 -8 q68 0 122 36 q54 36 57 114 q-20 129 -157 167 q-138 39 -158 157 q2 64 45 95 q43 31 96 31 q45 -1 78 -19 q33 -18 51 -43 l13 10 q-21 28 -58 48 q-37 19 -85 20 q-58 0 -105 -34 q-48 -34 -51 -108 q20 -130 158 -168 q137 -38 157 -156 q-2 -65 -49 -100 q-47 -34 -113 -34 q-64 1 -108 30 q-44 30 -60 72 l-15 -5 q19 -48 67 -80 q48 -32 115 -33 l0 0 ZM171 -200 l66 152 l-18 0 l-66 -152 l18 0 Z" /><glyph glyph-name="" unicode="T" d="M392 601 l-368 0 l0 -16 l176 0 l0 -584 l16 0 l0 584 l176 0 l0 16 Z" /><glyph glyph-name="" unicode="&#x166;" d="M392 585 l0 16 l-368 0 l0 -16 l176 0 l0 -277 l-92 0 l0 -16 l92 0 l0 -291 l16 0 l0 291 l92 0 l0 16 l-92 0 l0 277 l176 0 Z" /><glyph glyph-name="" unicode="&#x164;" d="M217 655 l78 145 l-25 0 l-62 -126 l-64 126 l-24 0 l77 -145 l20 0 ZM392 601 l-368 0 l0 -16 l176 0 l0 -584 l16 0 l0 584 l176 0 l0 16 Z" /><glyph glyph-name="" unicode="&#x162;" d="M24 601 l0 -16 l176 0 l0 -584 l16 0 l0 584 l176 0 l0 16 l-368 0 ZM190 -61 l26 61 l-16 0 l-30 -66 l14 -13 q42 12 69 -3 q27 -15 28 -50 q0 -26 -17 -43 q-16 -16 -42 -17 q-21 0 -43 10 q-22 9 -35 24 l-12 -10 q15 -17 41 -28 q25 -12 49 -12 q32 1 53 22 q21 22 22 54 q-1 40 -31 60 q-30 20 -76 11 l0 0 Z" /><glyph glyph-name="" unicode="&#x21a;" d="M24 601 l0 -16 l176 0 l0 -584 l16 0 l0 584 l176 0 l0 16 l-368 0 ZM133 -200 l18 0 l66 152 l-18 0 l-66 -152 Z" /><glyph glyph-name="" unicode="U" d="M293 -8 q88 2 147 61 q59 59 61 147 l0 400 l-16 0 l0 -400 q-2 -82 -56 -136 q-54 -54 -136 -56 q-82 2 -136 56 q-54 54 -56 136 l0 400 l-16 0 l0 -400 q2 -88 61 -147 q59 -59 147 -61 l0 0 Z" /><glyph glyph-name="" unicode="Ú" d="M283 655 l20 0 l86 145 l-26 0 l-80 -145 ZM293 -8 q88 2 147 61 q59 59 61 147 l0 400 l-16 0 l0 -400 q-2 -82 -56 -136 q-54 -54 -136 -56 q-82 2 -136 56 q-54 54 -56 136 l0 400 l-16 0 l0 -400 q2 -88 61 -147 q59 -59 147 -61 l0 0 Z" /><glyph glyph-name="" unicode="&#x1d3;" d="M282 655 l20 0 l78 145 l-25 0 l-62 -126 l-64 126 l-24 0 l77 -145 ZM293 -8 q88 2 147 61 q59 59 61 147 l0 400 l-16 0 l0 -400 q-2 -82 -56 -136 q-54 -54 -136 -56 q-82 2 -136 56 q-54 54 -56 136 l0 400 l-16 0 l0 -400 q2 -88 61 -147 q59 -59 147 -61 l0 0 Z" /><glyph glyph-name="" unicode="Û" d="M229 655 l64 127 l62 -127 l25 0 l-78 145 l-20 0 l-77 -145 l24 0 ZM293 -8 q88 2 147 61 q59 59 61 147 l0 400 l-16 0 l0 -400 q-2 -82 -56 -136 q-54 -54 -136 -56 q-82 2 -136 56 q-54 54 -56 136 l0 400 l-16 0 l0 -400 q2 -88 61 -147 q59 -59 147 -61 l0 0 Z" /><glyph glyph-name="" unicode="Ü" d="M233 680 q10 0 17 7 q7 6 7 17 q0 10 -7 17 q-7 7 -17 7 q-10 0 -17 -7 q-7 -7 -7 -17 q0 -11 7 -17 q7 -7 17 -7 l0 0 ZM353 680 q10 0 17 7 q7 6 7 17 q0 10 -7 17 q-7 7 -17 7 q-10 0 -17 -7 q-7 -7 -7 -17 q0 -11 7 -17 q7 -7 17 -7 l0 0 ZM293 -8 q88 2 147 61 q59 59 61 147 l0 400 l-16 0 l0 -400 q-2 -82 -56 -136 q-54 -54 -136 -56 q-82 2 -136 56 q-54 54 -56 136 l0 400 l-16 0 l0 -400 q2 -88 61 -147 q59 -59 147 -61 l0 0 Z" /><glyph glyph-name="" unicode="Ù" d="M303 655 l-80 145 l-26 0 l86 -145 l20 0 ZM293 -8 q88 2 147 61 q59 59 61 147 l0 400 l-16 0 l0 -400 q-2 -82 -56 -136 q-54 -54 -136 -56 q-82 2 -136 56 q-54 54 -56 136 l0 400 l-16 0 l0 -400 q2 -88 61 -147 q59 -59 147 -61 l0 0 Z" /><glyph glyph-name="" unicode="&#x170;" d="M211 655 l20 0 l85 145 l-26 0 l-79 -145 ZM341 655 l20 0 l85 145 l-26 0 l-79 -145 ZM293 -8 q88 2 147 61 q59 59 61 147 l0 400 l-16 0 l0 -400 q-2 -82 -56 -136 q-54 -54 -136 -56 q-82 2 -136 56 q-54 54 -56 136 l0 400 l-16 0 l0 -400 q2 -88 61 -147 q59 -59 147 -61 l0 0 Z" /><glyph glyph-name="" unicode="&#x16a;" d="M193 696 l200 0 l0 16 l-200 0 l0 -16 ZM293 -8 q88 2 147 61 q59 59 61 147 l0 400 l-16 0 l0 -400 q-2 -82 -56 -136 q-54 -54 -136 -56 q-82 2 -136 56 q-54 54 -56 136 l0 400 l-16 0 l0 -400 q2 -88 61 -147 q59 -59 147 -61 l0 0 Z" /><glyph glyph-name="" unicode="&#x172;" d="M485 600 l0 -400 q-2 -82 -56 -136 q-54 -54 -136 -56 q-82 2 -136 56 q-54 54 -56 136 l0 400 l-16 0 l0 -400 q2 -88 61 -147 q59 -59 147 -61 q22 0 43 5 q-23 -26 -40 -54 q-17 -28 -18 -64 q0 -36 19 -57 q18 -22 55 -22 q26 0 44 8 q19 9 36 26 l-7 12 q-16 -15 -33 -22 q-16 -8 -40 -8 q-30 0 -45 18 q-15 17 -15 45 q1 40 23 70 q22 31 47 55 q62 22 100 74 q38 53 39 122 l0 400 l-16 0 Z" /><glyph glyph-name="" unicode="&#x16e;" d="M293 645 q28 1 47 20 q19 19 20 47 q-1 29 -20 48 q-19 19 -47 20 q-29 -1 -48 -20 q-19 -19 -20 -48 q1 -28 20 -47 q19 -19 48 -20 l0 0 ZM293 660 q-23 1 -38 15 q-14 15 -15 37 q1 23 15 38 q15 15 38 15 q22 0 37 -15 q14 -15 15 -38 q-1 -22 -15 -37 q-15 -14 -37 -15 l0 0 ZM293 -8 q88 2 147 61 q59 59 61 147 l0 400 l-16 0 l0 -400 q-2 -82 -56 -136 q-54 -54 -136 -56 q-82 2 -136 56 q-54 54 -56 136 l0 400 l-16 0 l0 -400 q2 -88 61 -147 q59 -59 147 -61 l0 0 Z" /><glyph glyph-name="" unicode="V" d="M448 600 l-207 -578 l-207 578 l-19 0 l217 -600 l18 0 l216 600 l-18 0 Z" /><glyph glyph-name="" unicode="W" d="M816 600 l-191 -577 l-191 577 l-18 0 l-191 -577 l-191 577 l-18 0 l200 -600 l18 0 l191 573 l191 -573 l18 0 l200 600 l-18 0 Z" /><glyph glyph-name="" unicode="&#x1e82;" d="M523 800 l-26 0 l-80 -145 l20 0 l86 145 ZM816 600 l-191 -577 l-191 577 l-18 0 l-191 -577 l-191 577 l-18 0 l200 -600 l18 0 l191 573 l191 -573 l18 0 l200 600 l-18 0 Z" /><glyph glyph-name="" unicode="&#x174;" d="M427 782 l62 -127 l25 0 l-78 145 l-20 0 l-77 -145 l24 0 l64 127 ZM816 600 l-191 -577 l-191 577 l-18 0 l-191 -577 l-191 577 l-18 0 l200 -600 l18 0 l191 573 l191 -573 l18 0 l200 600 l-18 0 Z" /><glyph glyph-name="" unicode="&#x1e84;" d="M367 680 q10 0 17 7 q7 6 7 17 q0 10 -7 17 q-7 7 -17 7 q-10 0 -17 -7 q-7 -7 -7 -17 q0 -11 7 -17 q7 -7 17 -7 l0 0 ZM487 680 q10 0 17 7 q7 6 7 17 q0 10 -7 17 q-7 7 -17 7 q-10 0 -17 -7 q-7 -7 -7 -17 q0 -11 7 -17 q7 -7 17 -7 l0 0 ZM816 600 l-191 -577 l-191 577 l-18 0 l-191 -577 l-191 577 l-18 0 l200 -600 l18 0 l191 573 l191 -573 l18 0 l200 600 l-18 0 Z" /><glyph glyph-name="" unicode="&#x1e80;" d="M437 655 l-80 145 l-26 0 l86 -145 l20 0 ZM816 600 l-191 -577 l-191 577 l-18 0 l-191 -577 l-191 577 l-18 0 l200 -600 l18 0 l191 573 l191 -573 l18 0 l200 600 l-18 0 Z" /><glyph glyph-name="" unicode="X" d="M439 0 l-202 300 l201 300 l-19 0 l-192 -286 l-192 286 l-19 0 l202 -300 l-202 -300 l20 0 l191 286 l192 -286 l20 0 Z" /><glyph glyph-name="" unicode="Y" d="M430 600 l-197 -299 l-198 299 l-19 0 l207 -313 l2 0 l0 -287 l16 0 l0 287 l1 0 l208 313 l-20 0 Z" /><glyph glyph-name="" unicode="Ý" d="M329 800 l-26 0 l-80 -145 l20 0 l86 145 ZM430 600 l-197 -299 l-198 299 l-19 0 l207 -313 l2 0 l0 -287 l16 0 l0 287 l1 0 l208 313 l-20 0 Z" /><glyph glyph-name="" unicode="&#x176;" d="M233 782 l62 -127 l25 0 l-78 145 l-20 0 l-77 -145 l24 0 l64 127 ZM430 600 l-197 -299 l-198 299 l-19 0 l207 -313 l2 0 l0 -287 l16 0 l0 287 l1 0 l208 313 l-20 0 Z" /><glyph glyph-name="" unicode="&#x178;" d="M173 680 q10 0 17 7 q7 6 7 17 q0 10 -7 17 q-7 7 -17 7 q-10 0 -17 -7 q-7 -7 -7 -17 q0 -11 7 -17 q7 -7 17 -7 l0 0 ZM293 680 q10 0 17 7 q7 6 7 17 q0 10 -7 17 q-7 7 -17 7 q-10 0 -17 -7 q-7 -7 -7 -17 q0 -11 7 -17 q7 -7 17 -7 l0 0 ZM430 600 l-197 -299 l-198 299 l-19 0 l207 -313 l2 0 l0 -287 l16 0 l0 287 l1 0 l208 313 l-20 0 Z" /><glyph glyph-name="" unicode="&#x1ef2;" d="M243 655 l-80 145 l-26 0 l86 -145 l20 0 ZM430 600 l-197 -299 l-198 299 l-19 0 l207 -313 l2 0 l0 -287 l16 0 l0 287 l1 0 l208 313 l-20 0 Z" /><glyph glyph-name="" unicode="Z" d="M83 16 l399 584 l-420 0 l0 -16 l389 0 l-399 -584 l450 0 l0 16 l-419 0 Z" /><glyph glyph-name="" unicode="&#x179;" d="M369 800 l-26 0 l-80 -145 l20 0 l86 145 ZM83 16 l399 584 l-420 0 l0 -16 l389 0 l-399 -584 l450 0 l0 16 l-419 0 Z" /><glyph glyph-name="" unicode="&#x17d;" d="M282 655 l78 145 l-25 0 l-62 -126 l-64 126 l-24 0 l77 -145 l20 0 ZM83 16 l399 584 l-420 0 l0 -16 l389 0 l-399 -584 l450 0 l0 16 l-419 0 Z" /><glyph glyph-name="" unicode="&#x17b;" d="M273 680 q9 0 17 7 q7 6 7 17 q0 10 -7 17 q-8 7 -17 7 q-10 0 -17 -7 q-7 -7 -7 -17 q0 -11 7 -17 q7 -7 17 -7 l0 0 ZM83 16 l399 584 l-420 0 l0 -16 l389 0 l-399 -584 l450 0 l0 16 l-419 0 Z" /><glyph glyph-name="" unicode="a" d="M521 8 q-23 0 -36 16 q-13 16 -13 47 l0 329 l-16 0 l0 -123 q-24 59 -75 94 q-51 36 -117 37 q-88 -2 -147 -61 q-59 -59 -61 -147 q2 -88 61 -147 q59 -59 147 -61 q66 1 117 35 q51 34 75 92 l0 -48 q0 -38 17 -59 q16 -20 48 -20 q8 0 15 2 q8 2 15 6 l0 8 l-30 0 ZM264 8 q-82 2 -136 56 q-54 54 -56 136 q2 82 56 136 q54 54 136 56 q82 -2 136 -56 q54 -54 56 -136 q-2 -82 -56 -136 q-54 -54 -136 -56 l0 0 Z" /><glyph glyph-name="" unicode="á" d="M360 600 l-26 0 l-80 -145 l20 0 l86 145 ZM521 8 q-23 0 -36 16 q-13 16 -13 47 l0 329 l-16 0 l0 -123 q-24 59 -75 94 q-51 36 -117 37 q-88 -2 -147 -61 q-59 -59 -61 -147 q2 -88 61 -147 q59 -59 147 -61 q66 1 117 35 q51 34 75 92 l0 -48 q0 -38 17 -59 q16 -20 48 -20 q8 0 15 2 q8 2 15 6 l0 8 l-30 0 ZM264 8 q-82 2 -136 56 q-54 54 -56 136 q2 82 56 136 q54 54 136 56 q82 -2 136 -56 q54 -54 56 -136 q-2 -82 -56 -136 q-54 -54 -136 -56 l0 0 Z" /><glyph glyph-name="" unicode="&#x103;" d="M264 460 q52 1 87 32 q34 30 35 77 l-16 0 q-1 -40 -30 -66 q-30 -26 -76 -27 q-45 1 -75 27 q-29 26 -30 66 l-16 0 q1 -47 35 -77 q34 -31 86 -32 l0 0 ZM521 8 q-23 0 -36 16 q-13 16 -13 47 l0 329 l-16 0 l0 -123 q-24 59 -75 94 q-51 36 -117 37 q-88 -2 -147 -61 q-59 -59 -61 -147 q2 -88 61 -147 q59 -59 147 -61 q66 1 117 35 q51 34 75 92 l0 -48 q0 -38 17 -59 q16 -20 48 -20 q8 0 15 2 q8 2 15 6 l0 8 l-30 0 ZM264 8 q-82 2 -136 56 q-54 54 -56 136 q2 82 56 136 q54 54 136 56 q82 -2 136 -56 q54 -54 56 -136 q-2 -82 -56 -136 q-54 -54 -136 -56 l0 0 Z" /><glyph glyph-name="" unicode="&#x1ce;" d="M273 455 l78 145 l-25 0 l-62 -126 l-64 126 l-24 0 l77 -145 l20 0 ZM521 8 q-23 0 -36 16 q-13 16 -13 47 l0 329 l-16 0 l0 -123 q-24 59 -75 94 q-51 36 -117 37 q-88 -2 -147 -61 q-59 -59 -61 -147 q2 -88 61 -147 q59 -59 147 -61 q66 1 117 35 q51 34 75 92 l0 -48 q0 -38 17 -59 q16 -20 48 -20 q8 0 15 2 q8 2 15 6 l0 8 l-30 0 ZM264 8 q-82 2 -136 56 q-54 54 -56 136 q2 82 56 136 q54 54 136 56 q82 -2 136 -56 q54 -54 56 -136 q-2 -82 -56 -136 q-54 -54 -136 -56 l0 0 Z" /><glyph glyph-name="" unicode="â" d="M264 582 l62 -127 l25 0 l-78 145 l-20 0 l-77 -145 l24 0 l64 127 ZM521 8 q-23 0 -36 16 q-13 16 -13 47 l0 329 l-16 0 l0 -123 q-24 59 -75 94 q-51 36 -117 37 q-88 -2 -147 -61 q-59 -59 -61 -147 q2 -88 61 -147 q59 -59 147 -61 q66 1 117 35 q51 34 75 92 l0 -48 q0 -38 17 -59 q16 -20 48 -20 q8 0 15 2 q8 2 15 6 l0 8 l-30 0 ZM264 8 q-82 2 -136 56 q-54 54 -56 136 q2 82 56 136 q54 54 136 56 q82 -2 136 -56 q54 -54 56 -136 q-2 -82 -56 -136 q-54 -54 -136 -56 l0 0 Z" /><glyph glyph-name="" unicode="ä" d="M204 480 q10 0 17 7 q7 6 7 17 q0 10 -7 17 q-7 7 -17 7 q-10 0 -17 -7 q-7 -7 -7 -17 q0 -11 7 -17 q7 -7 17 -7 l0 0 ZM324 480 q10 0 17 7 q7 6 7 17 q0 10 -7 17 q-7 7 -17 7 q-10 0 -17 -7 q-7 -7 -7 -17 q0 -11 7 -17 q7 -7 17 -7 l0 0 ZM521 8 q-23 0 -36 16 q-13 16 -13 47 l0 329 l-16 0 l0 -123 q-24 59 -75 94 q-51 36 -117 37 q-88 -2 -147 -61 q-59 -59 -61 -147 q2 -88 61 -147 q59 -59 147 -61 q66 1 117 35 q51 34 75 92 l0 -48 q0 -38 17 -59 q16 -20 48 -20 q8 0 15 2 q8 2 15 6 l0 8 l-30 0 ZM264 8 q-82 2 -136 56 q-54 54 -56 136 q2 82 56 136 q54 54 136 56 q82 -2 136 -56 q54 -54 56 -136 q-2 -82 -56 -136 q-54 -54 -136 -56 l0 0 Z" /><glyph glyph-name="" unicode="à" d="M274 455 l-80 145 l-26 0 l86 -145 l20 0 ZM521 8 q-23 0 -36 16 q-13 16 -13 47 l0 329 l-16 0 l0 -123 q-24 59 -75 94 q-51 36 -117 37 q-88 -2 -147 -61 q-59 -59 -61 -147 q2 -88 61 -147 q59 -59 147 -61 q66 1 117 35 q51 34 75 92 l0 -48 q0 -38 17 -59 q16 -20 48 -20 q8 0 15 2 q8 2 15 6 l0 8 l-30 0 ZM264 8 q-82 2 -136 56 q-54 54 -56 136 q2 82 56 136 q54 54 136 56 q82 -2 136 -56 q54 -54 56 -136 q-2 -82 -56 -136 q-54 -54 -136 -56 l0 0 Z" /><glyph glyph-name="" unicode="&#x101;" d="M364 512 l-200 0 l0 -16 l200 0 l0 16 ZM521 8 q-23 0 -36 16 q-13 16 -13 47 l0 329 l-16 0 l0 -123 q-24 59 -75 94 q-51 36 -117 37 q-88 -2 -147 -61 q-59 -59 -61 -147 q2 -88 61 -147 q59 -59 147 -61 q66 1 117 35 q51 34 75 92 l0 -48 q0 -38 17 -59 q16 -20 48 -20 q8 0 15 2 q8 2 15 6 l0 8 l-30 0 ZM264 8 q-82 2 -136 56 q-54 54 -56 136 q2 82 56 136 q54 54 136 56 q82 -2 136 -56 q54 -54 56 -136 q-2 -82 -56 -136 q-54 -54 -136 -56 l0 0 Z" /><glyph glyph-name="" unicode="&#x105;" d="M609 -162 q-16 -15 -33 -22 q-16 -8 -40 -8 q-30 0 -45 18 q-15 17 -15 45 q2 40 25 72 q22 31 48 56 q1 0 1 1 q0 0 1 0 l0 8 l-30 0 q-23 0 -36 16 q-13 16 -13 47 l0 329 l-16 0 l0 -123 q-24 59 -75 94 q-51 36 -117 37 q-88 -2 -147 -61 q-59 -59 -61 -147 q2 -88 61 -147 q59 -59 147 -61 q66 1 117 35 q51 34 75 92 l0 -48 q0 -38 17 -59 q16 -20 48 -20 l3 0 q-25 -26 -43 -55 q-18 -29 -19 -66 q0 -36 19 -57 q18 -22 55 -22 q26 0 44 8 q19 9 36 26 l-7 12 ZM264 8 q-82 2 -136 56 q-54 54 -56 136 q2 82 56 136 q54 54 136 56 q82 -2 136 -56 q54 -54 56 -136 q-2 -82 -56 -136 q-54 -54 -136 -56 l0 0 Z" /><glyph glyph-name="" unicode="å" d="M264 445 q28 1 47 20 q19 19 20 47 q-1 29 -20 48 q-19 19 -47 20 q-29 -1 -48 -20 q-19 -19 -20 -48 q1 -28 20 -47 q19 -19 48 -20 l0 0 ZM264 565 q22 0 37 -15 q14 -15 15 -38 q-1 -22 -15 -37 q-15 -14 -37 -15 q-23 1 -38 15 q-14 15 -15 37 q1 23 15 38 q15 15 38 15 l0 0 ZM521 8 q-23 0 -36 16 q-13 16 -13 47 l0 329 l-16 0 l0 -123 q-24 59 -75 94 q-51 36 -117 37 q-88 -2 -147 -61 q-59 -59 -61 -147 q2 -88 61 -147 q59 -59 147 -61 q66 1 117 35 q51 34 75 92 l0 -48 q0 -38 17 -59 q16 -20 48 -20 q8 0 15 2 q8 2 15 6 l0 8 l-30 0 ZM264 8 q-82 2 -136 56 q-54 54 -56 136 q2 82 56 136 q54 54 136 56 q82 -2 136 -56 q54 -54 56 -136 q-2 -82 -56 -136 q-54 -54 -136 -56 l0 0 Z" /><glyph glyph-name="" unicode="ã" d="M204 560 q17 0 30 -8 q13 -8 23 -25 q25 -40 67 -40 q31 1 50 23 q19 22 20 58 l-16 0 q0 -29 -15 -47 q-15 -17 -39 -18 q-17 0 -30 8 q-13 8 -23 25 q-25 40 -67 40 q-31 -1 -49 -23 q-19 -22 -20 -59 l16 0 q0 30 15 48 q14 18 38 18 l0 0 ZM521 8 q-23 0 -36 16 q-13 16 -13 47 l0 329 l-16 0 l0 -123 q-24 59 -75 94 q-51 36 -117 37 q-88 -2 -147 -61 q-59 -59 -61 -147 q2 -88 61 -147 q59 -59 147 -61 q66 1 117 35 q51 34 75 92 l0 -48 q0 -38 17 -59 q16 -20 48 -20 q8 0 15 2 q8 2 15 6 l0 8 l-30 0 ZM264 8 q-82 2 -136 56 q-54 54 -56 136 q2 82 56 136 q54 54 136 56 q82 -2 136 -56 q54 -54 56 -136 q-2 -82 -56 -136 q-54 -54 -136 -56 l0 0 Z" /><glyph glyph-name="" unicode="æ" d="M774 204 l0 6 q-7 87 -64 141 q-58 55 -143 57 q-65 -1 -116 -36 q-51 -35 -76 -92 q-7 57 -47 92 q-40 35 -102 36 q-58 -1 -101 -27 q-44 -26 -59 -67 l15 -5 q18 37 58 60 q39 22 87 23 q59 -1 96 -36 q37 -36 38 -93 l0 -27 l-174 0 q-58 -1 -93 -34 q-36 -34 -37 -88 q1 -54 41 -88 q40 -33 105 -34 q42 1 90 33 q49 31 89 83 q26 -53 75 -84 q49 -31 111 -32 q70 1 123 41 q54 40 75 104 l-16 0 q-21 -57 -69 -93 q-49 -35 -113 -36 q-81 2 -135 55 q-54 52 -57 133 l0 8 l399 0 ZM567 392 q76 -2 129 -50 q52 -48 62 -122 l-382 0 q10 75 63 123 q52 47 128 49 l0 0 ZM202 8 q-58 1 -93 30 q-36 29 -37 76 q1 47 32 76 q32 29 82 30 l174 0 q-1 -5 -1 -10 q0 -5 0 -10 q0 -41 15 -77 q-37 -51 -84 -83 q-48 -31 -88 -32 l0 0 Z" /><glyph glyph-name="" unicode="b" d="M296 408 q-65 -1 -116 -36 q-51 -35 -76 -93 l0 457 l-16 0 l0 -736 l16 0 l0 121 q25 -58 76 -93 q51 -35 116 -36 q88 2 147 61 q59 59 61 147 q-2 88 -61 147 q-59 59 -147 61 l0 0 ZM296 8 q-82 2 -136 56 q-54 54 -56 136 q2 82 56 136 q54 54 136 56 q82 -2 136 -56 q54 -54 56 -136 q-2 -82 -56 -136 q-54 -54 -136 -56 l0 0 Z" /><glyph glyph-name="" unicode="c" d="M264 -8 q66 1 118 37 q52 36 76 95 l-16 0 q-23 -53 -71 -84 q-47 -31 -107 -32 q-81 2 -136 55 q-55 53 -56 137 q1 84 56 137 q55 53 136 55 q60 -1 107 -32 q48 -31 71 -84 l16 0 q-24 59 -76 95 q-52 36 -118 37 q-88 -2 -147 -61 q-59 -59 -61 -147 q2 -88 61 -147 q59 -59 147 -61 l0 0 Z" /><glyph glyph-name="" unicode="&#x107;" d="M254 455 l20 0 l86 145 l-26 0 l-80 -145 ZM264 -8 q66 1 118 37 q52 36 76 95 l-16 0 q-23 -53 -71 -84 q-47 -31 -107 -32 q-81 2 -136 55 q-55 53 -56 137 q1 84 56 137 q55 53 136 55 q60 -1 107 -32 q48 -31 71 -84 l16 0 q-24 59 -76 95 q-52 36 -118 37 q-88 -2 -147 -61 q-59 -59 -61 -147 q2 -88 61 -147 q59 -59 147 -61 l0 0 Z" /><glyph glyph-name="" unicode="&#x10d;" d="M253 455 l20 0 l78 145 l-25 0 l-62 -126 l-64 126 l-24 0 l77 -145 ZM264 -8 q66 1 118 37 q52 36 76 95 l-16 0 q-23 -53 -71 -84 q-47 -31 -107 -32 q-81 2 -136 55 q-55 53 -56 137 q1 84 56 137 q55 53 136 55 q60 -1 107 -32 q48 -31 71 -84 l16 0 q-24 59 -76 95 q-52 36 -118 37 q-88 -2 -147 -61 q-59 -59 -61 -147 q2 -88 61 -147 q59 -59 147 -61 l0 0 Z" /><glyph glyph-name="" unicode="ç" d="M264 8 q-81 2 -136 55 q-55 53 -56 137 q1 84 56 137 q55 53 136 55 q60 -1 107 -32 q48 -31 71 -84 l16 0 q-24 59 -76 95 q-52 36 -118 37 q-88 -2 -147 -61 q-59 -59 -61 -147 q2 -84 57 -142 q55 -59 138 -66 l-27 -58 l14 -13 q42 12 69 -3 q27 -15 28 -50 q0 -26 -17 -43 q-16 -16 -42 -17 q-21 0 -43 10 q-22 9 -35 24 l-12 -10 q15 -17 41 -28 q25 -12 49 -12 q32 1 53 22 q21 22 22 54 q-1 40 -31 60 q-30 20 -76 11 l23 53 q65 2 116 38 q51 36 75 94 l-16 0 q-23 -53 -71 -84 q-47 -31 -107 -32 l0 0 Z" /><glyph glyph-name="" unicode="&#x10b;" d="M264 480 q9 0 17 7 q7 6 7 17 q0 10 -7 17 q-8 7 -17 7 q-10 0 -17 -7 q-7 -7 -7 -17 q0 -11 7 -17 q7 -7 17 -7 l0 0 ZM264 -8 q66 1 118 37 q52 36 76 95 l-16 0 q-23 -53 -71 -84 q-47 -31 -107 -32 q-81 2 -136 55 q-55 53 -56 137 q1 84 56 137 q55 53 136 55 q60 -1 107 -32 q48 -31 71 -84 l16 0 q-24 59 -76 95 q-52 36 -118 37 q-88 -2 -147 -61 q-59 -59 -61 -147 q2 -88 61 -147 q59 -59 147 -61 l0 0 Z" /><glyph glyph-name="" unicode="d" d="M456 736 l0 -457 q-25 58 -76 93 q-51 35 -116 36 q-88 -2 -147 -61 q-59 -59 -61 -147 q2 -88 61 -147 q59 -59 147 -61 q65 1 116 36 q51 35 76 93 l0 -121 l16 0 l0 736 l-16 0 ZM264 8 q-82 2 -136 56 q-54 54 -56 136 q2 82 56 136 q54 54 136 56 q82 -2 136 -56 q54 -54 56 -136 q-2 -82 -56 -136 q-54 -54 -136 -56 l0 0 Z" /><glyph glyph-name="" unicode="ð" d="M336 540 l40 51 l-12 11 l-40 -52 q-36 29 -77 44 q-42 16 -87 16 l0 -16 q43 0 82 -14 q38 -15 72 -42 l-50 -64 l12 -10 l50 64 q45 -40 76 -99 q31 -59 45 -131 q-27 50 -75 79 q-48 30 -108 31 q-88 -2 -147 -61 q-59 -59 -61 -147 q2 -88 61 -147 q59 -59 147 -61 q88 2 147 61 q59 59 61 147 q-1 108 -37 196 q-37 88 -99 144 l0 0 ZM264 8 q-82 2 -136 56 q-54 54 -56 136 q2 82 56 136 q54 54 136 56 q82 -2 136 -56 q54 -54 56 -136 q-2 -82 -56 -136 q-54 -54 -136 -56 l0 0 Z" /><glyph glyph-name="" unicode="&#x10f;" d="M456 279 q-25 58 -76 93 q-51 35 -116 36 q-88 -2 -147 -61 q-59 -59 -61 -147 q2 -88 61 -147 q59 -59 147 -61 q65 1 116 36 q51 35 76 93 l0 -121 l16 0 l0 736 l-16 0 l0 -457 ZM602 736 l-74 -242 l17 0 l75 242 l-18 0 ZM264 8 q-82 2 -136 56 q-54 54 -56 136 q2 82 56 136 q54 54 136 56 q82 -2 136 -56 q54 -54 56 -136 q-2 -82 -56 -136 q-54 -54 -136 -56 l0 0 Z" /><glyph glyph-name="" unicode="&#x111;" d="M536 566 l-64 0 l0 170 l-16 0 l0 -170 l-120 0 l0 -16 l120 0 l0 -271 q-25 58 -76 93 q-51 35 -116 36 q-88 -2 -147 -61 q-59 -59 -61 -147 q2 -88 61 -147 q59 -59 147 -61 q65 1 116 36 q51 35 76 93 l0 -121 l16 0 l0 550 l64 0 l0 16 ZM264 8 q-82 2 -136 56 q-54 54 -56 136 q2 82 56 136 q54 54 136 56 q82 -2 136 -56 q54 -54 56 -136 q-2 -82 -56 -136 q-54 -54 -136 -56 l0 0 Z" /><glyph glyph-name="" unicode="e" d="M471 204 l0 6 q-7 87 -64 141 q-58 55 -143 57 q-88 -2 -147 -61 q-59 -59 -61 -147 q2 -88 61 -147 q59 -59 147 -61 q70 1 123 41 q54 40 75 104 l-16 0 q-21 -57 -69 -93 q-49 -35 -113 -36 q-81 2 -135 55 q-54 52 -57 133 l0 8 l399 0 ZM264 392 q76 -2 129 -50 q52 -48 62 -122 l-382 0 q10 75 63 123 q52 47 128 49 l0 0 Z" /><glyph glyph-name="" unicode="é" d="M360 608 l-26 0 l-80 -145 l20 0 l86 145 ZM471 204 l0 6 q-7 87 -64 141 q-58 55 -143 57 q-88 -2 -147 -61 q-59 -59 -61 -147 q2 -88 61 -147 q59 -59 147 -61 q70 1 123 41 q54 40 75 104 l-16 0 q-21 -57 -69 -93 q-49 -35 -113 -36 q-81 2 -135 55 q-54 52 -57 133 l0 8 l399 0 ZM264 392 q76 -2 129 -50 q52 -48 62 -122 l-382 0 q10 75 63 123 q52 47 128 49 l0 0 Z" /><glyph glyph-name="" unicode="&#x11b;" d="M273 463 l78 145 l-25 0 l-62 -126 l-64 126 l-24 0 l77 -145 l20 0 ZM471 204 l0 6 q-7 87 -64 141 q-58 55 -143 57 q-88 -2 -147 -61 q-59 -59 -61 -147 q2 -88 61 -147 q59 -59 147 -61 q70 1 123 41 q54 40 75 104 l-16 0 q-21 -57 -69 -93 q-49 -35 -113 -36 q-81 2 -135 55 q-54 52 -57 133 l0 8 l399 0 ZM264 392 q76 -2 129 -50 q52 -48 62 -122 l-382 0 q10 75 63 123 q52 47 128 49 l0 0 Z" /><glyph glyph-name="" unicode="ê" d="M264 590 l62 -127 l25 0 l-78 145 l-20 0 l-77 -145 l24 0 l64 127 ZM471 204 l0 6 q-7 87 -64 141 q-58 55 -143 57 q-88 -2 -147 -61 q-59 -59 -61 -147 q2 -88 61 -147 q59 -59 147 -61 q70 1 123 41 q54 40 75 104 l-16 0 q-21 -57 -69 -93 q-49 -35 -113 -36 q-81 2 -135 55 q-54 52 -57 133 l0 8 l399 0 ZM264 392 q76 -2 129 -50 q52 -48 62 -122 l-382 0 q10 75 63 123 q52 47 128 49 l0 0 Z" /><glyph glyph-name="" unicode="ë" d="M204 488 q10 0 17 7 q7 6 7 17 q0 10 -7 17 q-7 7 -17 7 q-10 0 -17 -7 q-7 -7 -7 -17 q0 -11 7 -17 q7 -7 17 -7 l0 0 ZM324 488 q10 0 17 7 q7 6 7 17 q0 10 -7 17 q-7 7 -17 7 q-10 0 -17 -7 q-7 -7 -7 -17 q0 -11 7 -17 q7 -7 17 -7 l0 0 ZM471 204 l0 6 q-7 87 -64 141 q-58 55 -143 57 q-88 -2 -147 -61 q-59 -59 -61 -147 q2 -88 61 -147 q59 -59 147 -61 q70 1 123 41 q54 40 75 104 l-16 0 q-21 -57 -69 -93 q-49 -35 -113 -36 q-81 2 -135 55 q-54 52 -57 133 l0 8 l399 0 ZM264 392 q76 -2 129 -50 q52 -48 62 -122 l-382 0 q10 75 63 123 q52 47 128 49 l0 0 Z" /><glyph glyph-name="" unicode="&#x117;" d="M264 488 q9 0 17 7 q7 6 7 17 q0 10 -7 17 q-8 7 -17 7 q-10 0 -17 -7 q-7 -7 -7 -17 q0 -11 7 -17 q7 -7 17 -7 l0 0 ZM471 204 l0 6 q-7 87 -64 141 q-58 55 -143 57 q-88 -2 -147 -61 q-59 -59 -61 -147 q2 -88 61 -147 q59 -59 147 -61 q70 1 123 41 q54 40 75 104 l-16 0 q-21 -57 -69 -93 q-49 -35 -113 -36 q-81 2 -135 55 q-54 52 -57 133 l0 8 l399 0 ZM264 392 q76 -2 129 -50 q52 -48 62 -122 l-382 0 q10 75 63 123 q52 47 128 49 l0 0 Z" /><glyph glyph-name="" unicode="è" d="M274 463 l-80 145 l-26 0 l86 -145 l20 0 ZM471 204 l0 6 q-7 87 -64 141 q-58 55 -143 57 q-88 -2 -147 -61 q-59 -59 -61 -147 q2 -88 61 -147 q59 -59 147 -61 q70 1 123 41 q54 40 75 104 l-16 0 q-21 -57 -69 -93 q-49 -35 -113 -36 q-81 2 -135 55 q-54 52 -57 133 l0 8 l399 0 ZM264 392 q76 -2 129 -50 q52 -48 62 -122 l-382 0 q10 75 63 123 q52 47 128 49 l0 0 Z" /><glyph glyph-name="" unicode="&#x113;" d="M364 520 l-200 0 l0 -16 l200 0 l0 16 ZM471 204 l0 6 q-7 87 -64 141 q-58 55 -143 57 q-88 -2 -147 -61 q-59 -59 -61 -147 q2 -88 61 -147 q59 -59 147 -61 q70 1 123 41 q54 40 75 104 l-16 0 q-21 -57 -69 -93 q-49 -35 -113 -36 q-81 2 -135 55 q-54 52 -57 133 l0 8 l399 0 ZM264 392 q76 -2 129 -50 q52 -48 62 -122 l-382 0 q10 75 63 123 q52 47 128 49 l0 0 Z" /><glyph glyph-name="" unicode="&#x119;" d="M477 -100 q-16 -15 -33 -22 q-16 -8 -40 -8 q-30 0 -45 18 q-15 17 -15 45 q1 34 17 61 q17 27 38 49 q22 18 38 42 q16 24 25 52 l-16 0 q-21 -57 -69 -93 q-49 -35 -113 -36 q-81 2 -135 55 q-54 52 -57 133 l0 8 l399 0 l0 6 q-7 87 -64 141 q-58 55 -143 57 q-88 -2 -147 -61 q-59 -59 -61 -147 q2 -88 61 -147 q59 -59 147 -61 q26 0 50 6 q24 7 46 18 q-14 -18 -22 -38 q-8 -21 -8 -45 q0 -36 19 -57 q18 -22 55 -22 q26 0 44 8 q19 9 36 26 l-7 12 ZM264 392 q76 -2 129 -50 q52 -48 62 -122 l-382 0 q10 75 63 123 q52 47 128 49 l0 0 Z" /><glyph glyph-name="" unicode="f" d="M198 720 l44 -7 l0 10 q-8 5 -20 9 q-13 4 -24 4 q-37 -1 -61 -25 q-25 -25 -26 -62 l0 -249 l-67 0 l0 -16 l67 0 l0 -384 l16 0 l0 384 l115 0 l0 16 l-115 0 l0 249 q1 31 21 51 q19 19 50 20 l0 0 Z" /><glyph glyph-name="" unicode="g" d="M456 400 l0 -120 q-25 57 -76 92 q-51 35 -116 36 q-88 -2 -147 -61 q-59 -59 -61 -147 q2 -88 61 -147 q59 -59 147 -61 q65 1 116 36 q51 35 76 93 l0 -153 q-2 -82 -56 -136 q-54 -54 -136 -56 q-53 0 -98 27 q-44 26 -71 74 l-14 -7 q29 -51 77 -80 q48 -29 106 -30 q88 2 147 61 q59 59 61 147 l0 432 l-16 0 ZM264 8 q-82 2 -136 56 q-54 54 -56 136 q2 82 56 136 q54 54 136 56 q82 -2 136 -56 q54 -54 56 -136 q-2 -82 -56 -136 q-54 -54 -136 -56 l0 0 Z" /><glyph glyph-name="" unicode="&#x11f;" d="M264 460 q52 1 87 32 q34 30 35 77 l-16 0 q-1 -40 -30 -66 q-30 -26 -76 -27 q-45 1 -75 27 q-29 26 -30 66 l-16 0 q1 -47 35 -77 q34 -31 86 -32 l0 0 ZM456 400 l0 -120 q-25 57 -76 92 q-51 35 -116 36 q-88 -2 -147 -61 q-59 -59 -61 -147 q2 -88 61 -147 q59 -59 147 -61 q65 1 116 36 q51 35 76 93 l0 -153 q-2 -82 -56 -136 q-54 -54 -136 -56 q-53 0 -98 27 q-44 26 -71 74 l-14 -7 q29 -51 77 -80 q48 -29 106 -30 q88 2 147 61 q59 59 61 147 l0 432 l-16 0 ZM264 8 q-82 2 -136 56 q-54 54 -56 136 q2 82 56 136 q54 54 136 56 q82 -2 136 -56 q54 -54 56 -136 q-2 -82 -56 -136 q-54 -54 -136 -56 l0 0 Z" /><glyph glyph-name="" unicode="&#x123;" d="M340 607 l-18 0 l-66 -152 l18 0 l66 152 ZM456 400 l0 -120 q-25 57 -76 92 q-51 35 -116 36 q-88 -2 -147 -61 q-59 -59 -61 -147 q2 -88 61 -147 q59 -59 147 -61 q65 1 116 36 q51 35 76 93 l0 -153 q-2 -82 -56 -136 q-54 -54 -136 -56 q-53 0 -98 27 q-44 26 -71 74 l-14 -7 q29 -51 77 -80 q48 -29 106 -30 q88 2 147 61 q59 59 61 147 l0 432 l-16 0 ZM264 8 q-82 2 -136 56 q-54 54 -56 136 q2 82 56 136 q54 54 136 56 q82 -2 136 -56 q54 -54 56 -136 q-2 -82 -56 -136 q-54 -54 -136 -56 l0 0 Z" /><glyph glyph-name="" unicode="&#x121;" d="M264 480 q9 0 17 7 q7 6 7 17 q0 10 -7 17 q-8 7 -17 7 q-10 0 -17 -7 q-7 -7 -7 -17 q0 -11 7 -17 q7 -7 17 -7 l0 0 ZM456 400 l0 -120 q-25 57 -76 92 q-51 35 -116 36 q-88 -2 -147 -61 q-59 -59 -61 -147 q2 -88 61 -147 q59 -59 147 -61 q65 1 116 36 q51 35 76 93 l0 -153 q-2 -82 -56 -136 q-54 -54 -136 -56 q-53 0 -98 27 q-44 26 -71 74 l-14 -7 q29 -51 77 -80 q48 -29 106 -30 q88 2 147 61 q59 59 61 147 l0 432 l-16 0 ZM264 8 q-82 2 -136 56 q-54 54 -56 136 q2 82 56 136 q54 54 136 56 q82 -2 136 -56 q54 -54 56 -136 q-2 -82 -56 -136 q-54 -54 -136 -56 l0 0 Z" /><glyph glyph-name="" unicode="h" d="M229 408 q-42 -1 -74 -22 q-33 -22 -51 -59 l0 409 l-16 0 l0 -736 l16 0 l0 261 q1 56 37 93 q35 38 87 39 q53 -1 88 -39 q36 -37 37 -93 l0 -261 l16 0 l0 261 q-2 62 -41 104 q-40 41 -99 43 l0 0 Z" /><glyph glyph-name="" unicode="&#x127;" d="M229 408 q-42 -1 -74 -22 q-33 -22 -51 -59 l0 223 l122 0 l0 16 l-122 0 l0 170 l-16 0 l0 -170 l-62 0 l0 -16 l62 0 l0 -550 l16 0 l0 261 q1 56 37 93 q35 38 87 39 q53 -1 88 -39 q36 -37 37 -93 l0 -261 l16 0 l0 261 q-2 62 -41 104 q-40 41 -99 43 l0 0 Z" /><glyph glyph-name="" unicode="i" d="M107 480 q10 0 17 7 q7 6 7 17 q0 10 -7 17 q-7 7 -17 7 q-10 0 -17 -7 q-7 -7 -7 -17 q0 -11 7 -17 q7 -7 17 -7 l0 0 ZM99 0 l16 0 l0 400 l-16 0 l0 -400 Z" /><glyph glyph-name="" unicode="&#x131;" d="M93 0 l16 0 l0 400 l-16 0 l0 -400 Z" /><glyph glyph-name="" unicode="í" d="M91 455 l20 0 l86 145 l-26 0 l-80 -145 ZM93 0 l16 0 l0 400 l-16 0 l0 -400 Z" /><glyph glyph-name="" unicode="&#x1d0;" d="M90 455 l20 0 l78 145 l-25 0 l-62 -126 l-64 126 l-24 0 l77 -145 ZM93 0 l16 0 l0 400 l-16 0 l0 -400 Z" /><glyph glyph-name="" unicode="î" d="M37 455 l64 127 l62 -127 l25 0 l-78 145 l-20 0 l-77 -145 l24 0 ZM93 0 l16 0 l0 400 l-16 0 l0 -400 Z" /><glyph glyph-name="" unicode="ï" d="M41 480 q10 0 17 7 q7 6 7 17 q0 10 -7 17 q-7 7 -17 7 q-10 0 -17 -7 q-7 -7 -7 -17 q0 -11 7 -17 q7 -7 17 -7 l0 0 ZM161 480 q10 0 17 7 q7 6 7 17 q0 10 -7 17 q-7 7 -17 7 q-10 0 -17 -7 q-7 -7 -7 -17 q0 -11 7 -17 q7 -7 17 -7 l0 0 ZM93 0 l16 0 l0 400 l-16 0 l0 -400 Z" /><glyph glyph-name="" unicode="ì" d="M111 455 l-80 145 l-26 0 l86 -145 l20 0 ZM93 0 l16 0 l0 400 l-16 0 l0 -400 Z" /><glyph glyph-name="" unicode="&#x12b;" d="M1 496 l200 0 l0 16 l-200 0 l0 -16 ZM93 0 l16 0 l0 400 l-16 0 l0 -400 Z" /><glyph glyph-name="" unicode="&#x12f;" d="M101 480 q9 0 17 7 q7 6 7 17 q0 10 -7 17 q-8 7 -17 7 q-10 0 -17 -7 q-7 -7 -7 -17 q0 -11 7 -17 q7 -7 17 -7 l0 0 ZM168 -162 q-16 -15 -33 -22 q-16 -8 -40 -8 q-30 0 -45 18 q-15 17 -15 45 q2 41 25 73 q23 31 49 56 l0 400 l-16 0 l0 -396 q-28 -30 -49 -61 q-22 -31 -23 -72 q0 -36 19 -57 q18 -22 55 -22 q26 0 44 8 q19 9 36 26 l-7 12 Z" /><glyph glyph-name="" unicode="j" d="M115 480 q10 0 17 7 q7 6 7 17 q0 10 -7 17 q-7 7 -17 7 q-10 0 -17 -7 q-7 -7 -7 -17 q0 -11 7 -17 q7 -7 17 -7 l0 0 ZM36 -240 q37 1 62 26 q24 24 25 61 l0 553 l-16 0 l0 -553 q-1 -31 -20 -50 q-20 -20 -51 -21 l-44 7 l0 -10 q8 -5 21 -9 q12 -4 23 -4 l0 0 Z" /><glyph glyph-name="" unicode="&#x237;" d="M20 -240 q37 1 62 26 q24 24 25 61 l0 553 l-16 0 l0 -553 q-1 -31 -20 -50 q-20 -20 -51 -21 l-44 7 l0 -10 q8 -5 21 -9 q12 -4 23 -4 l0 0 Z" /><glyph glyph-name="" unicode="k" d="M94 1 l16 0 l0 735 l-16 0 l0 -735 ZM344 0 l23 0 l-221 224 l205 176 l-25 0 l-204 -176 l222 -224 Z" /><glyph glyph-name="" unicode="&#x137;" d="M94 1 l16 0 l0 735 l-16 0 l0 -735 ZM344 0 l23 0 l-221 224 l205 176 l-25 0 l-204 -176 l222 -224 ZM137 -200 l66 152 l-18 0 l-66 -152 l18 0 Z" /><glyph glyph-name="" unicode="l" d="M88 0 l16 0 l0 736 l-16 0 l0 -736 Z" /><glyph glyph-name="" unicode="&#x13a;" d="M86 791 l20 0 l86 145 l-26 0 l-80 -145 ZM88 0 l16 0 l0 736 l-16 0 l0 -736 Z" /><glyph glyph-name="" unicode="&#x13e;" d="M88 0 l16 0 l0 736 l-16 0 l0 -736 ZM188 494 l75 242 l-18 0 l-74 -242 l17 0 Z" /><glyph glyph-name="" unicode="&#x13c;" d="M88 0 l16 0 l0 736 l-16 0 l0 -736 ZM39 -200 l66 152 l-18 0 l-66 -152 l18 0 Z" /><glyph glyph-name="" unicode="&#x140;" d="M88 0 l16 0 l0 736 l-16 0 l0 -736 ZM152 264 q9 0 17 7 q7 6 7 17 q0 10 -7 17 q-8 7 -17 7 q-10 0 -17 -7 q-7 -7 -7 -17 q0 -11 7 -17 q7 -7 17 -7 l0 0 Z" /><glyph glyph-name="" unicode="&#x142;" d="M172 443 l-12 11 l-56 -62 l0 344 l-16 0 l0 -362 l-69 -76 l12 -9 l57 62 l0 -351 l16 0 l0 369 l68 74 Z" /><glyph glyph-name="" unicode="m" d="M472 408 q-44 -1 -78 -25 q-33 -24 -48 -66 q-14 42 -47 66 q-34 24 -77 25 q-39 0 -70 -20 q-31 -19 -48 -53 l0 65 l-16 0 l0 -400 l16 0 l0 269 q1 56 34 89 q33 33 83 34 q50 -1 83 -34 q33 -33 34 -89 l0 -269 l16 0 l0 269 q1 56 34 89 q33 33 83 34 q50 -1 83 -34 q34 -33 35 -89 l0 -269 l15 0 l0 269 q-1 62 -39 100 q-37 38 -93 39 l0 0 Z" /><glyph glyph-name="" unicode="n" d="M236 408 q-44 -1 -79 -23 q-34 -22 -53 -59 l0 74 l-16 0 l0 -400 l16 0 l0 261 q1 56 39 93 q37 38 93 39 q56 -1 93 -39 q37 -37 38 -93 l0 -261 l16 0 l0 261 q-1 62 -43 104 q-41 41 -104 43 l0 0 Z" /><glyph glyph-name="" unicode="&#x144;" d="M332 600 l-26 0 l-80 -145 l20 0 l86 145 ZM236 408 q-44 -1 -79 -23 q-34 -22 -53 -59 l0 74 l-16 0 l0 -400 l16 0 l0 261 q1 56 39 93 q37 38 93 39 q56 -1 93 -39 q37 -37 38 -93 l0 -261 l16 0 l0 261 q-1 62 -43 104 q-41 41 -104 43 l0 0 Z" /><glyph glyph-name="" unicode="&#x148;" d="M245 455 l78 145 l-25 0 l-62 -126 l-64 126 l-24 0 l77 -145 l20 0 ZM236 408 q-44 -1 -79 -23 q-34 -22 -53 -59 l0 74 l-16 0 l0 -400 l16 0 l0 261 q1 56 39 93 q37 38 93 39 q56 -1 93 -39 q37 -37 38 -93 l0 -261 l16 0 l0 261 q-1 62 -43 104 q-41 41 -104 43 l0 0 Z" /><glyph glyph-name="" unicode="&#x146;" d="M236 408 q-44 -1 -79 -23 q-34 -22 -53 -59 l0 74 l-16 0 l0 -400 l16 0 l0 261 q1 56 39 93 q37 38 93 39 q56 -1 93 -39 q37 -37 38 -93 l0 -261 l16 0 l0 261 q-1 62 -43 104 q-41 41 -104 43 l0 0 ZM161 -200 l18 0 l66 152 l-18 0 l-66 -152 Z" /><glyph glyph-name="" unicode="&#x14b;" d="M236 408 q-44 -1 -79 -23 q-34 -22 -53 -59 l0 74 l-16 0 l0 -400 l16 0 l0 261 q1 56 39 93 q37 38 93 39 q56 -1 93 -39 q37 -37 38 -93 l0 -375 q0 -31 -17 -47 q-16 -17 -43 -13 l0 -16 q34 -2 55 19 q20 20 21 57 l0 375 q-1 62 -43 104 q-41 41 -104 43 l0 0 Z" /><glyph glyph-name="" unicode="ñ" d="M176 560 q17 0 30 -8 q13 -8 23 -25 q25 -40 67 -40 q31 1 50 23 q19 22 20 58 l-16 0 q0 -29 -15 -47 q-15 -17 -39 -18 q-17 0 -30 8 q-13 8 -23 25 q-25 40 -67 40 q-31 -1 -49 -23 q-19 -22 -20 -59 l16 0 q0 30 15 48 q14 18 38 18 l0 0 ZM236 408 q-44 -1 -79 -23 q-34 -22 -53 -59 l0 74 l-16 0 l0 -400 l16 0 l0 261 q1 56 39 93 q37 38 93 39 q56 -1 93 -39 q37 -37 38 -93 l0 -261 l16 0 l0 261 q-1 62 -43 104 q-41 41 -104 43 l0 0 Z" /><glyph glyph-name="" unicode="o" d="M264 -8 q88 2 147 61 q59 59 61 147 q-2 88 -61 147 q-59 59 -147 61 q-88 -2 -147 -61 q-59 -59 -61 -147 q2 -88 61 -147 q59 -59 147 -61 l0 0 ZM264 8 q-82 2 -136 56 q-54 54 -56 136 q2 82 56 136 q54 54 136 56 q82 -2 136 -56 q54 -54 56 -136 q-2 -82 -56 -136 q-54 -54 -136 -56 l0 0 Z" /><glyph glyph-name="" unicode="ó" d="M254 455 l20 0 l86 145 l-26 0 l-80 -145 ZM264 -8 q88 2 147 61 q59 59 61 147 q-2 88 -61 147 q-59 59 -147 61 q-88 -2 -147 -61 q-59 -59 -61 -147 q2 -88 61 -147 q59 -59 147 -61 l0 0 ZM264 8 q-82 2 -136 56 q-54 54 -56 136 q2 82 56 136 q54 54 136 56 q82 -2 136 -56 q54 -54 56 -136 q-2 -82 -56 -136 q-54 -54 -136 -56 l0 0 Z" /><glyph glyph-name="" unicode="&#x1d2;" d="M253 455 l20 0 l78 145 l-25 0 l-62 -126 l-64 126 l-24 0 l77 -145 ZM264 -8 q88 2 147 61 q59 59 61 147 q-2 88 -61 147 q-59 59 -147 61 q-88 -2 -147 -61 q-59 -59 -61 -147 q2 -88 61 -147 q59 -59 147 -61 l0 0 ZM264 8 q-82 2 -136 56 q-54 54 -56 136 q2 82 56 136 q54 54 136 56 q82 -2 136 -56 q54 -54 56 -136 q-2 -82 -56 -136 q-54 -54 -136 -56 l0 0 Z" /><glyph glyph-name="" unicode="ô" d="M200 455 l64 127 l62 -127 l25 0 l-78 145 l-20 0 l-77 -145 l24 0 ZM264 -8 q88 2 147 61 q59 59 61 147 q-2 88 -61 147 q-59 59 -147 61 q-88 -2 -147 -61 q-59 -59 -61 -147 q2 -88 61 -147 q59 -59 147 -61 l0 0 ZM264 8 q-82 2 -136 56 q-54 54 -56 136 q2 82 56 136 q54 54 136 56 q82 -2 136 -56 q54 -54 56 -136 q-2 -82 -56 -136 q-54 -54 -136 -56 l0 0 Z" /><glyph glyph-name="" unicode="ö" d="M204 480 q10 0 17 7 q7 6 7 17 q0 10 -7 17 q-7 7 -17 7 q-10 0 -17 -7 q-7 -7 -7 -17 q0 -11 7 -17 q7 -7 17 -7 l0 0 ZM324 480 q10 0 17 7 q7 6 7 17 q0 10 -7 17 q-7 7 -17 7 q-10 0 -17 -7 q-7 -7 -7 -17 q0 -11 7 -17 q7 -7 17 -7 l0 0 ZM264 -8 q88 2 147 61 q59 59 61 147 q-2 88 -61 147 q-59 59 -147 61 q-88 -2 -147 -61 q-59 -59 -61 -147 q2 -88 61 -147 q59 -59 147 -61 l0 0 ZM264 8 q-82 2 -136 56 q-54 54 -56 136 q2 82 56 136 q54 54 136 56 q82 -2 136 -56 q54 -54 56 -136 q-2 -82 -56 -136 q-54 -54 -136 -56 l0 0 Z" /><glyph glyph-name="" unicode="ò" d="M274 455 l-80 145 l-26 0 l86 -145 l20 0 ZM264 -8 q88 2 147 61 q59 59 61 147 q-2 88 -61 147 q-59 59 -147 61 q-88 -2 -147 -61 q-59 -59 -61 -147 q2 -88 61 -147 q59 -59 147 -61 l0 0 ZM264 8 q-82 2 -136 56 q-54 54 -56 136 q2 82 56 136 q54 54 136 56 q82 -2 136 -56 q54 -54 56 -136 q-2 -82 -56 -136 q-54 -54 -136 -56 l0 0 Z" /><glyph glyph-name="" unicode="&#x151;" d="M182 455 l20 0 l85 145 l-26 0 l-79 -145 ZM312 455 l20 0 l85 145 l-26 0 l-79 -145 ZM264 -8 q88 2 147 61 q59 59 61 147 q-2 88 -61 147 q-59 59 -147 61 q-88 -2 -147 -61 q-59 -59 -61 -147 q2 -88 61 -147 q59 -59 147 -61 l0 0 ZM264 8 q-82 2 -136 56 q-54 54 -56 136 q2 82 56 136 q54 54 136 56 q82 -2 136 -56 q54 -54 56 -136 q-2 -82 -56 -136 q-54 -54 -136 -56 l0 0 Z" /><glyph glyph-name="" unicode="&#x14d;" d="M164 496 l200 0 l0 16 l-200 0 l0 -16 ZM264 -8 q88 2 147 61 q59 59 61 147 q-2 88 -61 147 q-59 59 -147 61 q-88 -2 -147 -61 q-59 -59 -61 -147 q2 -88 61 -147 q59 -59 147 -61 l0 0 ZM264 8 q-82 2 -136 56 q-54 54 -56 136 q2 82 56 136 q54 54 136 56 q82 -2 136 -56 q54 -54 56 -136 q-2 -82 -56 -136 q-54 -54 -136 -56 l0 0 Z" /><glyph glyph-name="" unicode="ø" d="M388 366 l52 74 l-11 7 l-51 -73 q-25 16 -54 25 q-28 9 -60 9 q-88 -2 -147 -61 q-59 -59 -61 -147 q0 -51 23 -95 q22 -43 61 -72 l-52 -75 l11 -7 l52 75 q25 -17 54 -25 q28 -9 59 -9 q88 2 147 61 q59 59 61 147 q0 51 -23 94 q-22 43 -61 72 l0 0 ZM72 200 q2 82 56 136 q54 54 136 56 q29 0 56 -8 q26 -8 49 -23 l-220 -315 q-36 27 -56 67 q-21 39 -21 87 l0 0 ZM264 8 q-29 0 -55 8 q-26 8 -49 23 l220 314 q35 -27 55 -66 q21 -39 21 -87 q-2 -82 -56 -136 q-54 -54 -136 -56 l0 0 Z" /><glyph glyph-name="" unicode="õ" d="M324 487 q31 1 50 23 q19 22 20 58 l-16 0 q0 -29 -15 -47 q-15 -17 -39 -18 q-17 0 -30 8 q-13 8 -23 25 q-25 40 -67 40 q-31 -1 -49 -23 q-19 -22 -20 -59 l16 0 q0 30 15 48 q14 18 38 18 q17 0 30 -8 q13 -8 23 -25 q25 -40 67 -40 l0 0 ZM264 -8 q88 2 147 61 q59 59 61 147 q-2 88 -61 147 q-59 59 -147 61 q-88 -2 -147 -61 q-59 -59 -61 -147 q2 -88 61 -147 q59 -59 147 -61 l0 0 ZM264 8 q-82 2 -136 56 q-54 54 -56 136 q2 82 56 136 q54 54 136 56 q82 -2 136 -56 q54 -54 56 -136 q-2 -82 -56 -136 q-54 -54 -136 -56 l0 0 Z" /><glyph glyph-name="" unicode="&#x153;" d="M872 204 l0 6 q-7 87 -64 141 q-58 55 -143 57 q-73 -1 -127 -43 q-54 -43 -73 -110 q-20 67 -74 110 q-54 42 -127 43 q-88 -2 -147 -61 q-59 -59 -61 -147 q2 -88 61 -147 q59 -59 147 -61 q73 1 127 44 q54 42 74 109 q19 -67 73 -109 q54 -43 127 -44 q70 1 123 41 q54 40 75 104 l-16 0 q-21 -57 -69 -93 q-49 -35 -113 -36 q-81 2 -135 55 q-54 52 -57 133 l0 8 l399 0 ZM264 8 q-82 2 -136 56 q-54 54 -56 136 q2 82 56 136 q54 54 136 56 q82 -2 136 -56 q54 -54 56 -136 q-2 -82 -56 -136 q-54 -54 -136 -56 l0 0 ZM665 392 q76 -2 129 -50 q52 -48 62 -122 l-382 0 q10 75 63 123 q52 47 128 49 l0 0 Z" /><glyph glyph-name="" unicode="p" d="M296 408 q-65 -1 -116 -36 q-51 -35 -76 -93 l0 121 l-16 0 l0 -640 l16 0 l0 361 q25 -58 76 -93 q51 -35 116 -36 q88 2 147 61 q59 59 61 147 q-2 88 -61 147 q-59 59 -147 61 l0 0 ZM296 8 q-82 2 -136 56 q-54 54 -56 136 q2 82 56 136 q54 54 136 56 q82 -2 136 -56 q54 -54 56 -136 q-2 -82 -56 -136 q-54 -54 -136 -56 l0 0 Z" /><glyph glyph-name="" unicode="þ" d="M302 408 q-66 -1 -117 -36 q-51 -35 -75 -92 l0 384 l-16 0 l0 -904 l16 0 l0 360 q24 -57 75 -92 q51 -35 117 -36 q88 2 147 61 q59 59 61 147 q-2 88 -61 147 q-59 59 -147 61 l0 0 ZM302 8 q-82 2 -136 56 q-54 54 -56 136 q2 82 56 136 q54 54 136 56 q82 -2 136 -56 q54 -54 56 -136 q-2 -82 -56 -136 q-54 -54 -136 -56 l0 0 Z" /><glyph glyph-name="" unicode="q" d="M543 -224 q-31 1 -50 21 q-20 19 -21 50 l0 553 l-16 0 l0 -121 q-25 58 -76 93 q-51 35 -116 36 q-88 -2 -147 -61 q-59 -59 -61 -147 q2 -88 61 -147 q59 -59 147 -61 q65 1 116 36 q51 35 76 93 l0 -274 q1 -37 26 -61 q24 -25 61 -26 q8 0 18 2 q10 2 18 6 l0 8 l-36 0 ZM264 8 q-82 2 -136 56 q-54 54 -56 136 q2 82 56 136 q54 54 136 56 q82 -2 136 -56 q54 -54 56 -136 q-2 -82 -56 -136 q-54 -54 -136 -56 l0 0 Z" /><glyph glyph-name="" unicode="r" d="M244 408 q-46 -1 -83 -24 q-38 -24 -57 -63 l0 79 l-16 0 l0 -400 l16 0 l0 253 q2 59 41 98 q40 40 99 41 q21 0 38 -6 l0 18 q-9 2 -18 3 q-10 1 -20 1 l0 0 Z" /><glyph glyph-name="" unicode="&#x155;" d="M273 600 l-26 0 l-80 -145 l20 0 l86 145 ZM244 408 q-46 -1 -83 -24 q-38 -24 -57 -63 l0 79 l-16 0 l0 -400 l16 0 l0 253 q2 59 41 98 q40 40 99 41 q21 0 38 -6 l0 18 q-9 2 -18 3 q-10 1 -20 1 l0 0 Z" /><glyph glyph-name="" unicode="&#x159;" d="M186 455 l78 145 l-25 0 l-62 -126 l-64 126 l-24 0 l77 -145 l20 0 ZM244 408 q-46 -1 -83 -24 q-38 -24 -57 -63 l0 79 l-16 0 l0 -400 l16 0 l0 253 q2 59 41 98 q40 40 99 41 q21 0 38 -6 l0 18 q-9 2 -18 3 q-10 1 -20 1 l0 0 Z" /><glyph glyph-name="" unicode="&#x157;" d="M244 408 q-46 -1 -83 -24 q-38 -24 -57 -63 l0 79 l-16 0 l0 -400 l16 0 l0 253 q2 59 41 98 q40 40 99 41 q21 0 38 -6 l0 18 q-9 2 -18 3 q-10 1 -20 1 l0 0 ZM21 -200 l18 0 l66 152 l-18 0 l-66 -152 Z" /><glyph glyph-name="" unicode="s" d="M177 -8 q50 1 83 29 q33 28 34 71 q-2 52 -35 77 q-33 24 -76 40 q-39 15 -68 36 q-29 21 -31 63 q2 44 31 64 q28 19 63 19 q24 0 45 -9 q21 -10 36 -30 l13 10 q-14 19 -39 32 q-25 13 -56 14 q-37 1 -72 -23 q-34 -24 -37 -79 q2 -50 35 -74 q33 -25 75 -39 q40 -14 69 -35 q30 -21 31 -62 q-1 -42 -31 -65 q-29 -23 -70 -23 q-39 1 -71 20 q-32 18 -43 46 l-15 -5 q13 -33 49 -55 q36 -21 80 -22 l0 0 Z" /><glyph glyph-name="" unicode="&#x15b;" d="M169 455 l20 0 l86 145 l-26 0 l-80 -145 ZM177 -8 q50 1 83 29 q33 28 34 71 q-2 52 -35 77 q-33 24 -76 40 q-39 15 -68 36 q-29 21 -31 63 q2 44 31 64 q28 19 63 19 q24 0 45 -9 q21 -10 36 -30 l13 10 q-14 19 -39 32 q-25 13 -56 14 q-37 1 -72 -23 q-34 -24 -37 -79 q2 -50 35 -74 q33 -25 75 -39 q40 -14 69 -35 q30 -21 31 -62 q-1 -42 -31 -65 q-29 -23 -70 -23 q-39 1 -71 20 q-32 18 -43 46 l-15 -5 q13 -33 49 -55 q36 -21 80 -22 l0 0 Z" /><glyph glyph-name="" unicode="&#x161;" d="M168 455 l20 0 l78 145 l-25 0 l-62 -126 l-64 126 l-24 0 l77 -145 ZM177 -8 q50 1 83 29 q33 28 34 71 q-2 52 -35 77 q-33 24 -76 40 q-39 15 -68 36 q-29 21 -31 63 q2 44 31 64 q28 19 63 19 q24 0 45 -9 q21 -10 36 -30 l13 10 q-14 19 -39 32 q-25 13 -56 14 q-37 1 -72 -23 q-34 -24 -37 -79 q2 -50 35 -74 q33 -25 75 -39 q40 -14 69 -35 q30 -21 31 -62 q-1 -42 -31 -65 q-29 -23 -70 -23 q-39 1 -71 20 q-32 18 -43 46 l-15 -5 q13 -33 49 -55 q36 -21 80 -22 l0 0 Z" /><glyph glyph-name="" unicode="&#x15f;" d="M294 92 q-2 52 -35 77 q-33 24 -76 40 q-39 15 -68 36 q-29 21 -31 63 q2 44 31 64 q28 19 63 19 q24 0 45 -9 q21 -10 36 -30 l13 10 q-14 19 -39 32 q-25 13 -56 14 q-37 1 -72 -23 q-34 -24 -37 -79 q2 -50 35 -74 q33 -25 75 -39 q40 -14 69 -35 q30 -21 31 -62 q-1 -42 -31 -65 q-29 -23 -70 -23 q-39 1 -71 20 q-32 18 -43 46 l-15 -5 q12 -31 44 -51 q32 -21 73 -25 l-27 -59 l14 -13 q42 12 69 -3 q27 -15 28 -50 q0 -26 -17 -43 q-16 -16 -42 -17 q-21 0 -43 10 q-22 9 -35 24 l-12 -10 q15 -17 41 -28 q25 -12 49 -12 q32 1 53 22 q21 22 22 54 q-1 40 -31 60 q-30 20 -76 11 l23 53 q48 2 80 30 q32 28 33 70 l0 0 Z" /><glyph glyph-name="" unicode="&#x219;" d="M177 -8 q50 1 83 29 q33 28 34 71 q-2 52 -35 77 q-33 24 -76 40 q-39 15 -68 36 q-29 21 -31 63 q2 44 31 64 q28 19 63 19 q24 0 45 -9 q21 -10 36 -30 l13 10 q-14 19 -39 32 q-25 13 -56 14 q-37 1 -72 -23 q-34 -24 -37 -79 q2 -50 35 -74 q33 -25 75 -39 q40 -14 69 -35 q30 -21 31 -62 q-1 -42 -31 -65 q-29 -23 -70 -23 q-39 1 -71 20 q-32 18 -43 46 l-15 -5 q13 -33 49 -55 q36 -21 80 -22 l0 0 ZM119 -200 l66 152 l-18 0 l-66 -152 l18 0 Z" /><glyph glyph-name="" unicode="ß" d="M333 297 q41 19 66 58 q25 38 26 89 q-1 69 -46 112 q-46 43 -119 44 q-73 -1 -119 -44 q-46 -43 -47 -113 l0 -443 l16 0 l0 443 q1 63 43 101 q41 39 108 40 q66 -1 106 -40 q41 -39 42 -101 q-1 -62 -41 -102 q-39 -40 -98 -41 l-26 0 l0 -16 l60 0 q60 -1 99 -40 q39 -39 40 -98 q-2 -59 -40 -94 q-39 -35 -94 -36 l-126 0 l0 -16 l127 0 q61 1 104 40 q43 40 45 106 q-1 58 -36 99 q-34 41 -90 52 l0 0 Z" /><glyph glyph-name="" unicode="t" d="M236 384 l0 16 l-117 0 l0 174 l-16 0 l0 -174 l-67 0 l0 -16 l67 0 l0 -305 q1 -37 26 -61 q24 -25 61 -26 q11 0 24 4 q12 4 20 9 l0 3 l-44 0 q-31 1 -50 21 q-20 19 -21 50 l0 305 l117 0 Z" /><glyph glyph-name="" unicode="&#x167;" d="M236 384 l0 16 l-117 0 l0 174 l-16 0 l0 -174 l-67 0 l0 -16 l67 0 l0 -176 l-68 0 l0 -16 l68 0 l0 -113 q1 -37 26 -61 q24 -25 61 -26 q11 0 24 4 q12 4 20 9 l0 3 l-44 0 q-31 1 -50 21 q-20 19 -21 50 l0 113 l116 0 l0 16 l-116 0 l0 176 l117 0 Z" /><glyph glyph-name="" unicode="&#x165;" d="M295 672 l-18 0 l-74 -242 l17 0 l75 242 ZM119 574 l-16 0 l0 -174 l-67 0 l0 -16 l67 0 l0 -305 q1 -37 26 -61 q24 -25 61 -26 q11 0 24 4 q12 4 20 9 l0 3 l-44 0 q-31 1 -50 21 q-20 19 -21 50 l0 305 l117 0 l0 16 l-117 0 l0 174 Z" /><glyph glyph-name="" unicode="&#x163;" d="M172 -61 l23 53 q10 1 21 5 q11 3 18 8 l0 3 l-44 0 q-31 1 -50 21 q-20 19 -21 50 l0 305 l117 0 l0 16 l-117 0 l0 174 l-16 0 l0 -174 l-67 0 l0 -16 l67 0 l0 -305 q1 -34 22 -58 q21 -23 54 -28 l-27 -59 l14 -13 q42 12 69 -3 q27 -15 28 -50 q0 -26 -17 -43 q-16 -16 -42 -17 q-21 0 -43 10 q-22 9 -35 24 l-12 -10 q15 -17 41 -28 q25 -12 49 -12 q32 1 53 22 q21 22 22 54 q-1 40 -31 60 q-30 20 -76 11 l0 0 Z" /><glyph glyph-name="" unicode="&#x21b;" d="M236 384 l0 16 l-117 0 l0 174 l-16 0 l0 -174 l-67 0 l0 -16 l67 0 l0 -305 q1 -37 26 -61 q24 -25 61 -26 q11 0 24 4 q12 4 20 9 l0 3 l-44 0 q-31 1 -50 21 q-20 19 -21 50 l0 305 l117 0 ZM115 -200 l18 0 l66 152 l-18 0 l-66 -152 Z" /><glyph glyph-name="" unicode="u" d="M214 -8 q60 2 100 46 q40 44 41 109 l0 253 l-16 0 l0 -253 q-1 -59 -37 -98 q-35 -40 -88 -41 q-52 1 -87 41 q-36 39 -37 98 l0 253 l-16 0 l0 -253 q2 -65 41 -109 q40 -44 99 -46 l0 0 Z" /><glyph glyph-name="" unicode="ú" d="M204 455 l20 0 l86 145 l-26 0 l-80 -145 ZM214 -8 q60 2 100 46 q40 44 41 109 l0 253 l-16 0 l0 -253 q-1 -59 -37 -98 q-35 -40 -88 -41 q-52 1 -87 41 q-36 39 -37 98 l0 253 l-16 0 l0 -253 q2 -65 41 -109 q40 -44 99 -46 l0 0 Z" /><glyph glyph-name="" unicode="&#x1d4;" d="M203 455 l20 0 l78 145 l-25 0 l-62 -126 l-64 126 l-24 0 l77 -145 ZM214 -8 q60 2 100 46 q40 44 41 109 l0 253 l-16 0 l0 -253 q-1 -59 -37 -98 q-35 -40 -88 -41 q-52 1 -87 41 q-36 39 -37 98 l0 253 l-16 0 l0 -253 q2 -65 41 -109 q40 -44 99 -46 l0 0 Z" /><glyph glyph-name="" unicode="û" d="M150 455 l64 127 l62 -127 l25 0 l-78 145 l-20 0 l-77 -145 l24 0 ZM214 -8 q60 2 100 46 q40 44 41 109 l0 253 l-16 0 l0 -253 q-1 -59 -37 -98 q-35 -40 -88 -41 q-52 1 -87 41 q-36 39 -37 98 l0 253 l-16 0 l0 -253 q2 -65 41 -109 q40 -44 99 -46 l0 0 Z" /><glyph glyph-name="" unicode="ü" d="M154 480 q10 0 17 7 q7 6 7 17 q0 10 -7 17 q-7 7 -17 7 q-10 0 -17 -7 q-7 -7 -7 -17 q0 -11 7 -17 q7 -7 17 -7 l0 0 ZM274 480 q10 0 17 7 q7 6 7 17 q0 10 -7 17 q-7 7 -17 7 q-10 0 -17 -7 q-7 -7 -7 -17 q0 -11 7 -17 q7 -7 17 -7 l0 0 ZM214 -8 q60 2 100 46 q40 44 41 109 l0 253 l-16 0 l0 -253 q-1 -59 -37 -98 q-35 -40 -88 -41 q-52 1 -87 41 q-36 39 -37 98 l0 253 l-16 0 l0 -253 q2 -65 41 -109 q40 -44 99 -46 l0 0 Z" /><glyph glyph-name="" unicode="ù" d="M224 455 l-80 145 l-26 0 l86 -145 l20 0 ZM214 -8 q60 2 100 46 q40 44 41 109 l0 253 l-16 0 l0 -253 q-1 -59 -37 -98 q-35 -40 -88 -41 q-52 1 -87 41 q-36 39 -37 98 l0 253 l-16 0 l0 -253 q2 -65 41 -109 q40 -44 99 -46 l0 0 Z" /><glyph glyph-name="" unicode="&#x171;" d="M132 455 l20 0 l85 145 l-26 0 l-79 -145 ZM262 455 l20 0 l85 145 l-26 0 l-79 -145 ZM214 -8 q60 2 100 46 q40 44 41 109 l0 253 l-16 0 l0 -253 q-1 -59 -37 -98 q-35 -40 -88 -41 q-52 1 -87 41 q-36 39 -37 98 l0 253 l-16 0 l0 -253 q2 -65 41 -109 q40 -44 99 -46 l0 0 Z" /><glyph glyph-name="" unicode="&#x16b;" d="M114 496 l200 0 l0 16 l-200 0 l0 -16 ZM214 -8 q60 2 100 46 q40 44 41 109 l0 253 l-16 0 l0 -253 q-1 -59 -37 -98 q-35 -40 -88 -41 q-52 1 -87 41 q-36 39 -37 98 l0 253 l-16 0 l0 -253 q2 -65 41 -109 q40 -44 99 -46 l0 0 Z" /><glyph glyph-name="" unicode="&#x173;" d="M351 -143 q-16 -15 -33 -22 q-16 -8 -40 -8 q-30 0 -45 18 q-15 17 -15 45 q1 40 24 71 q22 30 47 55 q30 21 48 55 q18 34 18 76 l0 253 l-16 0 l0 -253 q-1 -59 -37 -98 q-35 -40 -88 -41 q-52 1 -87 41 q-36 39 -37 98 l0 253 l-16 0 l0 -253 q2 -65 41 -109 q40 -44 99 -46 q21 0 41 7 q-22 -24 -36 -50 q-14 -26 -15 -59 q0 -36 19 -57 q18 -22 55 -22 q26 0 44 8 q19 9 36 26 l-7 12 Z" /><glyph glyph-name="" unicode="&#x16f;" d="M214 445 q28 1 47 20 q19 19 20 47 q-1 29 -20 48 q-19 19 -47 20 q-29 -1 -48 -20 q-19 -19 -20 -48 q1 -28 20 -47 q19 -19 48 -20 l0 0 ZM214 460 q-23 1 -38 15 q-14 15 -15 37 q1 23 15 38 q15 15 38 15 q22 0 37 -15 q14 -15 15 -38 q-1 -22 -15 -37 q-15 -14 -37 -15 l0 0 ZM214 -8 q60 2 100 46 q40 44 41 109 l0 253 l-16 0 l0 -253 q-1 -59 -37 -98 q-35 -40 -88 -41 q-52 1 -87 41 q-36 39 -37 98 l0 253 l-16 0 l0 -253 q2 -65 41 -109 q40 -44 99 -46 l0 0 Z" /><glyph glyph-name="" unicode="v" d="M345 400 l-151 -379 l-152 379 l-18 0 l160 -400 l18 0 l160 400 l-17 0 Z" /><glyph glyph-name="" unicode="w" d="M584 400 l-132 -382 l-131 382 l-18 0 l-131 -381 l-131 381 l-17 0 l138 -400 l20 0 l130 377 l130 -377 l20 0 l137 400 l-15 0 Z" /><glyph glyph-name="" unicode="&#x1e83;" d="M408 600 l-26 0 l-80 -145 l20 0 l86 145 ZM584 400 l-132 -382 l-131 382 l-18 0 l-131 -381 l-131 381 l-17 0 l138 -400 l20 0 l130 377 l130 -377 l20 0 l137 400 l-15 0 Z" /><glyph glyph-name="" unicode="&#x175;" d="M312 582 l62 -127 l25 0 l-78 145 l-20 0 l-77 -145 l24 0 l64 127 ZM584 400 l-132 -382 l-131 382 l-18 0 l-131 -381 l-131 381 l-17 0 l138 -400 l20 0 l130 377 l130 -377 l20 0 l137 400 l-15 0 Z" /><glyph glyph-name="" unicode="&#x1e85;" d="M252 480 q10 0 17 7 q7 6 7 17 q0 10 -7 17 q-7 7 -17 7 q-10 0 -17 -7 q-7 -7 -7 -17 q0 -11 7 -17 q7 -7 17 -7 l0 0 ZM372 480 q10 0 17 7 q7 6 7 17 q0 10 -7 17 q-7 7 -17 7 q-10 0 -17 -7 q-7 -7 -7 -17 q0 -11 7 -17 q7 -7 17 -7 l0 0 ZM584 400 l-132 -382 l-131 382 l-18 0 l-131 -381 l-131 381 l-17 0 l138 -400 l20 0 l130 377 l130 -377 l20 0 l137 400 l-15 0 Z" /><glyph glyph-name="" unicode="&#x1e81;" d="M322 455 l-80 145 l-26 0 l86 -145 l20 0 ZM584 400 l-132 -382 l-131 382 l-18 0 l-131 -381 l-131 381 l-17 0 l138 -400 l20 0 l130 377 l130 -377 l20 0 l137 400 l-15 0 Z" /><glyph glyph-name="" unicode="x" d="M374 400 l-20 0 l-155 -188 l-154 188 l-21 0 l165 -200 l-165 -200 l21 0 l154 188 l155 -188 l20 0 l-164 200 l164 200 Z" /><glyph glyph-name="" unicode="y" d="M345 400 l-151 -378 l-1 0 l-151 378 l-18 0 l161 -400 l-96 -240 l17 0 l256 640 l-17 0 Z" /><glyph glyph-name="" unicode="ý" d="M290 600 l-26 0 l-80 -145 l20 0 l86 145 ZM345 400 l-151 -378 l-1 0 l-151 378 l-18 0 l161 -400 l-96 -240 l17 0 l256 640 l-17 0 Z" /><glyph glyph-name="" unicode="&#x177;" d="M194 582 l62 -127 l25 0 l-78 145 l-20 0 l-77 -145 l24 0 l64 127 ZM345 400 l-151 -378 l-1 0 l-151 378 l-18 0 l161 -400 l-96 -240 l17 0 l256 640 l-17 0 Z" /><glyph glyph-name="" unicode="ÿ" d="M134 480 q10 0 17 7 q7 6 7 17 q0 10 -7 17 q-7 7 -17 7 q-10 0 -17 -7 q-7 -7 -7 -17 q0 -11 7 -17 q7 -7 17 -7 l0 0 ZM254 480 q10 0 17 7 q7 6 7 17 q0 10 -7 17 q-7 7 -17 7 q-10 0 -17 -7 q-7 -7 -7 -17 q0 -11 7 -17 q7 -7 17 -7 l0 0 ZM345 400 l-151 -378 l-1 0 l-151 378 l-18 0 l161 -400 l-96 -240 l17 0 l256 640 l-17 0 Z" /><glyph glyph-name="" unicode="&#x1ef3;" d="M204 455 l-80 145 l-26 0 l86 -145 l20 0 ZM345 400 l-151 -378 l-1 0 l-151 378 l-18 0 l161 -400 l-96 -240 l17 0 l256 640 l-17 0 Z" /><glyph glyph-name="" unicode="z" d="M80 16 l298 384 l-320 0 l0 -16 l286 0 l-296 -384 l342 0 l0 16 l-310 0 Z" /><glyph glyph-name="" unicode="&#x17a;" d="M321 600 l-26 0 l-80 -145 l20 0 l86 145 ZM80 16 l298 384 l-320 0 l0 -16 l286 0 l-296 -384 l342 0 l0 16 l-310 0 Z" /><glyph glyph-name="" unicode="&#x17e;" d="M234 455 l78 145 l-25 0 l-62 -126 l-64 126 l-24 0 l77 -145 l20 0 ZM80 16 l298 384 l-320 0 l0 -16 l286 0 l-296 -384 l342 0 l0 16 l-310 0 Z" /><glyph glyph-name="" unicode="&#x17c;" d="M225 480 q9 0 17 7 q7 6 7 17 q0 10 -7 17 q-8 7 -17 7 q-10 0 -17 -7 q-7 -7 -7 -17 q0 -11 7 -17 q7 -7 17 -7 l0 0 ZM80 16 l298 384 l-320 0 l0 -16 l286 0 l-296 -384 l342 0 l0 16 l-310 0 Z" /><glyph glyph-name="" unicode="&#xfb01;" d="M111 649 l0 -249 l-67 0 l0 -16 l67 0 l0 -384 l16 0 l0 384 l115 0 l0 16 l-115 0 l0 249 q1 31 21 51 q19 19 50 20 l44 -7 l0 10 q-8 5 -20 9 q-13 4 -24 4 q-37 -1 -61 -25 q-25 -25 -26 -62 l0 0 ZM387 528 q-10 0 -17 -7 q-7 -7 -7 -17 q0 -11 7 -17 q7 -7 17 -7 q10 0 17 7 q7 6 7 17 q0 10 -7 17 q-7 7 -17 7 l0 0 ZM379 0 l16 0 l0 400 l-16 0 l0 -400 Z" /><glyph glyph-name="" unicode="&#xfb02;" d="M111 649 l0 -249 l-67 0 l0 -16 l67 0 l0 -384 l16 0 l0 384 l115 0 l0 16 l-115 0 l0 249 q1 31 21 51 q19 19 50 20 l44 -7 l0 10 q-8 5 -20 9 q-13 4 -24 4 q-37 -1 -61 -25 q-25 -25 -26 -62 l0 0 ZM368 736 l0 -736 l16 0 l0 736 l-16 0 Z" /><glyph glyph-name="" unicode="ª" d="M286 600 l0 -69 q-15 33 -44 53 q-30 19 -68 20 q-52 -1 -87 -37 q-36 -35 -37 -88 q1 -53 37 -88 q35 -36 87 -37 q38 1 68 20 q29 20 44 53 l0 -68 l15 0 l0 241 l-15 0 ZM175 370 q-47 1 -77 32 q-31 30 -32 77 q1 47 32 78 q30 31 77 32 q47 -1 78 -32 q32 -31 33 -78 q-1 -47 -33 -77 q-31 -31 -78 -32 l0 0 Z" /><glyph glyph-name="" unicode="º" d="M175 354 q54 1 89 37 q36 35 37 88 q-1 53 -37 88 q-35 36 -89 37 q-53 -1 -88 -37 q-36 -35 -37 -88 q1 -53 37 -88 q35 -36 88 -37 l0 0 ZM175 370 q-47 1 -77 32 q-31 30 -32 77 q1 47 32 78 q30 31 77 32 q47 -1 78 -32 q32 -31 33 -78 q-1 -47 -33 -77 q-31 -31 -78 -32 l0 0 Z" /><glyph glyph-name="" unicode="&#x394;" d="M294 600 l-17 0 l-241 -600 l499 0 l-241 600 ZM60 16 l226 563 l225 -563 l-451 0 Z" /><glyph glyph-name="" unicode="&#x3a9;" d="M70 0 l212 0 l0 10 q-68 34 -122 111 q-54 77 -57 185 q2 113 76 194 q74 81 203 85 q132 -6 202 -93 q69 -87 70 -184 q-3 -113 -57 -189 q-54 -77 -123 -109 l0 -10 l213 0 l0 14 l-164 0 l0 8 q57 34 102 108 q45 74 48 178 q-2 119 -81 203 q-80 84 -211 88 q-129 -3 -211 -84 q-83 -82 -86 -209 q2 -99 45 -170 q42 -72 104 -114 l0 -8 l-163 0 l0 -14 Z" /><glyph glyph-name="" unicode="&#x3bc;" d="M380 400 l0 -253 q-1 -59 -41 -98 q-39 -40 -98 -41 q-59 1 -98 41 q-40 39 -41 98 l0 253 l-16 0 l0 -600 l16 0 l0 278 q19 -39 56 -62 q37 -23 83 -24 q46 1 83 24 q37 24 56 63 l0 -79 l16 0 l0 400 l-16 0 Z" /><glyph glyph-name="" unicode="&#x3c0;" d="M86 0 l17 0 q30 65 53 192 q23 126 28 223 l236 -1 l0 -296 q0 -47 3 -76 q3 -29 10 -42 l18 0 q-8 18 -12 47 q-3 28 -3 79 l0 288 l94 0 l1 13 l-380 0 q-46 0 -73 -5 q-27 -4 -45 -12 l3 -9 q15 6 45 10 q29 3 85 3 q-6 -113 -28 -230 q-23 -117 -52 -184 l0 0 Z" /><glyph glyph-name="" unicode="0" d="M286 -8 q100 3 154 90 q53 87 54 218 q-1 131 -54 218 q-54 87 -154 90 q-100 -3 -153 -90 q-54 -87 -55 -218 q1 -131 55 -218 q53 -87 153 -90 l0 0 ZM286 8 q-92 3 -142 85 q-49 82 -50 207 q1 125 50 207 q50 82 142 85 q92 -3 142 -85 q49 -82 50 -207 q-1 -125 -50 -207 q-50 -82 -142 -85 l0 0 Z" /><glyph glyph-name="" unicode="1" d="M161 0 l16 0 l0 600 l-115 0 l0 -16 l99 0 l0 -584 Z" /><glyph glyph-name="" unicode="2" d="M95 16 l238 233 q67 67 92 111 q24 43 20 89 q-7 77 -53 117 q-47 40 -116 42 q-76 0 -124 -44 q-48 -44 -54 -121 l16 -1 q6 71 50 111 q44 40 112 39 q68 -2 110 -42 q43 -41 44 -111 q1 -38 -22 -77 q-24 -39 -88 -104 l-264 -258 l417 0 l0 16 l-378 0 Z" /><glyph glyph-name="" unicode="3" d="M244 341 l-69 0 l216 259 l-321 0 l0 -16 l288 0 l-2 -1 l-214 -258 l102 0 q67 -2 112 -46 q44 -45 46 -113 q-2 -67 -46 -112 q-45 -44 -112 -46 q-67 2 -112 46 q-44 45 -46 112 l-16 0 q2 -74 51 -123 q49 -49 123 -51 q74 2 123 51 q49 49 51 123 q-2 74 -51 124 q-49 49 -123 51 l0 0 Z" /><glyph glyph-name="" unicode="4" d="M424 142 l-74 0 l0 458 l-16 0 l-294 -474 l294 0 l0 -126 l16 0 l0 126 l74 0 l0 16 ZM70 142 l264 430 l0 -430 l-264 0 Z" /><glyph glyph-name="" unicode="5" d="M242 390 q-38 0 -71 -13 q-33 -13 -60 -35 l36 240 l262 0 l0 16 l-276 0 l-39 -266 l19 -10 q26 25 59 38 q34 14 70 14 q78 -2 129 -53 q52 -52 54 -131 q-1 -77 -53 -128 q-52 -52 -136 -54 q-45 -1 -89 19 q-44 19 -80 66 l-3 0 l0 -19 q30 -41 76 -62 q46 -20 96 -20 q90 2 147 59 q56 56 58 139 q-2 85 -58 142 q-56 56 -141 58 l0 0 Z" /><glyph glyph-name="" unicode="6" d="M468 210 q-10 84 -70 135 q-61 51 -145 46 q-21 -1 -37 -5 q-17 -3 -31 -9 l192 223 l-24 0 l-227 -269 q-30 -31 -44 -71 q-15 -40 -11 -83 q9 -82 69 -135 q60 -52 146 -48 q84 10 135 71 q52 60 47 145 l0 0 ZM285 10 q-78 -4 -134 43 q-56 47 -64 125 q-5 77 43 133 q47 56 124 64 q77 5 133 -42 q56 -47 65 -125 q4 -78 -43 -133 q-47 -56 -124 -65 l0 0 Z" /><glyph glyph-name="" unicode="7" d="M56 600 l0 -16 l362 0 l-344 -584 l23 0 l347 598 l0 2 l-388 0 Z" /><glyph glyph-name="" unicode="8" d="M282 334 q41 16 66 51 q25 35 26 81 q-1 61 -41 101 q-40 40 -100 41 q-61 -1 -101 -41 q-40 -40 -41 -101 q1 -46 26 -81 q25 -35 66 -51 q-55 -18 -89 -63 q-35 -45 -36 -105 q2 -74 52 -123 q49 -49 123 -51 q74 2 123 51 q49 49 51 123 q-1 60 -35 105 q-35 45 -90 63 l0 0 ZM107 466 q1 54 37 89 q35 36 89 37 q53 -1 88 -37 q36 -35 37 -89 q-1 -53 -37 -88 q-35 -36 -88 -37 q-54 1 -89 37 q-36 35 -37 88 l0 0 ZM233 8 q-67 2 -112 46 q-45 45 -47 112 q2 68 47 113 q45 44 112 46 q67 -2 112 -46 q44 -45 46 -113 q-2 -67 -46 -112 q-45 -44 -112 -46 l0 0 Z" /><glyph glyph-name="" unicode="9" d="M468 423 q-9 82 -69 135 q-60 52 -146 48 q-84 -10 -136 -70 q-51 -61 -46 -146 q9 -84 70 -135 q61 -51 145 -46 q20 1 37 5 q17 3 31 9 l-192 -223 l24 0 l227 269 q30 31 44 71 q15 40 11 83 l0 0 ZM285 225 q-78 -5 -134 42 q-56 47 -64 125 q-5 78 43 134 q47 55 124 64 q78 4 134 -43 q55 -47 64 -125 q4 -77 -43 -133 q-47 -56 -124 -64 l0 0 Z" /><glyph glyph-name="" unicode="&#x2044;" d="M-8 0 l13 0 l418 600 l-13 0 l-418 -600 Z" /><glyph glyph-name="" unicode="½" d="M61 590 l66 0 l0 -390 l11 0 l0 400 l-77 0 l0 -10 ZM576 600 l-418 -600 l13 0 l418 600 l-13 0 ZM580 11 l158 155 q45 45 61 74 q16 28 14 59 q-5 52 -36 79 q-31 26 -77 28 q-50 0 -83 -30 q-32 -29 -36 -81 l11 0 q4 47 33 74 q30 26 75 26 q45 -1 74 -28 q28 -27 29 -74 q1 -26 -15 -52 q-16 -26 -59 -69 l-176 -172 l278 0 l0 11 l-251 0 Z" /><glyph glyph-name="" unicode="¼" d="M61 590 l66 0 l0 -390 l11 0 l0 400 l-77 0 l0 -10 ZM592 598 l-418 -600 l13 0 l418 600 l-13 0 ZM778 95 l-50 0 l0 305 l-10 0 l-196 -316 l196 0 l0 -84 l10 0 l0 84 l50 0 l0 11 ZM541 95 l177 288 l0 -288 l-177 0 Z" /><glyph glyph-name="" unicode="¾" d="M302 313 q-1 49 -34 82 q-33 33 -82 34 l-47 0 l145 173 l-214 0 l0 -10 l192 0 l-2 -1 l-142 -172 l68 0 q45 -1 74 -31 q30 -30 31 -75 q-1 -45 -31 -75 q-29 -30 -74 -31 q-45 1 -75 31 q-30 30 -31 75 l-10 0 q1 -49 34 -82 q33 -33 82 -34 q49 1 82 34 q33 33 34 82 l0 0 ZM624 598 l-418 -600 l13 0 l418 600 l-13 0 ZM793 95 l-50 0 l0 305 l-10 0 l-196 -316 l196 0 l0 -84 l10 0 l0 84 l50 0 l0 11 ZM556 95 l177 288 l0 -288 l-177 0 Z" /><glyph glyph-name="" unicode="¹" d="M110 300 l16 0 l0 300 l-64 0 l0 -14 l48 0 l0 -286 Z" /><glyph glyph-name="" unicode="²" d="M67 323 l115 112 q32 33 43 53 q12 21 10 43 q-3 38 -25 57 q-23 19 -56 20 q-37 0 -60 -21 q-23 -21 -26 -58 l8 -1 q3 34 24 53 q21 19 54 19 q33 -1 53 -20 q20 -20 21 -53 q1 -19 -11 -38 q-11 -19 -42 -50 l-127 -124 l201 0 l0 8 l-182 0 Z" /><glyph glyph-name="" unicode="³" d="M148 474 l-34 0 l104 125 l-154 0 l0 -8 l138 0 l-104 -124 l50 0 q32 -1 54 -23 q21 -22 22 -54 q-1 -32 -22 -54 q-22 -21 -54 -22 q-32 1 -54 22 q-22 22 -23 54 l-7 0 q1 -35 24 -59 q24 -24 60 -25 q35 1 59 25 q23 24 24 59 q-1 35 -24 59 q-24 24 -59 25 l0 0 Z" /><glyph glyph-name="" unicode="*" d="M110 435 l32 60 l32 -60 l16 10 l-39 57 l71 -2 l0 18 l-71 -3 l39 59 l-16 8 l-32 -60 l-32 60 l-16 -8 l38 -59 l-70 3 l0 -18 l70 2 l-38 -57 l16 -10 Z" /><glyph glyph-name="" unicode="\" d="M500 -235 l18 0 l-508 971 l-18 0 l508 -971 Z" /><glyph glyph-name="" unicode="·" d="M118 264 q9 0 17 7 q7 6 7 17 q0 10 -7 17 q-8 7 -17 7 q-10 0 -17 -7 q-7 -7 -7 -17 q0 -11 7 -17 q7 -7 17 -7 l0 0 Z" /><glyph glyph-name="" unicode="&#x2022;" d="M212 158 q42 1 71 29 q30 29 31 73 q-1 42 -31 72 q-29 29 -71 30 q-42 -1 -72 -30 q-29 -30 -30 -72 q1 -44 30 -73 q30 -28 72 -29 l0 0 Z" /><glyph glyph-name="" unicode=":" d="M120 360 q10 0 17 7 q7 6 7 17 q0 10 -7 17 q-7 7 -17 7 q-10 0 -17 -7 q-7 -7 -7 -17 q0 -11 7 -17 q7 -7 17 -7 l0 0 ZM120 -8 q10 0 17 7 q7 6 7 17 q0 10 -7 17 q-7 7 -17 7 q-10 0 -17 -7 q-7 -7 -7 -17 q0 -11 7 -17 q7 -7 17 -7 l0 0 Z" /><glyph glyph-name="" unicode="," d="M26 -146 l110 249 l-18 0 l-109 -249 l17 0 Z" /><glyph glyph-name="" unicode="&#x2026;" d="M118 -8 q9 0 17 7 q7 6 7 17 q0 10 -7 17 q-8 7 -17 7 q-10 0 -17 -7 q-7 -7 -7 -17 q0 -11 7 -17 q7 -7 17 -7 l0 0 ZM318 -8 q9 0 17 7 q7 6 7 17 q0 10 -7 17 q-8 7 -17 7 q-10 0 -17 -7 q-7 -7 -7 -17 q0 -11 7 -17 q7 -7 17 -7 l0 0 ZM515 -8 q9 0 17 7 q7 6 7 17 q0 10 -7 17 q-8 7 -17 7 q-10 0 -17 -7 q-7 -7 -7 -17 q0 -11 7 -17 q7 -7 17 -7 l0 0 Z" /><glyph glyph-name="" unicode="!" d="M110 144 l16 0 l0 528 l-16 0 l0 -528 ZM118 -8 q9 0 17 7 q7 7 7 17 q0 11 -7 17 q-8 7 -17 7 q-10 0 -17 -7 q-7 -6 -7 -17 q0 -10 7 -17 q7 -7 17 -7 l0 0 Z" /><glyph glyph-name="" unicode="¡" d="M118 352 q9 0 17 7 q7 6 7 17 q0 10 -7 17 q-8 7 -17 7 q-10 0 -17 -7 q-7 -7 -7 -17 q0 -11 7 -17 q7 -7 17 -7 l0 0 ZM110 -240 l16 0 l0 496 l-16 0 l0 -496 Z" /><glyph glyph-name="" unicode="#" d="M166 0 l16 0 l21 148 l168 0 l-21 -148 l16 0 l22 148 l112 0 l2 17 l-112 0 l31 219 l113 0 l2 16 l-113 0 l21 149 l-16 0 l-21 -149 l-168 0 l21 149 l-16 0 l-22 -149 l-111 0 l-2 -16 l113 0 l-32 -219 l-113 0 l-3 -17 l113 0 l-21 -148 ZM206 165 l31 219 l168 0 l-31 -219 l-168 0 Z" /><glyph glyph-name="" unicode="." d="M118 -8 q9 0 17 7 q7 6 7 17 q0 10 -7 17 q-8 7 -17 7 q-10 0 -17 -7 q-7 -7 -7 -17 q0 -11 7 -17 q7 -7 17 -7 l0 0 Z" /><glyph glyph-name="" unicode="?" d="M239 158 l16 0 l0 151 q9 71 72 98 q63 27 72 126 q-1 66 -42 106 q-41 40 -110 41 q-60 -1 -101 -35 q-41 -34 -50 -91 l16 0 q10 50 46 80 q36 30 89 31 q62 -1 98 -37 q37 -36 38 -95 q-9 -93 -72 -118 q-63 -25 -72 -113 l0 -144 ZM250 -8 q10 0 17 7 q7 6 7 17 q0 10 -7 17 q-7 7 -17 7 q-9 0 -16 -7 q-8 -7 -8 -17 q0 -11 8 -17 q7 -7 16 -7 l0 0 Z" /><glyph glyph-name="" unicode="¿" d="M218 360 q10 0 17 7 q7 7 7 17 q0 11 -7 17 q-7 7 -17 7 q-9 0 -16 -7 q-8 -6 -8 -17 q0 -10 8 -17 q7 -7 16 -7 l0 0 ZM222 -240 q60 1 101 35 q41 34 50 91 l-16 0 q-10 -50 -46 -80 q-37 -30 -89 -31 q-62 1 -98 37 q-37 36 -38 95 q9 93 72 118 q63 25 72 113 l0 104 l-16 0 l0 -111 q-9 -71 -72 -98 q-63 -27 -72 -126 q1 -66 42 -106 q41 -40 110 -41 l0 0 Z" /><glyph glyph-name="" unicode="&quot;" d="M94 344 l16 0 l0 264 l-16 0 l0 -264 ZM195 344 l16 0 l0 264 l-16 0 l0 -264 Z" /><glyph glyph-name="" unicode="&#39;" d="M94 376 l16 0 l0 232 l-16 0 l0 -232 Z" /><glyph glyph-name="" unicode=";" d="M122 360 q9 0 17 7 q7 6 7 17 q0 10 -7 17 q-8 7 -17 7 q-10 0 -17 -7 q-7 -7 -7 -17 q0 -11 7 -17 q7 -7 17 -7 l0 0 ZM44 -146 l110 249 l-18 0 l-109 -249 l17 0 Z" /><glyph glyph-name="" unicode="/" d="M-8 -240 l18 0 l511 976 l-19 0 l-510 -976 Z" /><glyph glyph-name="" unicode="_" d="M54 -16 l480 0 l0 16 l-480 0 l0 -16 Z" /><glyph glyph-name="" unicode="{" d="M186 -226 l18 0 l0 16 q-34 0 -50 21 q-16 21 -16 59 l0 242 q2 41 -10 78 q-11 37 -55 65 q44 28 55 66 q12 37 10 77 l0 241 q0 38 15 59 q15 21 51 21 l0 17 l-18 0 q-28 -1 -46 -25 q-17 -25 -18 -64 l0 -237 q2 -45 -8 -82 q-10 -38 -52 -62 l0 -22 q41 -22 51 -58 q11 -36 9 -86 l0 -238 q1 -38 18 -63 q18 -24 46 -25 l0 0 Z" /><glyph glyph-name="" unicode="}" d="M62 -226 l18 0 q28 1 46 25 q17 25 18 63 l0 238 q-1 50 9 86 q11 36 51 58 l0 22 q-42 24 -52 62 q-10 37 -8 82 l0 237 q-1 39 -18 64 q-18 24 -46 25 l-18 0 l0 -17 q36 0 51 -21 q14 -21 14 -59 l0 -241 q-2 -40 10 -77 q11 -38 56 -66 q-45 -28 -56 -65 q-12 -37 -10 -78 l0 -242 q0 -38 -16 -59 q-16 -21 -49 -21 l0 -16 Z" /><glyph glyph-name="" unicode="[" d="M88 -200 l118 0 l0 17 l-103 0 l0 902 l103 0 l0 17 l-118 0 l0 -936 Z" /><glyph glyph-name="" unicode="]" d="M88 -200 l118 0 l0 936 l-118 0 l0 -17 l103 0 l0 -902 l-103 0 l0 -17 Z" /><glyph glyph-name="" unicode="(" d="M262 -176 l0 13 q-73 13 -120 121 q-46 108 -48 320 q2 215 48 323 q47 109 120 122 l0 13 q-80 -11 -131 -124 q-51 -112 -53 -334 q2 -221 53 -332 q51 -112 131 -122 l0 0 Z" /><glyph glyph-name="" unicode=")" d="M72 -176 q79 10 131 122 q51 111 53 332 q-2 222 -53 334 q-52 113 -131 124 l0 -13 q72 -13 119 -122 q47 -108 49 -323 q-2 -212 -49 -320 q-47 -108 -119 -121 l0 -13 Z" /><glyph glyph-name="" unicode="&#x2014;" d="M0 200 l800 0 l0 16 l-800 0 l0 -16 Z" /><glyph glyph-name="" unicode="&#x2013;" d="M94 200 l400 0 l0 16 l-400 0 l0 -16 Z" /><glyph glyph-name="" unicode="-" d="M94 200 l280 0 l0 16 l-280 0 l0 -16 Z" /><glyph glyph-name="" unicode="­" d="M94 200 l280 0 l0 16 l-280 0 l0 -16 Z" /><glyph glyph-name="" unicode="«" d="M232 76 l21 0 l-122 147 l122 147 l-21 0 l-122 -147 l122 -147 ZM344 76 l21 0 l-122 147 l122 147 l-21 0 l-122 -147 l122 -147 Z" /><glyph glyph-name="" unicode="»" d="M110 76 l20 0 l122 147 l-122 147 l-20 0 l121 -147 l-121 -147 ZM222 76 l20 0 l122 147 l-122 147 l-20 0 l121 -147 l-121 -147 Z" /><glyph glyph-name="" unicode="&#x2039;" d="M184 76 l21 0 l-122 147 l122 147 l-21 0 l-122 -147 l122 -147 Z" /><glyph glyph-name="" unicode="&#x203a;" d="M78 76 l20 0 l122 147 l-122 147 l-20 0 l121 -147 l-121 -147 Z" /><glyph glyph-name="" unicode="&#x201e;" d="M49 -156 l75 242 l-18 0 l-74 -242 l17 0 ZM167 -156 l75 242 l-18 0 l-74 -242 l17 0 Z" /><glyph glyph-name="" unicode="&#x201c;" d="M165 608 l-75 -242 l18 0 l74 242 l-17 0 ZM245 608 l-75 -242 l18 0 l74 242 l-17 0 Z" /><glyph glyph-name="" unicode="&#x201d;" d="M46 366 l75 242 l-18 0 l-74 -242 l17 0 ZM126 366 l75 242 l-18 0 l-74 -242 l17 0 Z" /><glyph glyph-name="" unicode="&#x2018;" d="M154 608 l-75 -242 l18 0 l74 242 l-17 0 Z" /><glyph glyph-name="" unicode="&#x2019;" d="M57 366 l75 242 l-18 0 l-74 -242 l17 0 Z" /><glyph glyph-name="" unicode="&#x201a;" d="M54 -156 l75 242 l-18 0 l-74 -242 l17 0 Z" /><glyph glyph-name="" unicode=" " d="" /><glyph glyph-name="" unicode="¢" d="M274 472 q38 0 71 -13 q33 -14 59 -37 l0 20 q-26 20 -56 32 q-31 12 -66 14 l0 74 l-16 0 l0 -74 q-85 -5 -141 -64 q-57 -59 -59 -144 q2 -85 59 -144 q56 -59 141 -64 l0 -72 l16 0 l0 72 q35 2 66 14 q31 12 56 32 l0 20 q-26 -24 -59 -37 q-33 -13 -71 -13 q-82 2 -136 56 q-54 54 -56 136 q2 82 56 136 q54 54 136 56 l0 0 Z" /><glyph glyph-name="" unicode="¤" d="M93 134 l38 40 q47 -41 106 -41 q59 0 106 41 l39 -40 l11 12 l-39 39 q41 47 41 106 q0 58 -41 105 l39 38 l-11 12 l-39 -39 q-47 41 -105 41 q-59 -1 -106 -42 l-38 40 l-12 -12 l39 -39 q-41 -46 -41 -105 q-1 -59 40 -105 l-38 -39 l11 -12 ZM137 190 q-41 43 -41 100 q0 56 42 100 q43 41 100 42 q56 0 100 -42 q41 -43 41 -100 q0 -56 -41 -100 q-44 -42 -100 -42 q-57 0 -101 42 l0 0 Z" /><glyph glyph-name="" unicode="$" d="M409 142 q-20 129 -157 167 q-138 39 -158 157 q2 64 45 95 q43 31 96 31 q45 -1 78 -19 q33 -18 51 -43 l13 10 q-20 27 -55 46 q-35 20 -81 22 l0 70 l-16 0 l0 -70 q-56 -3 -100 -37 q-44 -34 -47 -105 q20 -130 158 -168 q137 -38 157 -156 q-2 -65 -49 -100 q-47 -34 -113 -34 q-64 1 -108 30 q-44 30 -60 72 l-15 -5 q19 -48 65 -79 q47 -31 112 -34 l0 -66 l16 0 l0 66 q65 3 115 39 q50 36 53 111 l0 0 Z" /><glyph glyph-name="" unicode="&#x20ac;" d="M386 8 q-104 2 -180 62 q-76 60 -103 156 l377 0 l6 16 l-386 0 q-6 28 -6 58 q0 14 1 27 q2 14 4 27 l424 0 l6 16 l-427 0 q25 98 102 159 q77 61 182 63 q54 0 104 -19 q49 -19 89 -55 l6 16 q-42 36 -93 55 q-51 19 -106 19 q-112 -2 -193 -68 q-82 -66 -107 -170 l-69 0 l0 -16 l66 0 q-5 -27 -5 -54 q0 -30 5 -58 l-66 0 l0 -16 l70 0 q27 -103 108 -167 q80 -65 191 -67 q57 0 109 20 q53 20 95 58 l0 21 q-42 -40 -94 -61 q-53 -22 -110 -22 l0 0 Z" /><glyph glyph-name="" unicode="&#x192;" d="M275 592 q11 0 22 -4 q11 -4 19 -11 l2 18 q-7 5 -19 9 q-12 4 -23 4 q-37 -1 -65 -25 q-29 -24 -35 -61 l-19 -122 l-67 0 l-3 -16 l67 0 l-92 -584 l16 0 l92 584 l117 0 l3 16 l-117 0 l19 120 q5 31 29 51 q23 20 54 21 l0 0 Z" /><glyph glyph-name="" unicode="£" d="M130 16 l0 274 l149 0 l0 16 l-149 0 l0 137 q1 67 40 107 q39 40 104 41 q42 -1 77 -23 q36 -23 53 -62 l14 6 q-19 43 -58 69 q-39 25 -86 26 q-72 -1 -116 -46 q-43 -44 -44 -118 l0 -137 l-64 0 l0 -16 l64 0 l0 -290 l320 0 l0 16 l-304 0 Z" /><glyph glyph-name="" unicode="¥" d="M278 287 l2 0 l207 313 l-19 0 l-197 -299 l-198 299 l-19 0 l207 -313 l1 0 l0 -27 l-182 0 l0 -16 l182 0 l0 -96 l-182 0 l0 -16 l182 0 l0 -132 l16 0 l0 132 l186 0 l0 16 l-186 0 l0 96 l186 0 l0 16 l-186 0 l0 27 Z" /><glyph glyph-name="" unicode="&#x2248;" d="M343 258 q44 1 72 32 q28 32 30 82 l-16 0 q-2 -44 -26 -70 q-24 -27 -61 -28 q-26 1 -45 15 q-18 14 -35 35 q-20 25 -42 42 q-22 17 -54 18 q-42 -1 -71 -31 q-28 -31 -30 -83 l16 0 q1 43 25 70 q23 27 60 28 q27 -1 46 -15 q19 -15 36 -36 q19 -24 41 -41 q22 -17 54 -18 l0 0 ZM343 114 q44 1 72 32 q28 32 30 82 l-16 0 q-2 -44 -26 -70 q-24 -27 -61 -28 q-26 1 -45 15 q-18 14 -35 35 q-20 25 -42 42 q-22 17 -54 18 q-42 -1 -71 -31 q-28 -31 -30 -83 l16 0 q1 43 25 70 q23 27 60 28 q27 -1 46 -15 q19 -15 36 -36 q19 -24 41 -41 q22 -17 54 -18 l0 0 Z" /><glyph glyph-name="" unicode="~" d="M334 154 q43 1 71 32 q28 32 30 82 l-16 0 q-1 -44 -25 -70 q-24 -27 -61 -28 q-27 1 -45 15 q-19 14 -36 35 q-18 23 -40 41 q-23 18 -55 19 q-42 -1 -71 -31 q-28 -31 -31 -83 l16 0 q2 43 26 70 q23 27 60 28 q27 -1 45 -15 q19 -15 36 -36 q18 -23 40 -40 q23 -18 56 -19 l0 0 Z" /><glyph glyph-name="" unicode="÷" d="M310 332 q9 0 17 7 q7 6 7 17 q0 10 -7 17 q-8 7 -17 7 q-10 0 -17 -7 q-7 -7 -7 -17 q0 -11 7 -17 q7 -7 17 -7 l0 0 ZM70 212 l480 0 l0 16 l-480 0 l0 -16 ZM310 60 q9 0 17 7 q7 6 7 17 q0 10 -7 17 q-8 7 -17 7 q-10 0 -17 -7 q-7 -7 -7 -17 q0 -11 7 -17 q7 -7 17 -7 l0 0 Z" /><glyph glyph-name="" unicode="&#x2205;" d="M524 396 l34 34 l-12 12 l-34 -34 q-32 30 -74 47 q-41 17 -89 17 q-102 -3 -169 -70 q-67 -67 -70 -169 q0 -48 18 -89 q17 -42 47 -74 l-35 -35 l11 -11 l35 35 q32 -30 74 -47 q41 -18 89 -18 q102 3 169 70 q67 67 70 169 q0 48 -17 89 q-17 42 -47 74 l0 0 ZM126 233 q2 95 65 158 q63 63 158 65 q44 0 83 -16 q39 -15 69 -43 l-315 -316 q-28 30 -44 69 q-16 38 -16 83 l0 0 ZM349 10 q-45 0 -83 16 q-39 16 -69 44 l316 315 q28 -30 43 -69 q16 -39 16 -83 q-2 -95 -65 -158 q-63 -63 -158 -65 l0 0 Z" /><glyph glyph-name="" unicode="=" d="M70 276 l480 0 l0 16 l-480 0 l0 -16 ZM70 132 l480 0 l0 16 l-480 0 l0 -16 Z" /><glyph glyph-name="" unicode="&gt;" d="M94 483 l0 -17 l423 -213 l-423 -215 l0 -17 l441 223 l0 18 l-441 221 Z" /><glyph glyph-name="" unicode="&#x2265;" d="M118 515 l0 -17 l423 -213 l-423 -215 l0 -17 l441 223 l0 18 l-441 221 ZM118 0 l441 0 l0 16 l-441 0 l0 -16 Z" /><glyph glyph-name="" unicode="&#x221e;" d="M166 131 q33 0 71 23 q37 23 75 66 q36 -43 74 -66 q38 -23 72 -23 q40 1 67 30 q27 28 29 72 q-2 44 -29 72 q-27 28 -67 29 q-34 0 -72 -23 q-38 -23 -74 -65 q-38 42 -75 65 q-38 23 -71 23 q-40 -1 -67 -29 q-27 -28 -29 -72 q2 -44 29 -72 q27 -29 67 -30 l0 0 ZM166 147 q-33 1 -55 25 q-23 25 -25 61 q2 36 25 60 q22 24 55 25 q30 0 65 -22 q35 -22 71 -63 q-36 -41 -71 -64 q-35 -22 -65 -22 l0 0 ZM458 147 q-30 0 -65 22 q-35 23 -71 64 q36 41 71 63 q35 22 65 22 q33 -1 55 -25 q23 -24 25 -60 q-2 -36 -25 -61 q-22 -24 -55 -25 l0 0 Z" /><glyph glyph-name="" unicode="&#x222b;" d="M92 -151 q20 0 39 14 q18 13 23 41 l100 634 q4 19 16 29 q13 10 28 10 q15 0 24 -10 q9 -10 7 -29 l16 0 q3 27 -10 41 q-14 14 -34 14 q-21 0 -39 -14 q-19 -14 -24 -41 l-100 -634 q-4 -19 -16 -29 q-12 -10 -27 -10 q-15 0 -25 10 q-9 10 -7 29 l-16 0 q-3 -28 11 -41 q13 -14 34 -14 l0 0 Z" /><glyph glyph-name="" unicode="&lt;" d="M535 483 l-441 -221 l0 -18 l441 -223 l0 17 l-423 215 l423 213 l0 17 Z" /><glyph glyph-name="" unicode="&#x2264;" d="M559 515 l-441 -221 l0 -18 l441 -223 l0 17 l-423 215 l423 213 l0 17 ZM118 0 l441 0 l0 16 l-441 0 l0 -16 Z" /><glyph glyph-name="" unicode="¬" d="M528 109 l16 0 l0 221 l-450 0 l0 -16 l434 0 l0 -205 Z" /><glyph glyph-name="" unicode="µ" d="M380 400 l0 -253 q-1 -59 -41 -98 q-39 -40 -98 -41 q-59 1 -98 41 q-40 39 -41 98 l0 253 l-16 0 l0 -600 l16 0 l0 278 q19 -39 56 -62 q37 -23 83 -24 q46 1 83 24 q37 24 56 63 l0 -79 l16 0 l0 400 l-16 0 Z" /><glyph glyph-name="" unicode="&#x2212;" d="M70 212 l480 0 l0 16 l-480 0 l0 -16 Z" /><glyph glyph-name="" unicode="×" d="M494 418 l-12 11 l-169 -170 l-170 170 l-11 -11 l170 -170 l-170 -170 l11 -11 l170 170 l169 -170 l12 11 l-170 170 l170 170 Z" /><glyph glyph-name="" unicode="&#x2260;" d="M550 276 l0 16 l-151 0 l92 108 l-21 0 l-93 -108 l-307 0 l0 -16 l294 0 l-110 -128 l-184 0 l0 -16 l170 0 l-113 -132 l22 0 l113 132 l288 0 l0 16 l-274 0 l109 128 l165 0 Z" /><glyph glyph-name="" unicode="&#x2202;" d="M160 560 l0 -16 q68 0 117 -55 q48 -56 65 -148 q-79 46 -151 18 q-71 -29 -109 -123 q-33 -96 -1 -160 q31 -64 115 -66 q72 3 119 73 q48 71 50 179 q-1 130 -58 214 q-57 83 -147 84 l0 0 ZM349 262 q-2 -101 -45 -167 q-43 -67 -108 -69 q-75 2 -102 59 q-28 57 3 145 q35 90 105 115 q69 25 144 -25 q3 -27 3 -58 l0 0 Z" /><glyph glyph-name="" unicode="%" d="M164 392 q39 1 64 32 q26 31 27 76 q-1 45 -27 76 q-25 31 -64 32 q-38 -1 -64 -32 q-26 -31 -27 -76 q1 -45 27 -76 q26 -31 64 -32 l0 0 ZM65 0 l18 0 l419 600 l-19 0 l-418 -600 ZM164 408 q-32 1 -53 27 q-21 26 -22 65 q1 39 22 65 q21 26 53 27 q32 -1 53 -27 q21 -26 22 -65 q-1 -39 -22 -65 q-21 -26 -53 -27 l0 0 ZM403 -8 q39 1 65 32 q25 31 26 76 q-1 45 -26 76 q-26 31 -65 32 q-38 -1 -64 -32 q-26 -31 -27 -76 q1 -45 27 -76 q26 -31 64 -32 l0 0 ZM403 8 q-32 1 -53 27 q-21 26 -22 65 q1 39 22 65 q21 26 53 27 q32 -1 53 -27 q21 -26 22 -65 q-1 -39 -22 -65 q-21 -26 -53 -27 l0 0 Z" /><glyph glyph-name="" unicode="&#x2030;" d="M164 392 q39 1 64 32 q26 31 27 76 q-1 45 -27 76 q-25 31 -64 32 q-38 -1 -64 -32 q-26 -31 -27 -76 q1 -45 27 -76 q26 -31 64 -32 l0 0 ZM65 0 l18 0 l419 600 l-19 0 l-418 -600 ZM164 408 q-32 1 -53 27 q-21 26 -22 65 q1 39 22 65 q21 26 53 27 q32 -1 53 -27 q21 -26 22 -65 q-1 -39 -22 -65 q-21 -26 -53 -27 l0 0 ZM403 -8 q39 1 65 32 q25 31 26 76 q-1 45 -26 76 q-26 31 -65 32 q-38 -1 -64 -32 q-26 -31 -27 -76 q1 -45 27 -76 q26 -31 64 -32 l0 0 ZM625 -8 q38 1 64 32 q25 31 26 76 q-1 45 -26 76 q-26 31 -64 32 q-39 -1 -65 -32 q-25 -31 -26 -76 q1 -45 26 -76 q26 -31 65 -32 l0 0 ZM403 8 q-32 1 -53 27 q-21 26 -22 65 q1 39 22 65 q21 26 53 27 q32 -1 53 -27 q21 -26 22 -65 q-1 -39 -22 -65 q-21 -26 -53 -27 l0 0 ZM625 8 q-32 1 -53 27 q-21 26 -22 65 q1 39 22 65 q21 26 53 27 q32 -1 52 -27 q21 -26 22 -65 q-1 -39 -22 -65 q-20 -26 -52 -27 l0 0 Z" /><glyph glyph-name="" unicode="+" d="M334 0 l16 0 l0 240 l240 0 l0 16 l-240 0 l0 240 l-16 0 l0 -240 l-240 0 l0 -16 l240 0 l0 -240 Z" /><glyph glyph-name="" unicode="±" d="M342 320 l0 144 l-16 0 l0 -144 l-264 0 l0 -16 l264 0 l0 -144 l16 0 l0 144 l264 0 l0 16 l-264 0 ZM62 0 l544 0 l0 16 l-544 0 l0 -16 Z" /><glyph glyph-name="" unicode="&#x220f;" d="M62 562 l0 -16 l48 0 l0 -642 l16 0 l0 642 l355 0 l0 -642 l16 0 l0 642 l48 0 l0 16 l-483 0 Z" /><glyph glyph-name="" unicode="&#x221a;" d="M223 -62 l4 0 l316 660 l-14 6 l-301 -628 l-90 275 l-60 0 l0 -16 l48 0 l97 -297 Z" /><glyph glyph-name="" unicode="&#x2211;" d="M94 -95 l444 0 l0 16 l-411 0 l306 313 l-306 312 l411 0 l0 16 l-444 0 l0 -4 l316 -324 l-316 -325 l0 -4 Z" /><glyph glyph-name="" unicode="&#x25ca;" d="M335 42 l241 241 l-241 241 l-241 -242 l241 -240 ZM335 64 l-219 218 l219 220 l219 -219 l-219 -219 Z" /><glyph glyph-name="" unicode="&#xf8ff;" d="M398 0 q129 3 215 89 q86 86 89 215 q-3 129 -89 215 q-86 86 -215 89 q-129 -3 -215 -89 q-86 -86 -89 -215 q3 -129 89 -215 q86 -86 215 -89 l0 0 ZM398 29 q-117 3 -195 81 q-78 78 -81 194 q3 117 81 195 q78 77 195 80 q117 -3 195 -80 q77 -78 80 -195 q-3 -116 -80 -194 q-78 -78 -195 -81 l0 0 ZM557 174 q3 0 6 1 q2 1 4 3 q5 5 5 10 q0 6 -5 10 l-105 106 l105 106 q5 4 5 10 q0 6 -5 10 q-4 5 -10 5 q-5 0 -10 -5 l-116 -116 q-4 -4 -4 -10 q0 -5 4 -10 l116 -116 q2 -2 5 -3 q3 -1 5 -1 l0 0 ZM238 174 q6 0 11 4 q4 4 4 10 l0 232 q0 6 -4 10 q-5 4 -11 4 q-6 0 -10 -4 q-4 -4 -4 -10 l0 -232 q0 -6 4 -10 q4 -4 10 -4 l0 0 ZM398 174 q6 0 10 4 q4 4 4 10 l0 232 q0 6 -4 10 q-4 4 -10 4 q-6 0 -10 -4 q-5 -4 -5 -10 l0 -232 q0 -6 5 -10 q4 -4 10 -4 l0 0 ZM282 290 l72 0 q6 0 11 4 q4 4 4 10 q0 6 -4 10 q-5 4 -11 4 l-72 0 q-6 0 -10 -4 q-5 -4 -5 -10 q0 -6 5 -10 q4 -4 10 -4 l0 0 Z" /><glyph glyph-name="" unicode="|" d="M113 -120 l16 0 l0 720 l-16 0 l0 -720 Z" /><glyph glyph-name="" unicode="¦" d="M113 312 l16 0 l0 288 l-16 0 l0 -288 ZM113 -120 l16 0 l0 288 l-16 0 l0 -288 Z" /><glyph glyph-name="" unicode="@" d="M414 119 l0 174 q-1 63 -42 104 q-40 41 -102 42 q-86 -2 -142 -64 q-56 -61 -58 -155 q2 -94 66 -156 q64 -62 162 -64 l116 0 l0 17 l-116 0 q-91 2 -150 59 q-60 57 -62 144 q2 87 53 143 q52 57 131 59 q55 -1 91 -37 q36 -37 37 -92 l0 -39 q-10 25 -35 41 q-24 15 -51 16 q-45 -1 -75 -29 q-30 -28 -31 -71 q1 -44 31 -72 q30 -28 75 -29 q23 1 48 15 q24 15 38 37 l0 -43 l16 0 ZM311 128 q-38 1 -61 24 q-24 23 -25 59 q1 36 25 59 q23 23 61 24 q38 -1 62 -24 q24 -23 25 -59 q-1 -36 -25 -59 q-24 -23 -62 -24 l0 0 Z" /><glyph glyph-name="" unicode="&amp;" d="M481 316 l-62 0 l0 118 l-16 0 l0 -118 l-154 0 q-60 1 -99 40 q-39 39 -40 98 q2 59 40 94 q39 35 94 36 l126 0 l0 16 l-127 0 q-61 -1 -104 -40 q-43 -40 -45 -106 q1 -52 29 -90 q27 -39 73 -55 q-48 -16 -78 -56 q-29 -41 -30 -95 q2 -70 51 -113 q48 -44 122 -45 q72 1 115 44 q42 43 43 113 l0 143 l62 0 l0 16 ZM403 157 q-1 -63 -39 -101 q-39 -39 -104 -40 q-66 1 -110 40 q-44 39 -46 102 q2 61 41 101 q39 40 97 41 l161 0 l0 -143 Z" /><glyph glyph-name="" unicode="¶" d="M280 -120 l16 0 l0 720 l-52 0 q-67 0 -104 -34 q-37 -34 -38 -100 q1 -65 38 -100 q37 -34 104 -34 l36 0 l0 -452 ZM370 -120 l16 0 l0 720 l-16 0 l0 -720 Z" /><glyph glyph-name="" unicode="©" d="M374 -8 q131 3 218 90 q87 87 90 218 q-3 131 -90 218 q-87 87 -218 90 q-130 -3 -217 -90 q-88 -87 -91 -218 q3 -131 91 -218 q87 -87 217 -90 l0 0 ZM374 8 q-124 3 -206 85 q-83 82 -86 207 q3 125 86 207 q82 82 206 85 q125 -3 207 -85 q82 -82 85 -207 q-3 -125 -85 -207 q-82 -82 -207 -85 l0 0 ZM383 100 q63 1 113 36 q49 34 72 90 l-15 0 q-23 -50 -68 -80 q-45 -29 -102 -30 q-77 2 -129 52 q-52 51 -53 130 q1 80 53 131 q52 50 129 52 q57 -1 102 -31 q45 -29 68 -79 l15 0 q-23 56 -72 90 q-50 34 -113 35 q-83 -2 -139 -58 q-57 -56 -59 -140 q2 -83 59 -139 q56 -57 139 -59 l0 0 Z" /><glyph glyph-name="" unicode="®" d="M374 608 q-130 -3 -217 -90 q-88 -87 -91 -218 q3 -131 91 -218 q87 -87 217 -90 q131 3 218 90 q87 87 90 218 q-3 131 -90 218 q-87 87 -218 90 l0 0 ZM374 8 q-124 3 -206 85 q-83 82 -86 207 q3 125 86 207 q82 82 206 85 q125 -3 207 -85 q82 -82 85 -207 q-3 -125 -85 -207 q-82 -82 -207 -85 l0 0 ZM481 373 q-1 36 -25 60 q-25 24 -61 25 l-99 0 l0 -316 l16 0 l0 146 l77 0 l81 -146 l17 0 l-81 147 q32 5 53 28 q21 23 22 56 l0 0 ZM312 442 l83 0 q30 -1 50 -20 q19 -20 20 -49 q-1 -29 -20 -49 q-20 -19 -50 -20 l-83 0 l0 138 Z" /><glyph glyph-name="" unicode="§" d="M401 185 q34 29 34 69 q-20 100 -157 128 q-137 28 -157 117 q2 48 44 72 q41 23 96 23 q42 0 76 -13 q33 -13 53 -34 l13 9 q-22 23 -59 37 q-37 15 -84 15 q-61 0 -107 -27 q-46 -28 -48 -82 q0 -22 9 -39 q9 -17 25 -30 q-17 -13 -26 -30 q-8 -17 -8 -39 q20 -101 157 -129 q137 -28 157 -117 q-2 -50 -50 -75 q-47 -25 -111 -25 q-66 1 -109 23 q-44 23 -59 55 l-16 -6 q19 -36 67 -60 q47 -25 117 -26 q71 0 123 29 q51 29 54 86 q0 22 -9 39 q-9 17 -25 30 l0 0 ZM121 361 q0 19 8 33 q8 15 22 27 q74 -40 167 -68 q92 -27 101 -98 q0 -19 -8 -34 q-7 -15 -21 -28 q-74 40 -167 68 q-93 28 -102 100 l0 0 Z" /><glyph glyph-name="" unicode="&#x2122;" d="M54 585 l82 0 l0 -268 l15 0 l0 268 l83 0 l0 15 l-180 0 l0 -15 ZM534 600 l-115 -172 l-116 172 l-17 0 l0 -283 l16 0 l0 256 l116 -173 l117 173 l0 -256 l15 0 l0 283 l-16 0 Z" /><glyph glyph-name="" unicode="°" d="M217 394 q45 1 75 31 q31 31 32 76 q-1 45 -32 75 q-30 31 -75 32 q-45 -1 -76 -32 q-30 -30 -31 -75 q1 -45 31 -76 q31 -30 76 -31 l0 0 ZM217 410 q-39 1 -65 26 q-25 26 -26 65 q1 39 26 64 q26 26 65 27 q39 -1 64 -27 q26 -25 27 -64 q-1 -39 -27 -65 q-25 -25 -64 -26 l0 0 Z" /><glyph glyph-name="" unicode="&#x212e;" d="M394 -7 q84 1 154 33 q70 31 117 86 l-49 0 q-41 -47 -97 -74 q-57 -27 -124 -28 q-61 1 -115 25 q-54 24 -94 66 q-3 4 -5 9 q-3 5 -3 10 l0 168 q0 3 5 3 l554 0 l0 8 q-4 132 -100 219 q-97 87 -243 90 q-145 -3 -241 -90 q-96 -87 -100 -219 q4 -130 100 -216 q96 -87 241 -90 l0 0 ZM183 308 q-2 0 -4 2 q-1 2 -1 4 l0 164 q0 6 3 12 q2 5 5 9 q42 42 95 66 q53 24 114 25 q62 -1 115 -24 q53 -24 93 -64 q4 -4 6 -9 q2 -6 2 -11 l0 -168 q0 -2 -1 -4 q0 -2 -2 -2 l-425 0 Z" /><glyph glyph-name="" unicode="&#x2113;" d="M282 -3 q56 0 98 29 q41 28 70 80 l-19 12 q-17 -36 -55 -67 q-37 -31 -91 -33 q-49 -1 -88 36 q-39 37 -41 120 l0 19 q96 83 154 166 q58 82 60 167 q0 53 -26 92 q-26 38 -82 40 q-43 3 -85 -38 q-43 -40 -46 -156 l0 -256 q-17 -15 -36 -30 q-19 -14 -39 -30 l13 -22 q16 12 32 26 q16 13 30 23 l0 -11 q0 -63 36 -113 q36 -51 115 -54 l0 0 ZM156 224 l0 244 q2 93 34 131 q32 37 67 36 q49 -1 69 -34 q21 -32 20 -82 q-2 -77 -56 -149 q-55 -73 -134 -146 l0 0 Z" /><glyph glyph-name="" unicode="^" d="M508 158 l-222 442 l-18 0 l-222 -442 l17 0 l214 424 l213 -424 l18 0 Z" /><glyph glyph-name="" unicode="&#x2020;" d="M433 360 l-148 0 l0 176 l-16 0 l0 -176 l-143 0 l0 -16 l143 0 l0 -480 l16 0 l0 480 l148 0 l0 16 Z" /><glyph glyph-name="" unicode="&#x2021;" d="M433 344 l0 16 l-148 0 l0 176 l-16 0 l0 -176 l-143 0 l0 -16 l143 0 l0 -288 l-143 0 l0 -16 l143 0 l0 -176 l16 0 l0 176 l148 0 l0 16 l-148 0 l0 288 l148 0 Z" /><glyph glyph-name="" unicode="&#x308;" d="M-215 480 q10 0 17 7 q7 6 7 17 q0 10 -7 17 q-7 7 -17 7 q-10 0 -17 -7 q-7 -7 -7 -17 q0 -11 7 -17 q7 -7 17 -7 l0 0 ZM-95 480 q10 0 17 7 q7 6 7 17 q0 10 -7 17 q-7 7 -17 7 q-10 0 -17 -7 q-7 -7 -7 -17 q0 -11 7 -17 q7 -7 17 -7 l0 0 Z" /><glyph glyph-name="" unicode="&#x307;" d="M-117 480 q9 0 17 7 q7 6 7 17 q0 10 -7 17 q-8 7 -17 7 q-10 0 -17 -7 q-7 -7 -7 -17 q0 -11 7 -17 q7 -7 17 -7 l0 0 Z" /><glyph glyph-name="" unicode="&#x300;" d="M-42 455 l-80 145 l-26 0 l86 -145 l20 0 Z" /><glyph glyph-name="" unicode="&#x301;" d="M-190 455 l20 0 l86 145 l-26 0 l-80 -145 Z" /><glyph glyph-name="" unicode="&#x30b;" d="M-198 455 l20 0 l85 145 l-26 0 l-79 -145 ZM-68 455 l20 0 l85 145 l-26 0 l-79 -145 Z" /><glyph glyph-name="" unicode="&#x302;" d="M-196 455 l64 127 l62 -127 l25 0 l-78 145 l-20 0 l-77 -145 l24 0 Z" /><glyph glyph-name="" unicode="&#x30c;" d="M-143 455 l20 0 l78 145 l-25 0 l-62 -126 l-64 126 l-24 0 l77 -145 Z" /><glyph glyph-name="" unicode="&#x306;" d="M-282 460 q52 1 87 32 q34 30 35 77 l-16 0 q-1 -40 -30 -66 q-30 -26 -76 -27 q-45 1 -75 27 q-29 26 -30 66 l-16 0 q1 -47 35 -77 q34 -31 86 -32 l0 0 Z" /><glyph glyph-name="" unicode="&#x30a;" d="M-79 445 q28 1 47 20 q19 19 20 47 q-1 29 -20 48 q-19 19 -47 20 q-29 -1 -48 -20 q-19 -19 -20 -48 q1 -28 20 -47 q19 -19 48 -20 l0 0 ZM-79 460 q-23 1 -38 15 q-14 15 -15 37 q1 23 15 38 q15 15 38 15 q22 0 37 -15 q14 -15 15 -38 q-1 -22 -15 -37 q-15 -14 -37 -15 l0 0 Z" /><glyph glyph-name="" unicode="&#x303;" d="M-116 511 q31 1 50 23 q19 22 20 58 l-16 0 q0 -29 -15 -47 q-15 -17 -39 -18 q-17 0 -30 8 q-13 8 -23 25 q-25 40 -67 40 q-31 -1 -49 -23 q-19 -22 -20 -59 l16 0 q0 30 15 48 q14 18 38 18 q17 0 30 -8 q13 -8 23 -25 q25 -40 67 -40 l0 0 Z" /><glyph glyph-name="" unicode="&#x304;" d="M-269 496 l200 0 l0 16 l-200 0 l0 -16 Z" /><glyph glyph-name="" unicode="&#x312;" d="M-42 680 l-66 -152 l18 0 l66 152 l-18 0 Z" /><glyph glyph-name="" unicode="&#x323;" d="M-69 -200 q9 0 17 7 q7 6 7 17 q0 10 -7 17 q-8 7 -17 7 q-10 0 -17 -7 q-7 -7 -7 -17 q0 -11 7 -17 q7 -7 17 -7 l0 0 Z" /><glyph glyph-name="" unicode="&#x326;" d="M-122 -118 l66 152 l-18 0 l-66 -152 l18 0 Z" /><glyph glyph-name="" unicode="&#x327;" d="M-121 -208 q32 1 53 22 q21 22 22 54 q-1 40 -31 60 q-30 20 -76 11 l26 61 l-16 0 l-30 -66 l14 -13 q42 12 69 -3 q27 -15 28 -50 q0 -26 -17 -43 q-16 -16 -42 -17 q-21 0 -43 10 q-22 9 -35 24 l-12 -10 q15 -17 41 -28 q25 -12 49 -12 l0 0 Z" /><glyph glyph-name="" unicode="&#x328;" d="M-94 -208 q26 0 44 8 q19 9 36 26 l-7 12 q-16 -15 -33 -22 q-16 -8 -40 -8 q-30 0 -45 18 q-15 17 -15 45 q2 41 25 73 q23 31 49 56 l-15 5 q-28 -30 -50 -61 q-22 -32 -23 -73 q0 -36 19 -57 q18 -22 55 -22 l0 0 Z" /><glyph glyph-name="" unicode="&#x335;" d="M-357 208 l200 0 l0 16 l-200 0 l0 -16 Z" /><glyph glyph-name="" unicode="&#x336;" d="M-596 200 l550 0 l0 16 l-550 0 l0 -16 Z" /><glyph glyph-name="" unicode="&#x337;" d="M-289 130 l12 -9 l141 154 l-12 11 l-141 -156 Z" /><glyph glyph-name="" unicode="&#x338;" d="M-445 6 l13 -8 l416 596 l-13 8 l-416 -596 Z" /><glyph glyph-name="" unicode="´" d="M0 455 l20 0 l86 145 l-26 0 l-80 -145 Z" /><glyph glyph-name="" unicode="&#x2d8;" d="M242 460 q52 1 87 32 q34 30 35 77 l-16 0 q-1 -40 -30 -66 q-30 -26 -76 -27 q-45 1 -75 27 q-29 26 -30 66 l-16 0 q1 -47 35 -77 q34 -31 86 -32 l0 0 Z" /><glyph glyph-name="" unicode="&#x2c7;" d="M123 455 l20 0 l78 145 l-25 0 l-62 -126 l-64 126 l-24 0 l77 -145 Z" /><glyph glyph-name="" unicode="¸" d="M136 -208 q32 1 53 22 q21 22 22 54 q-1 40 -31 60 q-30 20 -76 11 l26 61 l-16 0 l-30 -66 l14 -13 q42 12 69 -3 q27 -15 28 -50 q0 -26 -17 -43 q-16 -16 -42 -17 q-21 0 -43 10 q-22 9 -35 24 l-12 -10 q15 -17 41 -28 q25 -12 49 -12 l0 0 Z" /><glyph glyph-name="" unicode="&#x2c6;" d="M70 455 l64 127 l62 -127 l25 0 l-78 145 l-20 0 l-77 -145 l24 0 Z" /><glyph glyph-name="" unicode="¨" d="M95 480 q10 0 17 7 q7 6 7 17 q0 10 -7 17 q-7 7 -17 7 q-10 0 -17 -7 q-7 -7 -7 -17 q0 -11 7 -17 q7 -7 17 -7 l0 0 ZM215 480 q10 0 17 7 q7 6 7 17 q0 10 -7 17 q-7 7 -17 7 q-10 0 -17 -7 q-7 -7 -7 -17 q0 -11 7 -17 q7 -7 17 -7 l0 0 Z" /><glyph glyph-name="" unicode="&#x2d9;" d="M118 480 q9 0 17 7 q7 6 7 17 q0 10 -7 17 q-8 7 -17 7 q-10 0 -17 -7 q-7 -7 -7 -17 q0 -11 7 -17 q7 -7 17 -7 l0 0 Z" /><glyph glyph-name="" unicode="`" d="M148 455 l-80 145 l-26 0 l86 -145 l20 0 Z" /><glyph glyph-name="" unicode="&#x2dd;" d="M0 455 l20 0 l86 145 l-26 0 l-80 -145 Z" /><glyph glyph-name="" unicode="¯" d="M70 496 l200 0 l0 16 l-200 0 l0 -16 Z" /><glyph glyph-name="" unicode="&#x2db;" d="M147 -208 q26 0 44 8 q19 9 36 26 l-7 12 q-16 -15 -33 -22 q-16 -8 -40 -8 q-30 0 -45 18 q-15 17 -15 45 q2 41 25 73 q23 31 49 56 l-15 5 q-28 -30 -50 -61 q-22 -32 -23 -73 q0 -36 19 -57 q18 -22 55 -22 l0 0 Z" /><glyph glyph-name="" unicode="&#x2da;" d="M80 445 q28 1 47 20 q19 19 20 47 q-1 29 -20 48 q-19 19 -47 20 q-29 -1 -48 -20 q-19 -19 -20 -48 q1 -28 20 -47 q19 -19 48 -20 l0 0 ZM80 460 q-23 1 -38 15 q-14 15 -15 37 q1 23 15 38 q15 15 38 15 q22 0 37 -15 q14 -15 15 -38 q-1 -22 -15 -37 q-15 -14 -37 -15 l0 0 Z" /><glyph glyph-name="" unicode="&#x2dc;" d="M234 511 q31 1 50 23 q19 22 20 58 l-16 0 q0 -29 -15 -47 q-15 -17 -39 -18 q-17 0 -30 8 q-13 8 -23 25 q-25 40 -67 40 q-31 -1 -49 -23 q-19 -22 -20 -59 l16 0 q0 30 15 48 q14 18 38 18 q17 0 30 -8 q13 -8 23 -25 q25 -40 67 -40 l0 0 Z" /></font>
</defs>
</svg>
