<?xml version="1.0" standalone="no"?><!DOCTYPE svg PUBLIC "-//W3C//DTD SVG 1.1//EN" "http://www.w3.org/Graphics/SVG/1.1/DTD/svg11.dtd" ><svg xmlns="http://www.w3.org/2000/svg"><metadata></metadata><defs><font id="1.002;AMMP;Now-Regular" horiz-adv-x="858"><font-face font-family="Now" font-weight="400" font-stretch="normal" units-per-em="800" panose-1="0 0 5 0 0 0 0 0 0 0" ascent="736" descent="-240" x-height="0" bbox="-602 -243 817 936" underline-thickness="50" underline-position="-75" unicode-range="U+0020-fb02" /><missing-glyph horiz-adv-x="483" d="M79 0 l325 0 l0 600 l-325 0 l0 -600 ZM127 48 l0 504 l229 0 l0 -504 l-229 0 Z" /><glyph glyph-name="" unicode="A" d="M435 0 l70 0 l-217 600 l-71 0 l-217 -600 l70 0 l49 140 l267 0 l49 -140 ZM140 201 l113 323 l112 -323 l-225 0 Z" /><glyph glyph-name="" unicode="Á" d="M388 800 l-72 0 l-88 -148 l42 0 l118 148 ZM435 0 l70 0 l-217 600 l-71 0 l-217 -600 l70 0 l49 140 l267 0 l49 -140 ZM140 201 l113 323 l112 -323 l-225 0 Z" /><glyph glyph-name="" unicode="&#x102;" d="M252 653 q58 1 95 33 q36 33 37 89 l-39 0 q-1 -35 -26 -58 q-26 -23 -67 -24 q-41 1 -66 24 q-25 23 -26 58 l-39 0 q1 -56 37 -89 q37 -32 94 -33 l0 0 ZM435 0 l70 0 l-217 600 l-71 0 l-217 -600 l70 0 l49 140 l267 0 l49 -140 ZM140 201 l113 323 l112 -323 l-225 0 Z" /><glyph glyph-name="" unicode="&#x1cd;" d="M285 652 l79 148 l-49 0 l-62 -106 l-62 106 l-48 0 l78 -148 l64 0 ZM435 0 l70 0 l-217 600 l-71 0 l-217 -600 l70 0 l49 140 l267 0 l49 -140 ZM140 201 l113 323 l112 -323 l-225 0 Z" /><glyph glyph-name="" unicode="Â" d="M253 759 l62 -107 l49 0 l-79 148 l-64 0 l-78 -148 l48 0 l62 107 ZM435 0 l70 0 l-217 600 l-71 0 l-217 -600 l70 0 l49 140 l267 0 l49 -140 ZM140 201 l113 323 l112 -323 l-225 0 Z" /><glyph glyph-name="" unicode="Ä" d="M181 675 q18 0 30 12 q12 12 13 30 q-1 19 -13 31 q-12 12 -30 12 q-18 0 -31 -12 q-12 -12 -13 -31 q1 -18 13 -30 q13 -12 31 -12 l0 0 ZM326 675 q18 0 31 12 q12 12 12 30 q0 19 -12 31 q-13 12 -31 12 q-18 0 -30 -12 q-12 -12 -13 -31 q1 -18 13 -30 q12 -12 30 -12 l0 0 ZM435 0 l70 0 l-217 600 l-71 0 l-217 -600 l70 0 l49 140 l267 0 l49 -140 ZM140 201 l113 323 l112 -323 l-225 0 Z" /><glyph glyph-name="" unicode="À" d="M278 652 l-88 148 l-72 0 l118 -148 l42 0 ZM435 0 l70 0 l-217 600 l-71 0 l-217 -600 l70 0 l49 140 l267 0 l49 -140 ZM140 201 l113 323 l112 -323 l-225 0 Z" /><glyph glyph-name="" unicode="&#x100;" d="M360 725 l-215 0 l0 -42 l215 0 l0 42 ZM435 0 l70 0 l-217 600 l-71 0 l-217 -600 l70 0 l49 140 l267 0 l49 -140 ZM140 201 l113 323 l112 -323 l-225 0 Z" /><glyph glyph-name="" unicode="&#x104;" d="M533 -136 q-14 -18 -33 -27 q-19 -10 -42 -10 q-26 0 -40 15 q-14 15 -14 39 q1 41 31 69 q29 27 70 50 l-217 600 l-71 0 l-217 -600 l70 0 l49 140 l267 0 l49 -140 l19 0 q-41 -26 -67 -56 q-26 -29 -27 -68 q1 -38 24 -60 q24 -21 65 -23 q30 -2 57 8 q26 10 49 32 l-22 31 ZM140 201 l113 323 l112 -323 l-225 0 Z" /><glyph glyph-name="" unicode="Å" d="M435 0 l70 0 l-209 579 q18 11 29 30 q11 18 11 41 q-1 35 -24 59 q-23 23 -58 24 q-35 -1 -59 -24 q-24 -24 -25 -59 q0 -22 11 -40 q11 -18 29 -30 l-210 -580 l70 0 l49 140 l267 0 l49 -140 ZM254 700 q20 -1 34 -15 q13 -14 14 -35 q-1 -21 -14 -35 q-14 -14 -34 -14 q-21 0 -35 14 q-14 14 -14 35 q0 21 14 35 q14 14 35 15 l0 0 ZM140 201 l113 323 l112 -323 l-225 0 Z" /><glyph glyph-name="" unicode="Ã" d="M200 733 q10 0 18 -5 q8 -4 15 -17 q11 -17 28 -30 q18 -13 45 -14 q41 1 63 32 q22 30 22 76 l-46 0 q0 -31 -10 -46 q-10 -16 -29 -16 q-13 0 -21 7 q-8 6 -14 15 q-12 19 -30 31 q-17 13 -43 13 q-39 -1 -61 -31 q-23 -30 -23 -77 l46 0 q0 27 10 44 q10 17 30 18 l0 0 ZM435 0 l70 0 l-217 600 l-71 0 l-217 -600 l70 0 l49 140 l267 0 l49 -140 ZM140 201 l113 323 l112 -323 l-225 0 Z" /><glyph glyph-name="" unicode="Æ" d="M649 536 l0 64 l-408 0 l-241 -600 l73 0 l56 143 l193 0 l0 -143 l327 0 l0 64 l-264 0 l0 204 l230 0 l0 64 l-230 0 l0 204 l264 0 ZM153 204 l134 341 l35 0 l0 -341 l-169 0 Z" /><glyph glyph-name="" unicode="B" d="M369 304 q40 18 64 53 q23 35 24 83 q-2 72 -48 115 q-47 44 -118 45 l-218 0 l0 -600 l239 0 q70 1 116 44 q46 43 48 114 q-1 55 -30 93 q-29 37 -77 53 l0 0 ZM393 435 q-1 -45 -32 -74 q-31 -29 -77 -30 l-148 0 l0 205 l148 0 q46 -1 77 -28 q31 -28 32 -73 l0 0 ZM304 64 l-168 0 l0 205 l168 0 q45 -1 76 -30 q31 -29 32 -74 q-1 -45 -32 -73 q-31 -27 -76 -28 l0 0 Z" /><glyph glyph-name="" unicode="C" d="M357 -8 q87 1 157 43 q70 42 111 113 l-55 31 q-32 -56 -87 -89 q-56 -33 -126 -34 q-104 3 -173 71 q-68 69 -71 173 q3 105 71 173 q69 69 173 71 q70 -1 126 -34 q55 -33 87 -89 l55 31 q-41 71 -111 113 q-70 42 -157 43 q-131 -3 -218 -90 q-87 -87 -90 -218 q3 -131 90 -218 q87 -87 218 -90 l0 0 Z" /><glyph glyph-name="" unicode="&#x106;" d="M332 652 l42 0 l118 148 l-72 0 l-88 -148 ZM357 -8 q87 1 157 43 q70 42 111 113 l-55 31 q-32 -56 -87 -89 q-56 -33 -126 -34 q-104 3 -173 71 q-68 69 -71 173 q3 105 71 173 q69 69 173 71 q70 -1 126 -34 q55 -33 87 -89 l55 31 q-41 71 -111 113 q-70 42 -157 43 q-131 -3 -218 -90 q-87 -87 -90 -218 q3 -131 90 -218 q87 -87 218 -90 l0 0 Z" /><glyph glyph-name="" unicode="&#x10c;" d="M325 652 l64 0 l79 148 l-49 0 l-62 -106 l-62 106 l-48 0 l78 -148 ZM357 -8 q87 1 157 43 q70 42 111 113 l-55 31 q-32 -56 -87 -89 q-56 -33 -126 -34 q-104 3 -173 71 q-68 69 -71 173 q3 105 71 173 q69 69 173 71 q70 -1 126 -34 q55 -33 87 -89 l55 31 q-41 71 -111 113 q-70 42 -157 43 q-131 -3 -218 -90 q-87 -87 -90 -218 q3 -131 90 -218 q87 -87 218 -90 l0 0 Z" /><glyph glyph-name="" unicode="Ç" d="M357 56 q-104 3 -173 71 q-68 69 -71 173 q3 105 71 173 q69 69 173 71 q70 -1 126 -34 q55 -33 87 -89 l55 31 q-41 71 -111 113 q-70 42 -157 43 q-131 -3 -218 -90 q-87 -87 -90 -218 q3 -124 83 -210 q80 -86 202 -97 l-31 -63 l30 -20 q34 12 56 2 q22 -10 23 -37 q0 -20 -13 -33 q-13 -13 -32 -13 q-16 0 -32 9 q-16 8 -26 20 l-34 -14 q12 -22 38 -37 q26 -14 54 -15 q36 1 59 24 q22 24 23 59 q-1 38 -29 59 q-28 20 -70 13 l22 45 q83 5 148 47 q66 41 105 109 l-55 31 q-32 -56 -87 -89 q-56 -33 -126 -34 l0 0 Z" /><glyph glyph-name="" unicode="&#x10a;" d="M357 660 q18 0 30 13 q12 12 13 30 q-1 18 -13 31 q-12 12 -30 12 q-18 0 -30 -12 q-12 -13 -13 -31 q1 -18 13 -30 q12 -13 30 -13 l0 0 ZM357 -8 q87 1 157 43 q70 42 111 113 l-55 31 q-32 -56 -87 -89 q-56 -33 -126 -34 q-104 3 -173 71 q-68 69 -71 173 q3 105 71 173 q69 69 173 71 q70 -1 126 -34 q55 -33 87 -89 l55 31 q-41 71 -111 113 q-70 42 -157 43 q-131 -3 -218 -90 q-87 -87 -90 -218 q3 -131 90 -218 q87 -87 218 -90 l0 0 Z" /><glyph glyph-name="" unicode="D" d="M73 0 l164 0 q127 3 212 88 q85 84 88 212 q-3 128 -88 212 q-85 85 -212 88 l-164 0 l0 -600 ZM136 64 l0 472 l100 0 q102 -2 168 -67 q67 -66 69 -169 q-2 -103 -69 -169 q-66 -65 -168 -67 l-100 0 Z" /><glyph glyph-name="" unicode="Ð" d="M237 600 l-164 0 l0 -269 l-62 0 l0 -60 l62 0 l0 -271 l164 0 q127 3 212 88 q85 84 88 212 q-3 128 -88 212 q-85 85 -212 88 l0 0 ZM236 64 l-100 0 l0 207 l107 0 l0 60 l-107 0 l0 205 l100 0 q102 -2 168 -67 q67 -66 69 -169 q-2 -103 -69 -169 q-66 -65 -168 -67 l0 0 Z" /><glyph glyph-name="" unicode="&#x10e;" d="M204 652 l64 0 l79 148 l-49 0 l-62 -106 l-62 106 l-48 0 l78 -148 ZM73 0 l164 0 q127 3 212 88 q85 84 88 212 q-3 128 -88 212 q-85 85 -212 88 l-164 0 l0 -600 ZM136 64 l0 472 l100 0 q102 -2 168 -67 q67 -66 69 -169 q-2 -103 -69 -169 q-66 -65 -168 -67 l-100 0 Z" /><glyph glyph-name="" unicode="&#x110;" d="M237 600 l-164 0 l0 -269 l-62 0 l0 -60 l62 0 l0 -271 l164 0 q127 3 212 88 q85 84 88 212 q-3 128 -88 212 q-85 85 -212 88 l0 0 ZM236 64 l-100 0 l0 207 l107 0 l0 60 l-107 0 l0 205 l100 0 q102 -2 168 -67 q67 -66 69 -169 q-2 -103 -69 -169 q-66 -65 -168 -67 l0 0 Z" /><glyph glyph-name="" unicode="E" d="M406 538 l0 62 l-328 0 l0 -600 l328 0 l0 62 l-264 0 l0 207 l230 0 l0 62 l-230 0 l0 207 l264 0 Z" /><glyph glyph-name="" unicode="É" d="M377 800 l-72 0 l-88 -148 l42 0 l118 148 ZM406 538 l0 62 l-328 0 l0 -600 l328 0 l0 62 l-264 0 l0 207 l230 0 l0 62 l-230 0 l0 207 l264 0 Z" /><glyph glyph-name="" unicode="&#x11a;" d="M274 652 l79 148 l-49 0 l-62 -106 l-62 106 l-48 0 l78 -148 l64 0 ZM406 538 l0 62 l-328 0 l0 -600 l328 0 l0 62 l-264 0 l0 207 l230 0 l0 62 l-230 0 l0 207 l264 0 Z" /><glyph glyph-name="" unicode="Ê" d="M242 759 l62 -107 l49 0 l-79 148 l-64 0 l-78 -148 l48 0 l62 107 ZM406 538 l0 62 l-328 0 l0 -600 l328 0 l0 62 l-264 0 l0 207 l230 0 l0 62 l-230 0 l0 207 l264 0 Z" /><glyph glyph-name="" unicode="Ë" d="M170 675 q18 0 30 12 q12 12 13 30 q-1 19 -13 31 q-12 12 -30 12 q-18 0 -31 -12 q-12 -12 -13 -31 q1 -18 13 -30 q13 -12 31 -12 l0 0 ZM315 675 q18 0 31 12 q12 12 12 30 q0 19 -12 31 q-13 12 -31 12 q-18 0 -30 -12 q-12 -12 -13 -31 q1 -18 13 -30 q12 -12 30 -12 l0 0 ZM406 538 l0 62 l-328 0 l0 -600 l328 0 l0 62 l-264 0 l0 207 l230 0 l0 62 l-230 0 l0 207 l264 0 Z" /><glyph glyph-name="" unicode="&#x116;" d="M242 660 q18 0 30 13 q12 12 13 30 q-1 18 -13 31 q-12 12 -30 12 q-18 0 -30 -12 q-12 -13 -13 -31 q1 -18 13 -30 q12 -13 30 -13 l0 0 ZM406 538 l0 62 l-328 0 l0 -600 l328 0 l0 62 l-264 0 l0 207 l230 0 l0 62 l-230 0 l0 207 l264 0 Z" /><glyph glyph-name="" unicode="È" d="M267 652 l-88 148 l-72 0 l118 -148 l42 0 ZM406 538 l0 62 l-328 0 l0 -600 l328 0 l0 62 l-264 0 l0 207 l230 0 l0 62 l-230 0 l0 207 l264 0 Z" /><glyph glyph-name="" unicode="&#x112;" d="M349 725 l-215 0 l0 -42 l215 0 l0 42 ZM406 538 l0 62 l-328 0 l0 -600 l328 0 l0 62 l-264 0 l0 207 l230 0 l0 62 l-230 0 l0 207 l264 0 Z" /><glyph glyph-name="" unicode="&#x118;" d="M434 -136 q-14 -18 -33 -27 q-19 -10 -42 -10 q-26 0 -40 15 q-14 15 -14 39 q1 41 31 69 q29 27 70 50 l0 62 l-264 0 l0 207 l230 0 l0 62 l-230 0 l0 207 l264 0 l0 62 l-328 0 l0 -600 l277 0 q-41 -26 -67 -56 q-26 -29 -27 -68 q1 -38 24 -60 q24 -21 65 -23 q30 -2 57 8 q26 10 49 32 l-22 31 Z" /><glyph glyph-name="" unicode="F" d="M406 538 l0 62 l-328 0 l0 -600 l64 0 l0 269 l230 0 l0 62 l-230 0 l0 207 l264 0 Z" /><glyph glyph-name="" unicode="G" d="M359 318 l0 -60 l241 0 q-16 -89 -82 -144 q-65 -56 -158 -58 q-104 3 -173 71 q-68 69 -71 173 q3 105 71 173 q69 69 173 71 q69 -1 125 -34 q55 -33 87 -89 l55 31 q-40 71 -110 113 q-70 42 -157 43 q-131 -3 -218 -90 q-87 -87 -90 -218 q3 -131 90 -218 q87 -87 218 -90 q131 3 218 90 q87 87 90 218 l0 18 l-309 0 Z" /><glyph glyph-name="" unicode="&#x11e;" d="M359 653 q58 1 95 33 q36 33 37 89 l-39 0 q-1 -35 -26 -58 q-26 -23 -67 -24 q-41 1 -66 24 q-25 23 -26 58 l-39 0 q1 -56 37 -89 q37 -32 94 -33 l0 0 ZM359 318 l0 -60 l241 0 q-16 -89 -82 -144 q-65 -56 -158 -58 q-104 3 -173 71 q-68 69 -71 173 q3 105 71 173 q69 69 173 71 q69 -1 125 -34 q55 -33 87 -89 l55 31 q-40 71 -110 113 q-70 42 -157 43 q-131 -3 -218 -90 q-87 -87 -90 -218 q3 -131 90 -218 q87 -87 218 -90 q131 3 218 90 q87 87 90 218 l0 18 l-309 0 Z" /><glyph glyph-name="" unicode="&#x122;" d="M359 318 l0 -60 l241 0 q-16 -89 -82 -144 q-65 -56 -158 -58 q-104 3 -173 71 q-68 69 -71 173 q3 105 71 173 q69 69 173 71 q69 -1 125 -34 q55 -33 87 -89 l55 31 q-40 71 -110 113 q-70 42 -157 43 q-131 -3 -218 -90 q-87 -87 -90 -218 q3 -131 90 -218 q87 -87 218 -90 q131 3 218 90 q87 87 90 218 l0 18 l-309 0 ZM261 -189 l44 0 l94 141 l-78 0 l-60 -141 Z" /><glyph glyph-name="" unicode="&#x120;" d="M360 660 q18 0 30 13 q12 12 13 30 q-1 18 -13 31 q-12 12 -30 12 q-18 0 -30 -12 q-12 -13 -13 -31 q1 -18 13 -30 q12 -13 30 -13 l0 0 ZM359 318 l0 -60 l241 0 q-16 -89 -82 -144 q-65 -56 -158 -58 q-104 3 -173 71 q-68 69 -71 173 q3 105 71 173 q69 69 173 71 q69 -1 125 -34 q55 -33 87 -89 l55 31 q-40 71 -110 113 q-70 42 -157 43 q-131 -3 -218 -90 q-87 -87 -90 -218 q3 -131 90 -218 q87 -87 218 -90 q131 3 218 90 q87 87 90 218 l0 18 l-309 0 Z" /><glyph glyph-name="" unicode="H" d="M468 600 l0 -268 l-331 0 l0 268 l-64 0 l0 -600 l64 0 l0 268 l331 0 l0 -268 l64 0 l0 600 l-64 0 Z" /><glyph glyph-name="" unicode="&#x126;" d="M587 490 l-55 0 l0 110 l-64 0 l0 -110 l-331 0 l0 110 l-64 0 l0 -110 l-56 0 l0 -44 l56 0 l0 -446 l64 0 l0 268 l331 0 l0 -268 l64 0 l0 446 l55 0 l0 44 ZM468 332 l-331 0 l0 114 l331 0 l0 -114 Z" /><glyph glyph-name="" unicode="I" d="M78 0 l64 0 l0 600 l-64 0 l0 -600 Z" /><glyph glyph-name="" unicode="Í" d="M85 652 l42 0 l118 148 l-72 0 l-88 -148 ZM78 0 l64 0 l0 600 l-64 0 l0 -600 Z" /><glyph glyph-name="" unicode="&#x1cf;" d="M78 652 l64 0 l79 148 l-49 0 l-62 -106 l-62 106 l-48 0 l78 -148 ZM78 0 l64 0 l0 600 l-64 0 l0 -600 Z" /><glyph glyph-name="" unicode="Î" d="M48 652 l62 107 l62 -107 l49 0 l-79 148 l-64 0 l-78 -148 l48 0 ZM78 0 l64 0 l0 600 l-64 0 l0 -600 Z" /><glyph glyph-name="" unicode="Ï" d="M38 675 q18 0 30 12 q12 12 13 30 q-1 19 -13 31 q-12 12 -30 12 q-18 0 -31 -12 q-12 -12 -13 -31 q1 -18 13 -30 q13 -12 31 -12 l0 0 ZM183 675 q18 0 31 12 q12 12 12 30 q0 19 -12 31 q-13 12 -31 12 q-18 0 -30 -12 q-12 -12 -13 -31 q1 -18 13 -30 q12 -12 30 -12 l0 0 ZM78 0 l64 0 l0 600 l-64 0 l0 -600 Z" /><glyph glyph-name="" unicode="&#x130;" d="M110 660 q18 0 30 13 q12 12 13 30 q-1 18 -13 31 q-12 12 -30 12 q-18 0 -30 -12 q-12 -13 -13 -31 q1 -18 13 -30 q12 -13 30 -13 l0 0 ZM78 0 l64 0 l0 600 l-64 0 l0 -600 Z" /><glyph glyph-name="" unicode="Ì" d="M135 652 l-88 148 l-72 0 l118 -148 l42 0 ZM78 0 l64 0 l0 600 l-64 0 l0 -600 Z" /><glyph glyph-name="" unicode="&#x12a;" d="M2 683 l215 0 l0 42 l-215 0 l0 -42 ZM78 0 l64 0 l0 600 l-64 0 l0 -600 Z" /><glyph glyph-name="" unicode="&#x12e;" d="M170 -136 q-14 -18 -33 -27 q-19 -10 -42 -10 q-26 0 -40 15 q-14 15 -14 39 q1 41 31 69 q29 27 70 50 l0 600 l-64 0 l0 -600 l13 0 q-41 -26 -67 -56 q-26 -29 -27 -68 q1 -38 24 -60 q24 -21 65 -23 q30 -2 57 8 q26 10 49 32 l-22 31 Z" /><glyph glyph-name="" unicode="J" d="M336 600 l-275 0 l0 -64 l211 0 l0 -384 q-1 -45 -25 -70 q-24 -26 -63 -26 q-35 0 -58 22 q-24 22 -28 60 l-65 -14 q7 -62 47 -97 q40 -34 104 -35 q69 1 110 41 q41 41 42 112 l0 455 Z" /><glyph glyph-name="" unicode="K" d="M431 0 l89 0 l-285 323 l274 277 l-89 0 l-241 -246 l-42 0 l0 246 l-64 0 l0 -600 l64 0 l0 294 l43 0 l251 -294 Z" /><glyph glyph-name="" unicode="&#x136;" d="M235 323 l274 277 l-89 0 l-241 -246 l-42 0 l0 246 l-64 0 l0 -600 l64 0 l0 294 l43 0 l251 -294 l89 0 l-285 323 ZM159 -189 l44 0 l94 141 l-78 0 l-60 -141 Z" /><glyph glyph-name="" unicode="L" d="M137 64 l0 536 l-64 0 l0 -600 l287 0 l0 64 l-223 0 Z" /><glyph glyph-name="" unicode="&#x139;" d="M240 800 l-72 0 l-88 -148 l42 0 l118 148 ZM137 64 l0 536 l-64 0 l0 -600 l287 0 l0 64 l-223 0 Z" /><glyph glyph-name="" unicode="&#x13d;" d="M137 64 l0 536 l-64 0 l0 -600 l287 0 l0 64 l-223 0 ZM354 600 l-71 0 l-65 -241 l45 0 l91 241 Z" /><glyph glyph-name="" unicode="&#x13b;" d="M137 64 l0 536 l-64 0 l0 -600 l287 0 l0 64 l-223 0 ZM118 -189 l44 0 l94 141 l-78 0 l-60 -141 Z" /><glyph glyph-name="" unicode="&#x141;" d="M137 64 l0 236 l93 99 l-35 29 l-58 -62 l0 234 l-64 0 l0 -302 l-91 -97 l34 -29 l57 60 l0 -232 l287 0 l0 64 l-223 0 Z" /><glyph glyph-name="" unicode="M" d="M602 600 l-231 -523 l-230 523 l-68 0 l0 -600 l64 0 l0 474 l207 -474 l53 0 l209 472 l0 -472 l63 0 l0 600 l-67 0 Z" /><glyph glyph-name="" unicode="N" d="M504 600 l0 -493 l-371 493 l-60 0 l0 -600 l64 0 l0 493 l370 -493 l60 0 l0 600 l-63 0 Z" /><glyph glyph-name="" unicode="&#x143;" d="M453 800 l-72 0 l-88 -148 l42 0 l118 148 ZM504 600 l0 -493 l-371 493 l-60 0 l0 -600 l64 0 l0 493 l370 -493 l60 0 l0 600 l-63 0 Z" /><glyph glyph-name="" unicode="&#x147;" d="M350 652 l79 148 l-49 0 l-62 -106 l-62 106 l-48 0 l78 -148 l64 0 ZM504 600 l0 -493 l-371 493 l-60 0 l0 -600 l64 0 l0 493 l370 -493 l60 0 l0 600 l-63 0 Z" /><glyph glyph-name="" unicode="&#x145;" d="M504 600 l0 -493 l-371 493 l-60 0 l0 -600 l64 0 l0 493 l370 -493 l60 0 l0 600 l-63 0 ZM224 -189 l44 0 l94 141 l-78 0 l-60 -141 Z" /><glyph glyph-name="" unicode="&#x14a;" d="M504 600 l0 -493 l-371 493 l-60 0 l0 -600 l64 0 l0 493 l370 -493 l0 -83 q-1 -37 -15 -49 q-15 -12 -37 -10 l0 -57 q58 -2 85 24 q27 25 27 87 l0 688 l-63 0 Z" /><glyph glyph-name="" unicode="Ñ" d="M265 733 q10 0 18 -5 q8 -4 15 -17 q11 -17 28 -30 q18 -13 45 -14 q41 1 63 32 q22 30 22 76 l-46 0 q0 -31 -10 -46 q-10 -16 -29 -16 q-13 0 -21 7 q-8 6 -14 15 q-12 19 -30 31 q-17 13 -43 13 q-39 -1 -61 -31 q-23 -30 -23 -77 l46 0 q0 27 10 44 q10 17 30 18 l0 0 ZM504 600 l0 -493 l-371 493 l-60 0 l0 -600 l64 0 l0 493 l370 -493 l60 0 l0 600 l-63 0 Z" /><glyph glyph-name="" unicode="O" d="M357 -8 q131 3 218 90 q87 87 90 218 q-3 131 -90 218 q-87 87 -218 90 q-131 -3 -218 -90 q-87 -87 -90 -218 q3 -131 90 -218 q87 -87 218 -90 l0 0 ZM357 56 q-104 3 -173 71 q-68 69 -71 173 q3 105 71 173 q69 69 173 71 q105 -2 173 -71 q69 -68 71 -173 q-2 -104 -71 -173 q-68 -68 -173 -71 l0 0 Z" /><glyph glyph-name="" unicode="Ó" d="M332 652 l42 0 l118 148 l-72 0 l-88 -148 ZM357 -8 q131 3 218 90 q87 87 90 218 q-3 131 -90 218 q-87 87 -218 90 q-131 -3 -218 -90 q-87 -87 -90 -218 q3 -131 90 -218 q87 -87 218 -90 l0 0 ZM357 56 q-104 3 -173 71 q-68 69 -71 173 q3 105 71 173 q69 69 173 71 q105 -2 173 -71 q69 -68 71 -173 q-2 -104 -71 -173 q-68 -68 -173 -71 l0 0 Z" /><glyph glyph-name="" unicode="&#x1d1;" d="M325 652 l64 0 l79 148 l-49 0 l-62 -106 l-62 106 l-48 0 l78 -148 ZM357 -8 q131 3 218 90 q87 87 90 218 q-3 131 -90 218 q-87 87 -218 90 q-131 -3 -218 -90 q-87 -87 -90 -218 q3 -131 90 -218 q87 -87 218 -90 l0 0 ZM357 56 q-104 3 -173 71 q-68 69 -71 173 q3 105 71 173 q69 69 173 71 q105 -2 173 -71 q69 -68 71 -173 q-2 -104 -71 -173 q-68 -68 -173 -71 l0 0 Z" /><glyph glyph-name="" unicode="Ô" d="M295 652 l62 107 l62 -107 l49 0 l-79 148 l-64 0 l-78 -148 l48 0 ZM357 -8 q131 3 218 90 q87 87 90 218 q-3 131 -90 218 q-87 87 -218 90 q-131 -3 -218 -90 q-87 -87 -90 -218 q3 -131 90 -218 q87 -87 218 -90 l0 0 ZM357 56 q-104 3 -173 71 q-68 69 -71 173 q3 105 71 173 q69 69 173 71 q105 -2 173 -71 q69 -68 71 -173 q-2 -104 -71 -173 q-68 -68 -173 -71 l0 0 Z" /><glyph glyph-name="" unicode="Ö" d="M285 675 q18 0 30 12 q12 12 13 30 q-1 19 -13 31 q-12 12 -30 12 q-18 0 -31 -12 q-12 -12 -13 -31 q1 -18 13 -30 q13 -12 31 -12 l0 0 ZM430 675 q18 0 31 12 q12 12 12 30 q0 19 -12 31 q-13 12 -31 12 q-18 0 -30 -12 q-12 -12 -13 -31 q1 -18 13 -30 q12 -12 30 -12 l0 0 ZM357 -8 q131 3 218 90 q87 87 90 218 q-3 131 -90 218 q-87 87 -218 90 q-131 -3 -218 -90 q-87 -87 -90 -218 q3 -131 90 -218 q87 -87 218 -90 l0 0 ZM357 56 q-104 3 -173 71 q-68 69 -71 173 q3 105 71 173 q69 69 173 71 q105 -2 173 -71 q69 -68 71 -173 q-2 -104 -71 -173 q-68 -68 -173 -71 l0 0 Z" /><glyph glyph-name="" unicode="Ò" d="M382 652 l-88 148 l-72 0 l118 -148 l42 0 ZM357 -8 q131 3 218 90 q87 87 90 218 q-3 131 -90 218 q-87 87 -218 90 q-131 -3 -218 -90 q-87 -87 -90 -218 q3 -131 90 -218 q87 -87 218 -90 l0 0 ZM357 56 q-104 3 -173 71 q-68 69 -71 173 q3 105 71 173 q69 69 173 71 q105 -2 173 -71 q69 -68 71 -173 q-2 -104 -71 -173 q-68 -68 -173 -71 l0 0 Z" /><glyph glyph-name="" unicode="&#x150;" d="M265 652 l42 0 l117 148 l-72 0 l-87 -148 ZM395 652 l42 0 l117 148 l-72 0 l-87 -148 ZM357 -8 q131 3 218 90 q87 87 90 218 q-3 131 -90 218 q-87 87 -218 90 q-131 -3 -218 -90 q-87 -87 -90 -218 q3 -131 90 -218 q87 -87 218 -90 l0 0 ZM357 56 q-104 3 -173 71 q-68 69 -71 173 q3 105 71 173 q69 69 173 71 q105 -2 173 -71 q69 -68 71 -173 q-2 -104 -71 -173 q-68 -68 -173 -71 l0 0 Z" /><glyph glyph-name="" unicode="&#x14c;" d="M249 683 l215 0 l0 42 l-215 0 l0 -42 ZM357 -8 q131 3 218 90 q87 87 90 218 q-3 131 -90 218 q-87 87 -218 90 q-131 -3 -218 -90 q-87 -87 -90 -218 q3 -131 90 -218 q87 -87 218 -90 l0 0 ZM357 56 q-104 3 -173 71 q-68 69 -71 173 q3 105 71 173 q69 69 173 71 q105 -2 173 -71 q69 -68 71 -173 q-2 -104 -71 -173 q-68 -68 -173 -71 l0 0 Z" /><glyph glyph-name="" unicode="Ø" d="M556 536 l48 69 l-46 30 l-47 -68 q-34 20 -73 30 q-39 11 -81 11 q-131 -3 -218 -90 q-87 -87 -90 -218 q1 -72 30 -133 q29 -60 80 -103 l-49 -71 l47 -29 l48 68 q34 -19 72 -29 q39 -11 80 -11 q131 3 218 90 q87 87 90 218 q-1 72 -29 132 q-29 61 -80 104 l0 0 ZM113 300 q3 105 71 173 q69 69 173 71 q32 0 62 -8 q29 -7 55 -21 l-278 -399 q-39 34 -61 81 q-22 47 -22 103 l0 0 ZM357 56 q-63 0 -116 29 l278 398 q38 -33 60 -81 q22 -47 22 -102 q-2 -104 -71 -173 q-68 -68 -173 -71 l0 0 Z" /><glyph glyph-name="" unicode="Õ" d="M410 667 q41 1 63 32 q22 30 22 76 l-46 0 q0 -31 -10 -46 q-10 -16 -29 -16 q-13 0 -21 7 q-8 6 -14 15 q-12 19 -30 31 q-17 13 -43 13 q-39 -1 -61 -31 q-23 -30 -23 -77 l46 0 q0 27 10 44 q10 17 30 18 q10 0 18 -5 q8 -4 15 -17 q11 -17 28 -30 q18 -13 45 -14 l0 0 ZM357 -8 q131 3 218 90 q87 87 90 218 q-3 131 -90 218 q-87 87 -218 90 q-131 -3 -218 -90 q-87 -87 -90 -218 q3 -131 90 -218 q87 -87 218 -90 l0 0 ZM357 56 q-104 3 -173 71 q-68 69 -71 173 q3 105 71 173 q69 69 173 71 q105 -2 173 -71 q69 -68 71 -173 q-2 -104 -71 -173 q-68 -68 -173 -71 l0 0 Z" /><glyph glyph-name="" unicode="&#x152;" d="M777 538 l0 62 l-318 0 l0 -9 q-48 17 -102 17 q-131 -3 -218 -90 q-87 -87 -90 -218 q3 -131 90 -218 q87 -87 218 -90 q54 0 102 17 l0 -9 l318 0 l0 62 l-265 0 l0 207 l231 0 l0 62 l-231 0 l0 207 l265 0 ZM358 54 q-105 3 -175 72 q-69 69 -72 174 q3 105 72 174 q70 69 175 72 q27 0 52 -6 q26 -5 49 -15 l0 -450 q-23 -10 -49 -15 q-25 -6 -52 -6 l0 0 Z" /><glyph glyph-name="" unicode="P" d="M288 600 l-215 0 l0 -600 l64 0 l0 267 l151 0 q71 2 118 48 q47 47 49 118 q-2 71 -49 118 q-47 47 -118 49 l0 0 ZM282 328 l-145 0 l0 210 l145 0 q46 -1 77 -29 q31 -28 32 -77 q-1 -50 -32 -77 q-31 -27 -77 -27 l0 0 Z" /><glyph glyph-name="" unicode="Þ" d="M292 517 l-151 0 l0 83 l-62 0 l0 -600 l62 0 l0 184 l151 0 q71 2 118 48 q47 46 49 117 q-2 72 -49 119 q-47 47 -118 49 l0 0 ZM287 246 l-146 0 l0 209 l146 0 q47 -1 77 -29 q30 -28 31 -75 q-1 -47 -30 -76 q-30 -28 -78 -29 l0 0 Z" /><glyph glyph-name="" unicode="Q" d="M688 60 l-90 0 l-88 -28 q71 41 112 111 q42 70 43 157 q-3 131 -90 218 q-87 87 -218 90 q-131 -3 -218 -90 q-87 -87 -90 -218 q3 -131 90 -218 q87 -87 218 -90 q18 0 36 2 q17 2 34 6 l261 0 l0 60 ZM113 300 q3 105 71 173 q69 69 173 71 q105 -2 173 -71 q69 -68 71 -173 q-2 -104 -71 -173 q-68 -68 -173 -71 q-104 3 -173 71 q-68 69 -71 173 l0 0 Z" /><glyph glyph-name="" unicode="R" d="M316 274 q61 10 99 53 q39 43 40 105 q-2 72 -49 119 q-47 47 -118 49 l-215 0 l0 -600 l64 0 l0 271 l113 0 l170 -271 l73 0 l-177 274 ZM137 332 l0 204 l147 0 q46 -1 76 -28 q30 -28 31 -74 q-1 -46 -31 -74 q-29 -27 -76 -28 l-147 0 Z" /><glyph glyph-name="" unicode="&#x154;" d="M386 800 l-72 0 l-88 -148 l42 0 l118 148 ZM316 274 q61 10 99 53 q39 43 40 105 q-2 72 -49 119 q-47 47 -118 49 l-215 0 l0 -600 l64 0 l0 271 l113 0 l170 -271 l73 0 l-177 274 ZM137 332 l0 204 l147 0 q46 -1 76 -28 q30 -28 31 -74 q-1 -46 -31 -74 q-29 -27 -76 -28 l-147 0 Z" /><glyph glyph-name="" unicode="&#x158;" d="M283 652 l79 148 l-49 0 l-62 -106 l-62 106 l-48 0 l78 -148 l64 0 ZM316 274 q61 10 99 53 q39 43 40 105 q-2 72 -49 119 q-47 47 -118 49 l-215 0 l0 -600 l64 0 l0 271 l113 0 l170 -271 l73 0 l-177 274 ZM137 332 l0 204 l147 0 q46 -1 76 -28 q30 -28 31 -74 q-1 -46 -31 -74 q-29 -27 -76 -28 l-147 0 Z" /><glyph glyph-name="" unicode="&#x156;" d="M316 274 q61 10 99 53 q39 43 40 105 q-2 72 -49 119 q-47 47 -118 49 l-215 0 l0 -600 l64 0 l0 271 l113 0 l170 -271 l73 0 l-177 274 ZM137 332 l0 204 l147 0 q46 -1 76 -28 q30 -28 31 -74 q-1 -46 -31 -74 q-29 -27 -76 -28 l-147 0 ZM152 -189 l44 0 l94 141 l-78 0 l-60 -141 Z" /><glyph glyph-name="" unicode="S" d="M224 -8 q79 1 131 44 q52 43 54 122 q-18 139 -146 171 q-128 33 -146 126 q1 45 32 67 q30 22 73 22 q35 0 62 -14 q28 -13 46 -39 l50 42 q-25 32 -66 53 q-42 21 -94 22 q-71 -1 -118 -42 q-47 -42 -49 -116 q18 -131 146 -163 q128 -33 146 -131 q-1 -48 -35 -74 q-34 -26 -85 -26 q-51 1 -87 25 q-35 25 -51 67 l-58 -34 q24 -56 76 -89 q51 -32 119 -33 l0 0 Z" /><glyph glyph-name="" unicode="&#x15a;" d="M198 652 l42 0 l118 148 l-72 0 l-88 -148 ZM224 -8 q79 1 131 44 q52 43 54 122 q-18 139 -146 171 q-128 33 -146 126 q1 45 32 67 q30 22 73 22 q35 0 62 -14 q28 -13 46 -39 l50 42 q-25 32 -66 53 q-42 21 -94 22 q-71 -1 -118 -42 q-47 -42 -49 -116 q18 -131 146 -163 q128 -33 146 -131 q-1 -48 -35 -74 q-34 -26 -85 -26 q-51 1 -87 25 q-35 25 -51 67 l-58 -34 q24 -56 76 -89 q51 -32 119 -33 l0 0 Z" /><glyph glyph-name="" unicode="&#x160;" d="M191 652 l64 0 l79 148 l-49 0 l-62 -106 l-62 106 l-48 0 l78 -148 ZM224 -8 q79 1 131 44 q52 43 54 122 q-18 139 -146 171 q-128 33 -146 126 q1 45 32 67 q30 22 73 22 q35 0 62 -14 q28 -13 46 -39 l50 42 q-25 32 -66 53 q-42 21 -94 22 q-71 -1 -118 -42 q-47 -42 -49 -116 q18 -131 146 -163 q128 -33 146 -131 q-1 -48 -35 -74 q-34 -26 -85 -26 q-51 1 -87 25 q-35 25 -51 67 l-58 -34 q24 -56 76 -89 q51 -32 119 -33 l0 0 Z" /><glyph glyph-name="" unicode="&#x15e;" d="M409 158 q-18 139 -146 171 q-128 33 -146 126 q1 45 32 67 q30 22 73 22 q35 0 62 -14 q28 -13 46 -39 l50 42 q-25 32 -66 53 q-42 21 -94 22 q-71 -1 -118 -42 q-47 -42 -49 -116 q18 -131 146 -163 q128 -33 146 -131 q-1 -48 -35 -74 q-34 -26 -85 -26 q-51 1 -87 25 q-35 25 -51 67 l-58 -34 q21 -50 64 -81 q43 -32 101 -39 l-32 -64 l30 -20 q34 12 56 2 q22 -10 23 -37 q0 -20 -13 -33 q-13 -13 -32 -13 q-16 0 -32 9 q-16 8 -26 20 l-34 -14 q12 -22 38 -37 q26 -14 54 -15 q36 1 59 24 q22 24 23 59 q-1 38 -29 59 q-28 20 -70 13 l22 45 q76 3 126 46 q50 42 52 120 l0 0 Z" /><glyph glyph-name="" unicode="&#x218;" d="M224 -8 q79 1 131 44 q52 43 54 122 q-18 139 -146 171 q-128 33 -146 126 q1 45 32 67 q30 22 73 22 q35 0 62 -14 q28 -13 46 -39 l50 42 q-25 32 -66 53 q-42 21 -94 22 q-71 -1 -118 -42 q-47 -42 -49 -116 q18 -131 146 -163 q128 -33 146 -131 q-1 -48 -35 -74 q-34 -26 -85 -26 q-51 1 -87 25 q-35 25 -51 67 l-58 -34 q24 -56 76 -89 q51 -32 119 -33 l0 0 ZM161 -189 l94 141 l-78 0 l-60 -141 l44 0 Z" /><glyph glyph-name="" unicode="T" d="M405 600 l-396 0 l0 -64 l166 0 l0 -536 l64 0 l0 536 l166 0 l0 64 Z" /><glyph glyph-name="" unicode="&#x166;" d="M405 536 l0 64 l-396 0 l0 -64 l166 0 l0 -205 l-85 0 l0 -60 l85 0 l0 -271 l64 0 l0 271 l83 0 l0 60 l-83 0 l0 205 l166 0 Z" /><glyph glyph-name="" unicode="&#x164;" d="M239 652 l79 148 l-49 0 l-62 -106 l-62 106 l-48 0 l78 -148 l64 0 ZM405 600 l-396 0 l0 -64 l166 0 l0 -536 l64 0 l0 536 l166 0 l0 64 Z" /><glyph glyph-name="" unicode="&#x162;" d="M239 0 l0 536 l166 0 l0 64 l-396 0 l0 -64 l166 0 l0 -536 l13 0 l-35 -70 l30 -20 q34 12 56 2 q22 -10 23 -37 q0 -20 -13 -33 q-13 -13 -32 -13 q-16 0 -32 9 q-16 8 -26 20 l-34 -14 q12 -22 38 -37 q26 -14 54 -15 q36 1 59 24 q22 24 23 59 q-1 38 -29 59 q-28 20 -70 13 l26 53 l13 0 Z" /><glyph glyph-name="" unicode="&#x21a;" d="M9 600 l0 -64 l166 0 l0 -536 l64 0 l0 536 l166 0 l0 64 l-396 0 ZM108 -189 l44 0 l94 141 l-78 0 l-60 -141 Z" /><glyph glyph-name="" unicode="U" d="M295 -8 q100 2 162 58 q62 57 64 147 l0 403 l-64 0 l0 -393 q-1 -67 -46 -108 q-45 -42 -116 -43 q-71 1 -115 43 q-45 41 -46 108 l0 393 l-64 0 l0 -403 q2 -90 64 -147 q62 -56 161 -58 l0 0 Z" /><glyph glyph-name="" unicode="Ú" d="M270 652 l42 0 l118 148 l-72 0 l-88 -148 ZM295 -8 q100 2 162 58 q62 57 64 147 l0 403 l-64 0 l0 -393 q-1 -67 -46 -108 q-45 -42 -116 -43 q-71 1 -115 43 q-45 41 -46 108 l0 393 l-64 0 l0 -403 q2 -90 64 -147 q62 -56 161 -58 l0 0 Z" /><glyph glyph-name="" unicode="&#x1d3;" d="M263 652 l64 0 l79 148 l-49 0 l-62 -106 l-62 106 l-48 0 l78 -148 ZM295 -8 q100 2 162 58 q62 57 64 147 l0 403 l-64 0 l0 -393 q-1 -67 -46 -108 q-45 -42 -116 -43 q-71 1 -115 43 q-45 41 -46 108 l0 393 l-64 0 l0 -403 q2 -90 64 -147 q62 -56 161 -58 l0 0 Z" /><glyph glyph-name="" unicode="Û" d="M233 652 l62 107 l62 -107 l49 0 l-79 148 l-64 0 l-78 -148 l48 0 ZM295 -8 q100 2 162 58 q62 57 64 147 l0 403 l-64 0 l0 -393 q-1 -67 -46 -108 q-45 -42 -116 -43 q-71 1 -115 43 q-45 41 -46 108 l0 393 l-64 0 l0 -403 q2 -90 64 -147 q62 -56 161 -58 l0 0 Z" /><glyph glyph-name="" unicode="Ü" d="M223 675 q18 0 30 12 q12 12 13 30 q-1 19 -13 31 q-12 12 -30 12 q-18 0 -31 -12 q-12 -12 -13 -31 q1 -18 13 -30 q13 -12 31 -12 l0 0 ZM368 675 q18 0 31 12 q12 12 12 30 q0 19 -12 31 q-13 12 -31 12 q-18 0 -30 -12 q-12 -12 -13 -31 q1 -18 13 -30 q12 -12 30 -12 l0 0 ZM295 -8 q100 2 162 58 q62 57 64 147 l0 403 l-64 0 l0 -393 q-1 -67 -46 -108 q-45 -42 -116 -43 q-71 1 -115 43 q-45 41 -46 108 l0 393 l-64 0 l0 -403 q2 -90 64 -147 q62 -56 161 -58 l0 0 Z" /><glyph glyph-name="" unicode="Ù" d="M320 652 l-88 148 l-72 0 l118 -148 l42 0 ZM295 -8 q100 2 162 58 q62 57 64 147 l0 403 l-64 0 l0 -393 q-1 -67 -46 -108 q-45 -42 -116 -43 q-71 1 -115 43 q-45 41 -46 108 l0 393 l-64 0 l0 -403 q2 -90 64 -147 q62 -56 161 -58 l0 0 Z" /><glyph glyph-name="" unicode="&#x170;" d="M203 652 l42 0 l117 148 l-72 0 l-87 -148 ZM333 652 l42 0 l117 148 l-72 0 l-87 -148 ZM295 -8 q100 2 162 58 q62 57 64 147 l0 403 l-64 0 l0 -393 q-1 -67 -46 -108 q-45 -42 -116 -43 q-71 1 -115 43 q-45 41 -46 108 l0 393 l-64 0 l0 -403 q2 -90 64 -147 q62 -56 161 -58 l0 0 Z" /><glyph glyph-name="" unicode="&#x16a;" d="M187 683 l215 0 l0 42 l-215 0 l0 -42 ZM295 -8 q100 2 162 58 q62 57 64 147 l0 403 l-64 0 l0 -393 q-1 -67 -46 -108 q-45 -42 -116 -43 q-71 1 -115 43 q-45 41 -46 108 l0 393 l-64 0 l0 -403 q2 -90 64 -147 q62 -56 161 -58 l0 0 Z" /><glyph glyph-name="" unicode="&#x172;" d="M457 600 l0 -393 q-1 -67 -46 -108 q-45 -42 -116 -43 q-71 1 -115 43 q-45 41 -46 108 l0 393 l-64 0 l0 -403 q2 -90 64 -147 q62 -56 161 -58 q12 0 22 1 q-28 -22 -45 -46 q-17 -25 -17 -56 q1 -38 24 -60 q24 -21 65 -23 q30 -2 57 8 q26 10 49 32 l-22 31 q-14 -18 -33 -27 q-19 -10 -42 -10 q-26 0 -40 15 q-14 15 -14 39 q1 38 27 65 q26 27 64 48 q61 24 96 73 q34 49 35 115 l0 403 l-64 0 Z" /><glyph glyph-name="" unicode="&#x16e;" d="M295 638 q35 1 58 25 q23 23 24 58 q-1 35 -24 59 q-23 23 -58 24 q-35 -1 -59 -24 q-24 -24 -25 -59 q1 -35 25 -58 q24 -24 59 -25 l0 0 ZM295 672 q-21 0 -35 14 q-14 14 -14 35 q0 21 14 35 q14 14 35 15 q20 -1 34 -15 q13 -14 14 -35 q-1 -21 -14 -35 q-14 -14 -34 -14 l0 0 ZM295 -8 q100 2 162 58 q62 57 64 147 l0 403 l-64 0 l0 -393 q-1 -67 -46 -108 q-45 -42 -116 -43 q-71 1 -115 43 q-45 41 -46 108 l0 393 l-64 0 l0 -403 q2 -90 64 -147 q62 -56 161 -58 l0 0 Z" /><glyph glyph-name="" unicode="V" d="M435 600 l-182 -518 l-182 518 l-71 0 l217 -600 l71 0 l217 600 l-70 0 Z" /><glyph glyph-name="" unicode="W" d="M749 600 l-154 -493 l-146 493 l-90 0 l-144 -492 l-153 492 l-68 0 l188 -600 l68 0 l154 532 l157 -532 l67 0 l187 600 l-66 0 Z" /><glyph glyph-name="" unicode="&#x1e82;" d="M541 800 l-72 0 l-88 -148 l42 0 l118 148 ZM749 600 l-154 -493 l-146 493 l-90 0 l-144 -492 l-153 492 l-68 0 l188 -600 l68 0 l154 532 l157 -532 l67 0 l187 600 l-66 0 Z" /><glyph glyph-name="" unicode="&#x174;" d="M406 759 l62 -107 l49 0 l-79 148 l-64 0 l-78 -148 l48 0 l62 107 ZM749 600 l-154 -493 l-146 493 l-90 0 l-144 -492 l-153 492 l-68 0 l188 -600 l68 0 l154 532 l157 -532 l67 0 l187 600 l-66 0 Z" /><glyph glyph-name="" unicode="&#x1e84;" d="M334 675 q18 0 30 12 q12 12 13 30 q-1 19 -13 31 q-12 12 -30 12 q-18 0 -31 -12 q-12 -12 -13 -31 q1 -18 13 -30 q13 -12 31 -12 l0 0 ZM479 675 q18 0 31 12 q12 12 12 30 q0 19 -12 31 q-13 12 -31 12 q-18 0 -30 -12 q-12 -12 -13 -31 q1 -18 13 -30 q12 -12 30 -12 l0 0 ZM749 600 l-154 -493 l-146 493 l-90 0 l-144 -492 l-153 492 l-68 0 l188 -600 l68 0 l154 532 l157 -532 l67 0 l187 600 l-66 0 Z" /><glyph glyph-name="" unicode="&#x1e80;" d="M431 652 l-88 148 l-72 0 l118 -148 l42 0 ZM749 600 l-154 -493 l-146 493 l-90 0 l-144 -492 l-153 492 l-68 0 l188 -600 l68 0 l154 532 l157 -532 l67 0 l187 600 l-66 0 Z" /><glyph glyph-name="" unicode="X" d="M480 0 l-205 304 l200 296 l-77 0 l-158 -243 l-157 243 l-77 0 l199 -296 l-204 -304 l78 0 l161 251 l162 -251 l78 0 Z" /><glyph glyph-name="" unicode="Y" d="M484 600 l-79 0 l-162 -249 l-162 249 l-80 0 l210 -316 l0 -284 l64 0 l0 285 l209 315 Z" /><glyph glyph-name="" unicode="Ý" d="M378 800 l-72 0 l-88 -148 l42 0 l118 148 ZM484 600 l-79 0 l-162 -249 l-162 249 l-80 0 l210 -316 l0 -284 l64 0 l0 285 l209 315 Z" /><glyph glyph-name="" unicode="&#x176;" d="M243 759 l62 -107 l49 0 l-79 148 l-64 0 l-78 -148 l48 0 l62 107 ZM484 600 l-79 0 l-162 -249 l-162 249 l-80 0 l210 -316 l0 -284 l64 0 l0 285 l209 315 Z" /><glyph glyph-name="" unicode="&#x178;" d="M171 675 q18 0 30 12 q12 12 13 30 q-1 19 -13 31 q-12 12 -30 12 q-18 0 -31 -12 q-12 -12 -13 -31 q1 -18 13 -30 q13 -12 31 -12 l0 0 ZM316 675 q18 0 31 12 q12 12 12 30 q0 19 -12 31 q-13 12 -31 12 q-18 0 -30 -12 q-12 -12 -13 -31 q1 -18 13 -30 q12 -12 30 -12 l0 0 ZM484 600 l-79 0 l-162 -249 l-162 249 l-80 0 l210 -316 l0 -284 l64 0 l0 285 l209 315 Z" /><glyph glyph-name="" unicode="&#x1ef2;" d="M268 652 l-88 148 l-72 0 l118 -148 l42 0 ZM484 600 l-79 0 l-162 -249 l-162 249 l-80 0 l210 -316 l0 -284 l64 0 l0 285 l209 315 Z" /><glyph glyph-name="" unicode="Z" d="M151 64 l328 536 l-418 0 l0 -64 l305 0 l-329 -536 l454 0 l0 64 l-340 0 Z" /><glyph glyph-name="" unicode="&#x179;" d="M402 800 l-72 0 l-88 -148 l42 0 l118 148 ZM151 64 l328 536 l-418 0 l0 -64 l305 0 l-329 -536 l454 0 l0 64 l-340 0 Z" /><glyph glyph-name="" unicode="&#x17d;" d="M299 652 l79 148 l-49 0 l-62 -106 l-62 106 l-48 0 l78 -148 l64 0 ZM151 64 l328 536 l-418 0 l0 -64 l305 0 l-329 -536 l454 0 l0 64 l-340 0 Z" /><glyph glyph-name="" unicode="&#x17b;" d="M267 660 q18 0 30 13 q12 12 13 30 q-1 18 -13 31 q-12 12 -30 12 q-18 0 -30 -12 q-12 -13 -13 -31 q1 -18 13 -30 q12 -13 30 -13 l0 0 ZM151 64 l328 536 l-418 0 l0 -64 l305 0 l-329 -536 l454 0 l0 64 l-340 0 Z" /><glyph glyph-name="" unicode="a" d="M502 52 q-17 0 -29 12 q-11 12 -12 40 l0 296 l-62 0 l0 -52 q-28 28 -65 44 q-38 16 -81 16 q-88 -2 -147 -61 q-59 -59 -61 -147 q2 -88 61 -147 q59 -59 147 -61 q45 0 84 19 q39 19 68 50 q10 -31 33 -50 q24 -19 59 -19 q8 0 16 2 q8 2 14 6 l0 52 l-25 0 ZM253 54 q-62 2 -103 43 q-41 41 -43 103 q2 62 43 103 q41 41 103 43 q62 -2 103 -43 q41 -41 43 -103 q-2 -62 -43 -103 q-41 -41 -103 -43 l0 0 Z" /><glyph glyph-name="" unicode="á" d="M388 600 l-72 0 l-88 -148 l42 0 l118 148 ZM502 52 q-17 0 -29 12 q-11 12 -12 40 l0 296 l-62 0 l0 -52 q-28 28 -65 44 q-38 16 -81 16 q-88 -2 -147 -61 q-59 -59 -61 -147 q2 -88 61 -147 q59 -59 147 -61 q45 0 84 19 q39 19 68 50 q10 -31 33 -50 q24 -19 59 -19 q8 0 16 2 q8 2 14 6 l0 52 l-25 0 ZM253 54 q-62 2 -103 43 q-41 41 -43 103 q2 62 43 103 q41 41 103 43 q62 -2 103 -43 q41 -41 43 -103 q-2 -62 -43 -103 q-41 -41 -103 -43 l0 0 Z" /><glyph glyph-name="" unicode="&#x103;" d="M252 453 q58 1 95 33 q36 33 37 89 l-39 0 q-1 -35 -26 -58 q-26 -23 -67 -24 q-41 1 -66 24 q-25 23 -26 58 l-39 0 q1 -56 37 -89 q37 -32 94 -33 l0 0 ZM502 52 q-17 0 -29 12 q-11 12 -12 40 l0 296 l-62 0 l0 -52 q-28 28 -65 44 q-38 16 -81 16 q-88 -2 -147 -61 q-59 -59 -61 -147 q2 -88 61 -147 q59 -59 147 -61 q45 0 84 19 q39 19 68 50 q10 -31 33 -50 q24 -19 59 -19 q8 0 16 2 q8 2 14 6 l0 52 l-25 0 ZM253 54 q-62 2 -103 43 q-41 41 -43 103 q2 62 43 103 q41 41 103 43 q62 -2 103 -43 q41 -41 43 -103 q-2 -62 -43 -103 q-41 -41 -103 -43 l0 0 Z" /><glyph glyph-name="" unicode="&#x1ce;" d="M285 452 l79 148 l-49 0 l-62 -106 l-62 106 l-48 0 l78 -148 l64 0 ZM502 52 q-17 0 -29 12 q-11 12 -12 40 l0 296 l-62 0 l0 -52 q-28 28 -65 44 q-38 16 -81 16 q-88 -2 -147 -61 q-59 -59 -61 -147 q2 -88 61 -147 q59 -59 147 -61 q45 0 84 19 q39 19 68 50 q10 -31 33 -50 q24 -19 59 -19 q8 0 16 2 q8 2 14 6 l0 52 l-25 0 ZM253 54 q-62 2 -103 43 q-41 41 -43 103 q2 62 43 103 q41 41 103 43 q62 -2 103 -43 q41 -41 43 -103 q-2 -62 -43 -103 q-41 -41 -103 -43 l0 0 Z" /><glyph glyph-name="" unicode="â" d="M253 559 l62 -107 l49 0 l-79 148 l-64 0 l-78 -148 l48 0 l62 107 ZM502 52 q-17 0 -29 12 q-11 12 -12 40 l0 296 l-62 0 l0 -52 q-28 28 -65 44 q-38 16 -81 16 q-88 -2 -147 -61 q-59 -59 -61 -147 q2 -88 61 -147 q59 -59 147 -61 q45 0 84 19 q39 19 68 50 q10 -31 33 -50 q24 -19 59 -19 q8 0 16 2 q8 2 14 6 l0 52 l-25 0 ZM253 54 q-62 2 -103 43 q-41 41 -43 103 q2 62 43 103 q41 41 103 43 q62 -2 103 -43 q41 -41 43 -103 q-2 -62 -43 -103 q-41 -41 -103 -43 l0 0 Z" /><glyph glyph-name="" unicode="ä" d="M181 475 q18 0 30 12 q12 12 13 30 q-1 19 -13 31 q-12 12 -30 12 q-18 0 -31 -12 q-12 -12 -13 -31 q1 -18 13 -30 q13 -12 31 -12 l0 0 ZM326 475 q18 0 31 12 q12 12 12 30 q0 19 -12 31 q-13 12 -31 12 q-18 0 -30 -12 q-12 -12 -13 -31 q1 -18 13 -30 q12 -12 30 -12 l0 0 ZM502 52 q-17 0 -29 12 q-11 12 -12 40 l0 296 l-62 0 l0 -52 q-28 28 -65 44 q-38 16 -81 16 q-88 -2 -147 -61 q-59 -59 -61 -147 q2 -88 61 -147 q59 -59 147 -61 q45 0 84 19 q39 19 68 50 q10 -31 33 -50 q24 -19 59 -19 q8 0 16 2 q8 2 14 6 l0 52 l-25 0 ZM253 54 q-62 2 -103 43 q-41 41 -43 103 q2 62 43 103 q41 41 103 43 q62 -2 103 -43 q41 -41 43 -103 q-2 -62 -43 -103 q-41 -41 -103 -43 l0 0 Z" /><glyph glyph-name="" unicode="à" d="M278 452 l-88 148 l-72 0 l118 -148 l42 0 ZM502 52 q-17 0 -29 12 q-11 12 -12 40 l0 296 l-62 0 l0 -52 q-28 28 -65 44 q-38 16 -81 16 q-88 -2 -147 -61 q-59 -59 -61 -147 q2 -88 61 -147 q59 -59 147 -61 q45 0 84 19 q39 19 68 50 q10 -31 33 -50 q24 -19 59 -19 q8 0 16 2 q8 2 14 6 l0 52 l-25 0 ZM253 54 q-62 2 -103 43 q-41 41 -43 103 q2 62 43 103 q41 41 103 43 q62 -2 103 -43 q41 -41 43 -103 q-2 -62 -43 -103 q-41 -41 -103 -43 l0 0 Z" /><glyph glyph-name="" unicode="&#x101;" d="M360 525 l-215 0 l0 -42 l215 0 l0 42 ZM502 52 q-17 0 -29 12 q-11 12 -12 40 l0 296 l-62 0 l0 -52 q-28 28 -65 44 q-38 16 -81 16 q-88 -2 -147 -61 q-59 -59 -61 -147 q2 -88 61 -147 q59 -59 147 -61 q45 0 84 19 q39 19 68 50 q10 -31 33 -50 q24 -19 59 -19 q8 0 16 2 q8 2 14 6 l0 52 l-25 0 ZM253 54 q-62 2 -103 43 q-41 41 -43 103 q2 62 43 103 q41 41 103 43 q62 -2 103 -43 q41 -41 43 -103 q-2 -62 -43 -103 q-41 -41 -103 -43 l0 0 Z" /><glyph glyph-name="" unicode="&#x105;" d="M555 -136 q-14 -18 -33 -27 q-19 -10 -42 -10 q-26 0 -40 15 q-14 15 -14 39 q1 40 30 68 q29 27 69 50 q1 0 1 1 q0 0 1 0 l0 52 l-25 0 q-17 0 -29 12 q-11 12 -12 40 l0 296 l-62 0 l0 -52 q-28 28 -65 44 q-38 16 -81 16 q-88 -2 -147 -61 q-59 -59 -61 -147 q2 -88 61 -147 q59 -59 147 -61 q45 0 84 19 q39 19 68 50 q8 -24 24 -41 q16 -18 40 -24 q-38 -25 -62 -54 q-24 -29 -25 -66 q1 -38 24 -60 q24 -21 65 -23 q30 -2 57 8 q26 10 49 32 l-22 31 ZM253 54 q-62 2 -103 43 q-41 41 -43 103 q2 62 43 103 q41 41 103 43 q62 -2 103 -43 q41 -41 43 -103 q-2 -62 -43 -103 q-41 -41 -103 -43 l0 0 Z" /><glyph glyph-name="" unicode="å" d="M253 438 q35 1 58 25 q23 23 24 58 q-1 35 -24 59 q-23 23 -58 24 q-35 -1 -59 -24 q-24 -24 -25 -59 q1 -35 25 -58 q24 -24 59 -25 l0 0 ZM253 571 q20 -1 34 -15 q13 -14 14 -35 q-1 -21 -14 -35 q-14 -14 -34 -14 q-21 0 -35 14 q-14 14 -14 35 q0 21 14 35 q14 14 35 15 l0 0 ZM502 52 q-17 0 -29 12 q-11 12 -12 40 l0 296 l-62 0 l0 -52 q-28 28 -65 44 q-38 16 -81 16 q-88 -2 -147 -61 q-59 -59 -61 -147 q2 -88 61 -147 q59 -59 147 -61 q45 0 84 19 q39 19 68 50 q10 -31 33 -50 q24 -19 59 -19 q8 0 16 2 q8 2 14 6 l0 52 l-25 0 ZM253 54 q-62 2 -103 43 q-41 41 -43 103 q2 62 43 103 q41 41 103 43 q62 -2 103 -43 q41 -41 43 -103 q-2 -62 -43 -103 q-41 -41 -103 -43 l0 0 Z" /><glyph glyph-name="" unicode="ã" d="M200 533 q10 0 18 -5 q8 -4 15 -17 q11 -17 28 -30 q18 -13 45 -14 q41 1 63 32 q22 30 22 76 l-46 0 q0 -31 -10 -46 q-10 -16 -29 -16 q-13 0 -21 7 q-8 6 -14 15 q-12 19 -30 31 q-17 13 -43 13 q-39 -1 -61 -31 q-23 -30 -23 -77 l46 0 q0 27 10 44 q10 17 30 18 l0 0 ZM502 52 q-17 0 -29 12 q-11 12 -12 40 l0 296 l-62 0 l0 -52 q-28 28 -65 44 q-38 16 -81 16 q-88 -2 -147 -61 q-59 -59 -61 -147 q2 -88 61 -147 q59 -59 147 -61 q45 0 84 19 q39 19 68 50 q10 -31 33 -50 q24 -19 59 -19 q8 0 16 2 q8 2 14 6 l0 52 l-25 0 ZM253 54 q-62 2 -103 43 q-41 41 -43 103 q2 62 43 103 q41 41 103 43 q62 -2 103 -43 q41 -41 43 -103 q-2 -62 -43 -103 q-41 -41 -103 -43 l0 0 Z" /><glyph glyph-name="" unicode="æ" d="M738 204 q-4 88 -62 145 q-58 57 -146 59 q-50 0 -92 -21 q-42 -22 -71 -58 q-19 36 -57 58 q-38 21 -89 21 q-57 -1 -100 -26 q-42 -25 -59 -65 l62 -21 q9 27 36 44 q26 17 60 17 q44 -1 71 -27 q27 -26 28 -68 l0 -16 l-116 0 q-73 -1 -115 -34 q-42 -33 -43 -92 q1 -58 41 -92 q39 -35 104 -36 q43 0 88 22 q46 22 86 61 q29 -39 72 -61 q43 -22 94 -22 q72 1 126 42 q53 41 74 107 l-66 0 q-17 -40 -53 -63 q-35 -23 -81 -24 q-61 1 -101 40 q-41 38 -45 97 l353 0 l1 13 ZM530 346 q49 -1 85 -28 q37 -27 52 -71 l-275 0 q16 44 53 71 q36 27 85 28 l0 0 ZM190 49 q-39 0 -61 19 q-22 18 -22 50 q0 35 25 53 q25 18 71 18 l119 0 q1 -16 4 -31 q4 -16 9 -30 q-34 -36 -72 -57 q-39 -22 -73 -22 l0 0 Z" /><glyph glyph-name="" unicode="b" d="M281 408 q-43 0 -80 -16 q-37 -16 -66 -44 l0 388 l-62 0 l0 -736 l62 0 l0 52 q29 -28 66 -44 q37 -16 80 -16 q88 2 147 61 q59 59 61 147 q-2 88 -61 147 q-59 59 -147 61 l0 0 ZM281 54 q-62 2 -103 43 q-41 41 -43 103 q2 62 43 103 q41 41 103 43 q62 -2 103 -43 q41 -41 43 -103 q-2 -62 -43 -103 q-41 -41 -103 -43 l0 0 Z" /><glyph glyph-name="" unicode="c" d="M253 -8 q71 1 124 41 q53 39 74 103 l-66 0 q-19 -37 -53 -59 q-35 -22 -79 -23 q-62 1 -103 42 q-41 41 -43 104 q2 63 43 104 q41 41 103 42 q44 -1 79 -23 q34 -22 53 -59 l66 0 q-21 64 -74 104 q-53 39 -124 40 q-88 -2 -147 -61 q-59 -59 -61 -147 q2 -88 61 -147 q59 -59 147 -61 l0 0 Z" /><glyph glyph-name="" unicode="&#x107;" d="M232 455 l42 0 l118 148 l-72 0 l-88 -148 ZM253 -8 q71 1 124 41 q53 39 74 103 l-66 0 q-19 -37 -53 -59 q-35 -22 -79 -23 q-62 1 -103 42 q-41 41 -43 104 q2 63 43 104 q41 41 103 42 q44 -1 79 -23 q34 -22 53 -59 l66 0 q-21 64 -74 104 q-53 39 -124 40 q-88 -2 -147 -61 q-59 -59 -61 -147 q2 -88 61 -147 q59 -59 147 -61 l0 0 Z" /><glyph glyph-name="" unicode="&#x10d;" d="M225 455 l64 0 l79 148 l-49 0 l-62 -106 l-62 106 l-48 0 l78 -148 ZM253 -8 q71 1 124 41 q53 39 74 103 l-66 0 q-19 -37 -53 -59 q-35 -22 -79 -23 q-62 1 -103 42 q-41 41 -43 104 q2 63 43 104 q41 41 103 42 q44 -1 79 -23 q34 -22 53 -59 l66 0 q-21 64 -74 104 q-53 39 -124 40 q-88 -2 -147 -61 q-59 -59 -61 -147 q2 -88 61 -147 q59 -59 147 -61 l0 0 Z" /><glyph glyph-name="" unicode="ç" d="M253 54 q-62 1 -103 42 q-41 41 -43 104 q2 63 43 104 q41 41 103 42 q44 -1 79 -23 q34 -22 53 -59 l66 0 q-21 64 -74 104 q-53 39 -124 40 q-88 -2 -147 -61 q-59 -59 -61 -147 q2 -84 55 -141 q54 -57 135 -66 l-31 -63 l30 -20 q34 12 56 2 q22 -10 23 -37 q0 -20 -13 -33 q-13 -13 -32 -13 q-16 0 -32 9 q-16 8 -26 20 l-34 -14 q12 -22 38 -37 q26 -14 54 -15 q36 1 59 24 q22 24 23 59 q-1 38 -29 59 q-28 20 -70 13 l23 46 q63 7 110 45 q47 39 67 98 l-66 0 q-19 -37 -53 -59 q-35 -22 -79 -23 l0 0 Z" /><glyph glyph-name="" unicode="&#x10b;" d="M257 463 q18 0 30 13 q12 12 13 30 q-1 18 -13 31 q-12 12 -30 12 q-18 0 -30 -12 q-12 -13 -13 -31 q1 -18 13 -30 q12 -13 30 -13 l0 0 ZM253 -8 q71 1 124 41 q53 39 74 103 l-66 0 q-19 -37 -53 -59 q-35 -22 -79 -23 q-62 1 -103 42 q-41 41 -43 104 q2 63 43 104 q41 41 103 42 q44 -1 79 -23 q34 -22 53 -59 l66 0 q-21 64 -74 104 q-53 39 -124 40 q-88 -2 -147 -61 q-59 -59 -61 -147 q2 -88 61 -147 q59 -59 147 -61 l0 0 Z" /><glyph glyph-name="" unicode="d" d="M399 736 l0 -388 q-29 28 -66 44 q-37 16 -80 16 q-88 -2 -147 -61 q-59 -59 -61 -147 q2 -88 61 -147 q59 -59 147 -61 q43 0 80 16 q37 16 66 44 l0 -52 l62 0 l0 736 l-62 0 ZM253 54 q-62 2 -103 43 q-41 41 -43 103 q2 62 43 103 q41 41 103 43 q62 -2 103 -43 q41 -41 43 -103 q-2 -62 -43 -103 q-41 -41 -103 -43 l0 0 Z" /><glyph glyph-name="" unicode="ð" d="M328 546 l36 46 l-31 24 l-37 -46 q-32 20 -67 30 q-35 10 -73 10 l-12 -51 q31 -1 61 -8 q30 -8 57 -24 l-42 -53 l32 -26 l44 56 q29 -23 52 -57 q23 -34 39 -79 q-27 19 -59 29 q-33 11 -68 11 q-92 -2 -152 -61 q-61 -59 -63 -147 q2 -88 63 -147 q60 -59 152 -61 q91 2 151 61 q61 59 63 147 q-1 111 -40 201 q-38 90 -106 145 l0 0 ZM260 53 q-63 2 -104 43 q-41 42 -43 104 q2 62 43 104 q41 41 104 43 q62 -2 103 -43 q41 -42 43 -104 q-2 -62 -43 -104 q-41 -41 -103 -43 l0 0 Z" /><glyph glyph-name="" unicode="&#x10f;" d="M399 348 q-29 28 -66 44 q-37 16 -80 16 q-88 -2 -147 -61 q-59 -59 -61 -147 q2 -88 61 -147 q59 -59 147 -61 q43 0 80 16 q37 16 66 44 l0 -52 l62 0 l0 736 l-62 0 l0 -388 ZM574 736 l-65 -241 l45 0 l91 241 l-71 0 ZM253 54 q-62 2 -103 43 q-41 41 -43 103 q2 62 43 103 q41 41 103 43 q62 -2 103 -43 q41 -41 43 -103 q-2 -62 -43 -103 q-41 -41 -103 -43 l0 0 Z" /><glyph glyph-name="" unicode="&#x111;" d="M515 583 l-54 0 l0 153 l-62 0 l0 -153 l-116 0 l0 -60 l116 0 l0 -175 q-29 28 -66 44 q-37 16 -80 16 q-88 -2 -147 -61 q-59 -59 -61 -147 q2 -88 61 -147 q59 -59 147 -61 q43 0 80 16 q37 16 66 44 l0 -52 l62 0 l0 523 l54 0 l0 60 ZM253 54 q-62 2 -103 43 q-41 41 -43 103 q2 62 43 103 q41 41 103 43 q62 -2 103 -43 q41 -41 43 -103 q-2 -62 -43 -103 q-41 -41 -103 -43 l0 0 Z" /><glyph glyph-name="" unicode="e" d="M461 204 q-4 88 -62 145 q-58 57 -146 59 q-88 -2 -147 -61 q-59 -59 -61 -147 q2 -88 61 -147 q59 -59 147 -61 q72 1 126 42 q53 41 74 107 l-66 0 q-17 -40 -53 -63 q-35 -23 -81 -24 q-61 1 -101 40 q-41 38 -45 97 l353 0 l1 13 ZM253 346 q49 -1 85 -28 q37 -27 52 -71 l-275 0 q16 44 53 71 q36 27 85 28 l0 0 Z" /><glyph glyph-name="" unicode="é" d="M392 604 l-72 0 l-88 -148 l42 0 l118 148 ZM461 204 q-4 88 -62 145 q-58 57 -146 59 q-88 -2 -147 -61 q-59 -59 -61 -147 q2 -88 61 -147 q59 -59 147 -61 q72 1 126 42 q53 41 74 107 l-66 0 q-17 -40 -53 -63 q-35 -23 -81 -24 q-61 1 -101 40 q-41 38 -45 97 l353 0 l1 13 ZM253 346 q49 -1 85 -28 q37 -27 52 -71 l-275 0 q16 44 53 71 q36 27 85 28 l0 0 Z" /><glyph glyph-name="" unicode="&#x11b;" d="M289 456 l79 148 l-49 0 l-62 -106 l-62 106 l-48 0 l78 -148 l64 0 ZM461 204 q-4 88 -62 145 q-58 57 -146 59 q-88 -2 -147 -61 q-59 -59 -61 -147 q2 -88 61 -147 q59 -59 147 -61 q72 1 126 42 q53 41 74 107 l-66 0 q-17 -40 -53 -63 q-35 -23 -81 -24 q-61 1 -101 40 q-41 38 -45 97 l353 0 l1 13 ZM253 346 q49 -1 85 -28 q37 -27 52 -71 l-275 0 q16 44 53 71 q36 27 85 28 l0 0 Z" /><glyph glyph-name="" unicode="ê" d="M257 563 l62 -107 l49 0 l-79 148 l-64 0 l-78 -148 l48 0 l62 107 ZM461 204 q-4 88 -62 145 q-58 57 -146 59 q-88 -2 -147 -61 q-59 -59 -61 -147 q2 -88 61 -147 q59 -59 147 -61 q72 1 126 42 q53 41 74 107 l-66 0 q-17 -40 -53 -63 q-35 -23 -81 -24 q-61 1 -101 40 q-41 38 -45 97 l353 0 l1 13 ZM253 346 q49 -1 85 -28 q37 -27 52 -71 l-275 0 q16 44 53 71 q36 27 85 28 l0 0 Z" /><glyph glyph-name="" unicode="ë" d="M185 479 q18 0 30 12 q12 12 13 30 q-1 19 -13 31 q-12 12 -30 12 q-18 0 -31 -12 q-12 -12 -13 -31 q1 -18 13 -30 q13 -12 31 -12 l0 0 ZM330 479 q18 0 31 12 q12 12 12 30 q0 19 -12 31 q-13 12 -31 12 q-18 0 -30 -12 q-12 -12 -13 -31 q1 -18 13 -30 q12 -12 30 -12 l0 0 ZM461 204 q-4 88 -62 145 q-58 57 -146 59 q-88 -2 -147 -61 q-59 -59 -61 -147 q2 -88 61 -147 q59 -59 147 -61 q72 1 126 42 q53 41 74 107 l-66 0 q-17 -40 -53 -63 q-35 -23 -81 -24 q-61 1 -101 40 q-41 38 -45 97 l353 0 l1 13 ZM253 346 q49 -1 85 -28 q37 -27 52 -71 l-275 0 q16 44 53 71 q36 27 85 28 l0 0 Z" /><glyph glyph-name="" unicode="&#x117;" d="M257 464 q18 0 30 13 q12 12 13 30 q-1 18 -13 31 q-12 12 -30 12 q-18 0 -30 -12 q-12 -13 -13 -31 q1 -18 13 -30 q12 -13 30 -13 l0 0 ZM461 204 q-4 88 -62 145 q-58 57 -146 59 q-88 -2 -147 -61 q-59 -59 -61 -147 q2 -88 61 -147 q59 -59 147 -61 q72 1 126 42 q53 41 74 107 l-66 0 q-17 -40 -53 -63 q-35 -23 -81 -24 q-61 1 -101 40 q-41 38 -45 97 l353 0 l1 13 ZM253 346 q49 -1 85 -28 q37 -27 52 -71 l-275 0 q16 44 53 71 q36 27 85 28 l0 0 Z" /><glyph glyph-name="" unicode="è" d="M282 456 l-88 148 l-72 0 l118 -148 l42 0 ZM461 204 q-4 88 -62 145 q-58 57 -146 59 q-88 -2 -147 -61 q-59 -59 -61 -147 q2 -88 61 -147 q59 -59 147 -61 q72 1 126 42 q53 41 74 107 l-66 0 q-17 -40 -53 -63 q-35 -23 -81 -24 q-61 1 -101 40 q-41 38 -45 97 l353 0 l1 13 ZM253 346 q49 -1 85 -28 q37 -27 52 -71 l-275 0 q16 44 53 71 q36 27 85 28 l0 0 Z" /><glyph glyph-name="" unicode="&#x113;" d="M364 529 l-215 0 l0 -42 l215 0 l0 42 ZM461 204 q-4 88 -62 145 q-58 57 -146 59 q-88 -2 -147 -61 q-59 -59 -61 -147 q2 -88 61 -147 q59 -59 147 -61 q72 1 126 42 q53 41 74 107 l-66 0 q-17 -40 -53 -63 q-35 -23 -81 -24 q-61 1 -101 40 q-41 38 -45 97 l353 0 l1 13 ZM253 346 q49 -1 85 -28 q37 -27 52 -71 l-275 0 q16 44 53 71 q36 27 85 28 l0 0 Z" /><glyph glyph-name="" unicode="&#x119;" d="M461 204 q-4 88 -62 145 q-58 57 -146 59 q-88 -2 -147 -61 q-59 -59 -61 -147 q2 -88 61 -147 q59 -59 147 -61 l9 0 q-25 -20 -40 -43 q-15 -24 -15 -53 q1 -38 24 -60 q24 -21 65 -23 q30 -2 57 8 q26 10 49 32 l-22 31 q-14 -18 -33 -27 q-19 -10 -42 -10 q-26 0 -40 15 q-14 15 -14 39 q1 35 23 60 q22 25 56 46 q45 18 77 53 q31 35 46 81 l-66 0 q-17 -40 -53 -63 q-35 -23 -81 -24 q-61 1 -101 40 q-41 38 -45 97 l353 0 l1 13 ZM253 346 q49 -1 85 -28 q37 -27 52 -71 l-275 0 q16 44 53 71 q36 27 85 28 l0 0 Z" /><glyph glyph-name="" unicode="f" d="M265 400 l-107 0 l0 215 q1 28 18 44 q17 17 42 17 l46 -1 l0 48 q-9 5 -23 9 q-15 4 -30 4 q-48 -1 -81 -33 q-33 -32 -34 -80 l0 -223 l-67 0 l0 -60 l67 0 l0 -340 l62 0 l0 340 l107 0 l0 60 Z" /><glyph glyph-name="" unicode="g" d="M398 400 l0 -50 q-28 27 -65 43 q-38 15 -80 15 q-88 -2 -147 -60 q-59 -59 -61 -148 q2 -88 61 -147 q59 -59 147 -61 q43 0 80 16 q37 16 66 44 l0 -87 q-2 -62 -43 -103 q-41 -41 -103 -43 q-50 1 -87 29 q-37 28 -52 72 l-57 -25 q23 -62 75 -99 q52 -38 121 -39 q88 2 147 61 q59 59 61 147 l0 435 l-63 0 ZM253 54 q-62 2 -103 43 q-41 41 -43 103 q2 62 43 103 q41 41 103 43 q62 -2 103 -43 q41 -41 43 -103 q-2 -62 -43 -103 q-41 -41 -103 -43 l0 0 Z" /><glyph glyph-name="" unicode="&#x11f;" d="M252 453 q58 1 95 33 q36 33 37 89 l-39 0 q-1 -35 -26 -58 q-26 -23 -67 -24 q-41 1 -66 24 q-25 23 -26 58 l-39 0 q1 -56 37 -89 q37 -32 94 -33 l0 0 ZM398 400 l0 -50 q-28 27 -65 43 q-38 15 -80 15 q-88 -2 -147 -60 q-59 -59 -61 -148 q2 -88 61 -147 q59 -59 147 -61 q43 0 80 16 q37 16 66 44 l0 -87 q-2 -62 -43 -103 q-41 -41 -103 -43 q-50 1 -87 29 q-37 28 -52 72 l-57 -25 q23 -62 75 -99 q52 -38 121 -39 q88 2 147 61 q59 59 61 147 l0 435 l-63 0 ZM253 54 q-62 2 -103 43 q-41 41 -43 103 q2 62 43 103 q41 41 103 43 q62 -2 103 -43 q41 -41 43 -103 q-2 -62 -43 -103 q-41 -41 -103 -43 l0 0 Z" /><glyph glyph-name="" unicode="&#x123;" d="M349 596 l-44 0 l-94 -141 l78 0 l60 141 ZM398 400 l0 -50 q-28 27 -65 43 q-38 15 -80 15 q-88 -2 -147 -60 q-59 -59 -61 -148 q2 -88 61 -147 q59 -59 147 -61 q43 0 80 16 q37 16 66 44 l0 -87 q-2 -62 -43 -103 q-41 -41 -103 -43 q-50 1 -87 29 q-37 28 -52 72 l-57 -25 q23 -62 75 -99 q52 -38 121 -39 q88 2 147 61 q59 59 61 147 l0 435 l-63 0 ZM253 54 q-62 2 -103 43 q-41 41 -43 103 q2 62 43 103 q41 41 103 43 q62 -2 103 -43 q41 -41 43 -103 q-2 -62 -43 -103 q-41 -41 -103 -43 l0 0 Z" /><glyph glyph-name="" unicode="&#x121;" d="M253 460 q18 0 30 13 q12 12 13 30 q-1 18 -13 31 q-12 12 -30 12 q-18 0 -30 -12 q-12 -13 -13 -31 q1 -18 13 -30 q12 -13 30 -13 l0 0 ZM398 400 l0 -50 q-28 27 -65 43 q-38 15 -80 15 q-88 -2 -147 -60 q-59 -59 -61 -148 q2 -88 61 -147 q59 -59 147 -61 q43 0 80 16 q37 16 66 44 l0 -87 q-2 -62 -43 -103 q-41 -41 -103 -43 q-50 1 -87 29 q-37 28 -52 72 l-57 -25 q23 -62 75 -99 q52 -38 121 -39 q88 2 147 61 q59 59 61 147 l0 435 l-63 0 ZM253 54 q-62 2 -103 43 q-41 41 -43 103 q2 62 43 103 q41 41 103 43 q62 -2 103 -43 q41 -41 43 -103 q-2 -62 -43 -103 q-41 -41 -103 -43 l0 0 Z" /><glyph glyph-name="" unicode="h" d="M224 408 q-25 0 -47 -8 q-23 -7 -42 -21 l0 357 l-62 0 l0 -736 l62 0 l0 256 q1 39 26 64 q25 25 63 26 q38 -1 63 -26 q26 -25 27 -64 l0 -256 l61 0 l0 256 q-2 65 -44 108 q-42 42 -107 44 l0 0 Z" /><glyph glyph-name="" unicode="&#x127;" d="M224 408 q-25 0 -47 -8 q-23 -7 -42 -21 l0 150 l115 0 l0 60 l-115 0 l0 147 l-62 0 l0 -147 l-55 0 l0 -60 l55 0 l0 -529 l62 0 l0 256 q1 39 26 64 q25 25 63 26 q38 -1 63 -26 q26 -25 27 -64 l0 -256 l61 0 l0 256 q-2 65 -44 108 q-42 42 -107 44 l0 0 Z" /><glyph glyph-name="" unicode="i" d="M112 475 q18 0 30 12 q12 12 13 30 q-1 19 -13 31 q-12 12 -30 12 q-18 0 -31 -12 q-12 -12 -13 -31 q1 -18 13 -30 q13 -12 31 -12 l0 0 ZM81 0 l62 0 l0 400 l-62 0 l0 -400 Z" /><glyph glyph-name="" unicode="&#x131;" d="M79 0 l62 0 l0 400 l-62 0 l0 -400 Z" /><glyph glyph-name="" unicode="í" d="M85 452 l42 0 l118 148 l-72 0 l-88 -148 ZM79 0 l62 0 l0 400 l-62 0 l0 -400 Z" /><glyph glyph-name="" unicode="&#x1d0;" d="M78 452 l64 0 l79 148 l-49 0 l-62 -106 l-62 106 l-48 0 l78 -148 ZM79 0 l62 0 l0 400 l-62 0 l0 -400 Z" /><glyph glyph-name="" unicode="î" d="M48 452 l62 107 l62 -107 l49 0 l-79 148 l-64 0 l-78 -148 l48 0 ZM79 0 l62 0 l0 400 l-62 0 l0 -400 Z" /><glyph glyph-name="" unicode="ï" d="M38 475 q18 0 30 12 q12 12 13 30 q-1 19 -13 31 q-12 12 -30 12 q-18 0 -31 -12 q-12 -12 -13 -31 q1 -18 13 -30 q13 -12 31 -12 l0 0 ZM183 475 q18 0 31 12 q12 12 12 30 q0 19 -12 31 q-13 12 -31 12 q-18 0 -30 -12 q-12 -12 -13 -31 q1 -18 13 -30 q12 -12 30 -12 l0 0 ZM79 0 l62 0 l0 400 l-62 0 l0 -400 Z" /><glyph glyph-name="" unicode="ì" d="M135 452 l-88 148 l-72 0 l118 -148 l42 0 ZM79 0 l62 0 l0 400 l-62 0 l0 -400 Z" /><glyph glyph-name="" unicode="&#x12b;" d="M2 483 l215 0 l0 42 l-215 0 l0 -42 ZM79 0 l62 0 l0 400 l-62 0 l0 -400 Z" /><glyph glyph-name="" unicode="&#x12f;" d="M110 460 q18 0 30 13 q12 12 13 30 q-1 18 -13 31 q-12 12 -30 12 q-18 0 -30 -12 q-12 -13 -13 -31 q1 -18 13 -30 q12 -13 30 -13 l0 0 ZM163 -136 q-14 -18 -33 -27 q-19 -10 -42 -10 q-26 0 -40 15 q-14 15 -14 39 q1 41 31 69 q29 27 70 50 l6 0 l0 400 l-62 0 l0 -400 l5 0 q-41 -26 -67 -56 q-26 -29 -27 -68 q1 -38 24 -60 q24 -21 65 -23 q30 -2 57 8 q26 10 49 32 l-22 31 Z" /><glyph glyph-name="" unicode="j" d="M112 475 q18 0 30 12 q12 12 13 30 q-1 19 -13 31 q-12 12 -30 12 q-18 0 -30 -12 q-12 -12 -13 -31 q1 -18 13 -30 q12 -12 30 -12 l0 0 ZM29 -240 q48 1 80 33 q33 32 34 80 l0 527 l-62 0 l0 -519 q-1 -28 -18 -44 q-17 -17 -42 -17 l-45 1 l0 -48 q8 -5 22 -9 q15 -4 31 -4 l0 0 Z" /><glyph glyph-name="" unicode="&#x237;" d="M21 -240 q49 1 81 33 q33 32 34 80 l0 527 l-62 0 l0 -519 q-1 -28 -18 -44 q-17 -17 -42 -17 l-45 1 l0 -48 q8 -5 22 -9 q15 -4 30 -4 l0 0 Z" /><glyph glyph-name="" unicode="k" d="M423 0 l-203 222 l186 178 l-83 0 l-182 -175 l0 511 l-62 0 l0 -736 l62 0 l0 223 l197 -223 l85 0 Z" /><glyph glyph-name="" unicode="&#x137;" d="M220 222 l186 178 l-83 0 l-182 -175 l0 511 l-62 0 l0 -736 l62 0 l0 223 l197 -223 l85 0 l-203 222 ZM118 -189 l44 0 l94 141 l-78 0 l-60 -141 Z" /><glyph glyph-name="" unicode="l" d="M73 0 l62 0 l0 736 l-62 0 l0 -736 Z" /><glyph glyph-name="" unicode="&#x13a;" d="M79 788 l42 0 l118 148 l-72 0 l-88 -148 ZM73 0 l62 0 l0 736 l-62 0 l0 -736 Z" /><glyph glyph-name="" unicode="&#x13e;" d="M73 0 l62 0 l0 736 l-62 0 l0 -736 ZM222 495 l91 241 l-71 0 l-65 -241 l45 0 Z" /><glyph glyph-name="" unicode="&#x13c;" d="M73 0 l62 0 l0 736 l-62 0 l0 -736 ZM49 -189 l94 141 l-78 0 l-60 -141 l44 0 Z" /><glyph glyph-name="" unicode="&#x140;" d="M73 0 l62 0 l0 736 l-62 0 l0 -736 ZM207 253 q15 0 25 10 q11 10 11 25 q0 15 -11 25 q-10 10 -25 10 q-15 0 -25 -10 q-10 -10 -10 -25 q0 -15 10 -25 q10 -10 25 -10 l0 0 Z" /><glyph glyph-name="" unicode="&#x142;" d="M228 466 l-35 29 l-58 -62 l0 303 l-62 0 l0 -369 l-93 -99 l34 -29 l59 63 l0 -302 l62 0 l0 367 l93 99 Z" /><glyph glyph-name="" unicode="m" d="M456 408 q-36 0 -66 -16 q-30 -16 -51 -44 q-21 28 -50 44 q-29 16 -61 16 q-27 0 -51 -12 q-24 -12 -42 -33 l0 37 l-62 0 l0 -400 l62 0 l0 256 q1 38 25 64 q24 25 62 26 q36 -1 61 -26 q24 -26 25 -64 l0 -256 l62 0 l0 256 q1 38 25 64 q25 25 61 26 q37 -1 62 -26 q24 -26 25 -64 l0 -256 l62 0 l0 256 q-2 65 -43 108 q-42 42 -106 44 l0 0 Z" /><glyph glyph-name="" unicode="n" d="M232 408 q-28 0 -53 -11 q-24 -10 -44 -29 l0 32 l-62 0 l0 -400 l62 0 l0 255 q1 39 27 65 q26 25 65 26 q39 -1 65 -26 q25 -26 26 -65 l0 -255 l62 0 l0 255 q-2 65 -45 108 q-43 43 -103 45 l0 0 Z" /><glyph glyph-name="" unicode="&#x144;" d="M362 600 l-72 0 l-88 -148 l42 0 l118 148 ZM232 408 q-28 0 -53 -11 q-24 -10 -44 -29 l0 32 l-62 0 l0 -400 l62 0 l0 255 q1 39 27 65 q26 25 65 26 q39 -1 65 -26 q25 -26 26 -65 l0 -255 l62 0 l0 255 q-2 65 -45 108 q-43 43 -103 45 l0 0 Z" /><glyph glyph-name="" unicode="&#x148;" d="M259 452 l79 148 l-49 0 l-62 -106 l-62 106 l-48 0 l78 -148 l64 0 ZM232 408 q-28 0 -53 -11 q-24 -10 -44 -29 l0 32 l-62 0 l0 -400 l62 0 l0 255 q1 39 27 65 q26 25 65 26 q39 -1 65 -26 q25 -26 26 -65 l0 -255 l62 0 l0 255 q-2 65 -45 108 q-43 43 -103 45 l0 0 Z" /><glyph glyph-name="" unicode="&#x146;" d="M232 408 q-28 0 -53 -11 q-24 -10 -44 -29 l0 32 l-62 0 l0 -400 l62 0 l0 255 q1 39 27 65 q26 25 65 26 q39 -1 65 -26 q25 -26 26 -65 l0 -255 l62 0 l0 255 q-2 65 -45 108 q-43 43 -103 45 l0 0 ZM129 -189 l44 0 l94 141 l-78 0 l-60 -141 Z" /><glyph glyph-name="" unicode="&#x14b;" d="M232 408 q-28 0 -53 -11 q-24 -10 -44 -29 l0 32 l-62 0 l0 -400 l62 0 l0 255 q1 39 27 65 q26 25 65 26 q39 -1 65 -26 q25 -26 26 -65 l0 -369 q-1 -37 -15 -49 q-14 -12 -36 -10 l0 -42 q58 -1 85 24 q28 26 28 87 l0 359 q-2 65 -45 108 q-43 43 -103 45 l0 0 Z" /><glyph glyph-name="" unicode="ñ" d="M174 533 q10 0 18 -5 q8 -4 15 -17 q11 -17 28 -30 q18 -13 45 -14 q41 1 63 32 q22 30 22 76 l-46 0 q0 -31 -10 -46 q-10 -16 -29 -16 q-13 0 -21 7 q-8 6 -14 15 q-12 19 -30 31 q-17 13 -43 13 q-39 -1 -61 -31 q-23 -30 -23 -77 l46 0 q0 27 10 44 q10 17 30 18 l0 0 ZM232 408 q-28 0 -53 -11 q-24 -10 -44 -29 l0 32 l-62 0 l0 -400 l62 0 l0 255 q1 39 27 65 q26 25 65 26 q39 -1 65 -26 q25 -26 26 -65 l0 -255 l62 0 l0 255 q-2 65 -45 108 q-43 43 -103 45 l0 0 Z" /><glyph glyph-name="" unicode="o" d="M253 -8 q88 2 147 61 q59 59 61 147 q-2 88 -61 147 q-59 59 -147 61 q-88 -2 -147 -61 q-59 -59 -61 -147 q2 -88 61 -147 q59 -59 147 -61 l0 0 ZM253 54 q-62 2 -103 43 q-41 41 -43 103 q2 62 43 103 q41 41 103 43 q62 -2 103 -43 q41 -41 43 -103 q-2 -62 -43 -103 q-41 -41 -103 -43 l0 0 Z" /><glyph glyph-name="" unicode="ó" d="M228 452 l42 0 l118 148 l-72 0 l-88 -148 ZM253 -8 q88 2 147 61 q59 59 61 147 q-2 88 -61 147 q-59 59 -147 61 q-88 -2 -147 -61 q-59 -59 -61 -147 q2 -88 61 -147 q59 -59 147 -61 l0 0 ZM253 54 q-62 2 -103 43 q-41 41 -43 103 q2 62 43 103 q41 41 103 43 q62 -2 103 -43 q41 -41 43 -103 q-2 -62 -43 -103 q-41 -41 -103 -43 l0 0 Z" /><glyph glyph-name="" unicode="&#x1d2;" d="M221 452 l64 0 l79 148 l-49 0 l-62 -106 l-62 106 l-48 0 l78 -148 ZM253 -8 q88 2 147 61 q59 59 61 147 q-2 88 -61 147 q-59 59 -147 61 q-88 -2 -147 -61 q-59 -59 -61 -147 q2 -88 61 -147 q59 -59 147 -61 l0 0 ZM253 54 q-62 2 -103 43 q-41 41 -43 103 q2 62 43 103 q41 41 103 43 q62 -2 103 -43 q41 -41 43 -103 q-2 -62 -43 -103 q-41 -41 -103 -43 l0 0 Z" /><glyph glyph-name="" unicode="ô" d="M191 452 l62 107 l62 -107 l49 0 l-79 148 l-64 0 l-78 -148 l48 0 ZM253 -8 q88 2 147 61 q59 59 61 147 q-2 88 -61 147 q-59 59 -147 61 q-88 -2 -147 -61 q-59 -59 -61 -147 q2 -88 61 -147 q59 -59 147 -61 l0 0 ZM253 54 q-62 2 -103 43 q-41 41 -43 103 q2 62 43 103 q41 41 103 43 q62 -2 103 -43 q41 -41 43 -103 q-2 -62 -43 -103 q-41 -41 -103 -43 l0 0 Z" /><glyph glyph-name="" unicode="ö" d="M181 475 q18 0 30 12 q12 12 13 30 q-1 19 -13 31 q-12 12 -30 12 q-18 0 -31 -12 q-12 -12 -13 -31 q1 -18 13 -30 q13 -12 31 -12 l0 0 ZM326 475 q18 0 31 12 q12 12 12 30 q0 19 -12 31 q-13 12 -31 12 q-18 0 -30 -12 q-12 -12 -13 -31 q1 -18 13 -30 q12 -12 30 -12 l0 0 ZM253 -8 q88 2 147 61 q59 59 61 147 q-2 88 -61 147 q-59 59 -147 61 q-88 -2 -147 -61 q-59 -59 -61 -147 q2 -88 61 -147 q59 -59 147 -61 l0 0 ZM253 54 q-62 2 -103 43 q-41 41 -43 103 q2 62 43 103 q41 41 103 43 q62 -2 103 -43 q41 -41 43 -103 q-2 -62 -43 -103 q-41 -41 -103 -43 l0 0 Z" /><glyph glyph-name="" unicode="ò" d="M278 452 l-88 148 l-72 0 l118 -148 l42 0 ZM253 -8 q88 2 147 61 q59 59 61 147 q-2 88 -61 147 q-59 59 -147 61 q-88 -2 -147 -61 q-59 -59 -61 -147 q2 -88 61 -147 q59 -59 147 -61 l0 0 ZM253 54 q-62 2 -103 43 q-41 41 -43 103 q2 62 43 103 q41 41 103 43 q62 -2 103 -43 q41 -41 43 -103 q-2 -62 -43 -103 q-41 -41 -103 -43 l0 0 Z" /><glyph glyph-name="" unicode="&#x151;" d="M161 452 l42 0 l117 148 l-72 0 l-87 -148 ZM291 452 l42 0 l117 148 l-72 0 l-87 -148 ZM253 -8 q88 2 147 61 q59 59 61 147 q-2 88 -61 147 q-59 59 -147 61 q-88 -2 -147 -61 q-59 -59 -61 -147 q2 -88 61 -147 q59 -59 147 -61 l0 0 ZM253 54 q-62 2 -103 43 q-41 41 -43 103 q2 62 43 103 q41 41 103 43 q62 -2 103 -43 q41 -41 43 -103 q-2 -62 -43 -103 q-41 -41 -103 -43 l0 0 Z" /><glyph glyph-name="" unicode="&#x14d;" d="M145 483 l215 0 l0 42 l-215 0 l0 -42 ZM253 -8 q88 2 147 61 q59 59 61 147 q-2 88 -61 147 q-59 59 -147 61 q-88 -2 -147 -61 q-59 -59 -61 -147 q2 -88 61 -147 q59 -59 147 -61 l0 0 ZM253 54 q-62 2 -103 43 q-41 41 -43 103 q2 62 43 103 q41 41 103 43 q62 -2 103 -43 q41 -41 43 -103 q-2 -62 -43 -103 q-41 -41 -103 -43 l0 0 Z" /><glyph glyph-name="" unicode="ø" d="M388 359 l36 52 l-32 20 l-35 -51 q-23 14 -49 21 q-26 7 -55 7 q-88 -2 -147 -61 q-59 -59 -61 -147 q0 -48 20 -89 q20 -41 55 -71 l-37 -52 l32 -20 l36 51 q23 -13 48 -20 q26 -7 54 -7 q88 2 147 61 q59 59 61 147 q0 48 -20 89 q-20 41 -53 70 l0 0 ZM107 200 q2 62 43 103 q41 41 103 43 q18 0 36 -4 q17 -5 32 -13 l-166 -238 q-22 21 -35 49 q-13 28 -13 60 l0 0 ZM253 54 q-18 0 -35 4 q-17 4 -32 12 l166 237 q22 -20 34 -47 q13 -28 13 -60 q-2 -62 -43 -103 q-41 -41 -103 -43 l0 0 Z" /><glyph glyph-name="" unicode="õ" d="M306 467 q41 1 63 32 q22 30 22 76 l-46 0 q0 -31 -10 -46 q-10 -16 -29 -16 q-13 0 -21 7 q-8 6 -14 15 q-12 19 -30 31 q-17 13 -43 13 q-39 -1 -61 -31 q-23 -30 -23 -77 l46 0 q0 27 10 44 q10 17 30 18 q10 0 18 -5 q8 -4 15 -17 q11 -17 28 -30 q18 -13 45 -14 l0 0 ZM253 -8 q88 2 147 61 q59 59 61 147 q-2 88 -61 147 q-59 59 -147 61 q-88 -2 -147 -61 q-59 -59 -61 -147 q2 -88 61 -147 q59 -59 147 -61 l0 0 ZM253 54 q-62 2 -103 43 q-41 41 -43 103 q2 62 43 103 q41 41 103 43 q62 -2 103 -43 q41 -41 43 -103 q-2 -62 -43 -103 q-41 -41 -103 -43 l0 0 Z" /><glyph glyph-name="" unicode="&#x153;" d="M817 204 q-4 88 -62 145 q-58 57 -146 59 q-58 -1 -104 -27 q-46 -27 -74 -73 q-28 46 -74 73 q-46 26 -104 27 q-88 -2 -147 -61 q-59 -59 -61 -147 q2 -88 61 -147 q59 -59 147 -61 q58 1 104 28 q46 26 74 72 q28 -46 74 -72 q46 -27 104 -28 q72 1 126 42 q53 41 74 107 l-66 0 q-17 -40 -53 -63 q-35 -23 -81 -24 q-61 1 -101 40 q-41 38 -45 97 l353 0 l1 13 ZM253 54 q-62 2 -103 43 q-41 41 -43 103 q2 62 43 103 q41 41 103 43 q62 -2 103 -43 q41 -41 43 -103 q-2 -62 -43 -103 q-41 -41 -103 -43 l0 0 ZM609 346 q49 -1 85 -28 q37 -27 52 -71 l-275 0 q16 44 53 71 q36 27 85 28 l0 0 Z" /><glyph glyph-name="" unicode="p" d="M281 408 q-43 0 -80 -16 q-37 -16 -66 -44 l0 52 l-62 0 l0 -640 l62 0 l0 292 q29 -28 66 -44 q37 -16 80 -16 q88 2 147 61 q59 59 61 147 q-2 88 -61 147 q-59 59 -147 61 l0 0 ZM281 54 q-62 2 -103 43 q-41 41 -43 103 q2 62 43 103 q41 41 103 43 q62 -2 103 -43 q41 -41 43 -103 q-2 -62 -43 -103 q-41 -41 -103 -43 l0 0 Z" /><glyph glyph-name="" unicode="þ" d="M287 408 q-43 0 -80 -16 q-37 -16 -66 -44 l0 316 l-62 0 l0 -904 l62 0 l0 292 q29 -28 66 -44 q37 -16 80 -16 q88 2 147 61 q59 59 61 147 q-2 88 -61 147 q-59 59 -147 61 l0 0 ZM287 54 q-62 2 -103 43 q-41 41 -43 103 q2 62 43 103 q41 41 103 43 q62 -2 103 -43 q41 -41 43 -103 q-2 -62 -43 -103 q-41 -41 -103 -43 l0 0 Z" /><glyph glyph-name="" unicode="q" d="M521 -180 q-25 0 -42 17 q-17 16 -18 44 l0 519 l-62 0 l0 -52 q-29 28 -66 44 q-37 16 -80 16 q-88 -2 -147 -61 q-59 -59 -61 -147 q2 -88 61 -147 q59 -59 147 -61 q43 0 80 16 q37 16 66 44 l0 -179 q1 -48 34 -80 q33 -32 81 -33 q12 0 24 2 q11 2 20 6 l0 52 l-37 0 ZM253 54 q-62 2 -103 43 q-41 41 -43 103 q2 62 43 103 q41 41 103 43 q62 -2 103 -43 q41 -41 43 -103 q-2 -62 -43 -103 q-41 -41 -103 -43 l0 0 Z" /><glyph glyph-name="" unicode="r" d="M268 408 q-43 0 -77 -17 q-33 -18 -56 -48 l0 57 l-62 0 l0 -400 l62 0 l0 217 q1 56 39 92 q38 36 94 37 q18 0 31 -4 l0 63 q-13 3 -31 3 l0 0 Z" /><glyph glyph-name="" unicode="&#x155;" d="M313 600 l-72 0 l-88 -148 l42 0 l118 148 ZM135 343 l0 57 l-62 0 l0 -400 l62 0 l0 217 q1 56 39 92 q38 36 94 37 q18 0 31 -4 l0 63 q-13 3 -31 3 q-43 0 -77 -17 q-33 -18 -56 -48 l0 0 Z" /><glyph glyph-name="" unicode="&#x159;" d="M210 452 l79 148 l-49 0 l-62 -106 l-62 106 l-48 0 l78 -148 l64 0 ZM268 408 q-43 0 -77 -17 q-33 -18 -56 -48 l0 57 l-62 0 l0 -400 l62 0 l0 217 q1 56 39 92 q38 36 94 37 q18 0 31 -4 l0 63 q-13 3 -31 3 l0 0 Z" /><glyph glyph-name="" unicode="&#x157;" d="M268 408 q-43 0 -77 -17 q-33 -18 -56 -48 l0 57 l-62 0 l0 -400 l62 0 l0 217 q1 56 39 92 q38 36 94 37 q18 0 31 -4 l0 63 q-13 3 -31 3 l0 0 ZM5 -189 l44 0 l94 141 l-78 0 l-60 -141 Z" /><glyph glyph-name="" unicode="s" d="M172 -8 q54 1 90 32 q37 31 38 84 q-2 53 -36 80 q-35 26 -76 41 q-37 15 -55 28 q-19 14 -19 39 q0 25 16 38 q15 12 40 12 q20 0 36 -8 q15 -8 24 -24 l54 28 q-12 28 -45 47 q-33 18 -72 19 q-46 0 -80 -30 q-34 -29 -36 -84 q0 -46 30 -74 q29 -29 83 -48 q36 -13 55 -27 q19 -14 19 -37 q-1 -26 -19 -41 q-19 -14 -47 -14 q-29 0 -51 14 q-23 14 -28 36 l-60 -24 q13 -37 51 -61 q39 -25 88 -26 l0 0 Z" /><glyph glyph-name="" unicode="&#x15b;" d="M149 452 l42 0 l118 148 l-72 0 l-88 -148 ZM172 -8 q54 1 90 32 q37 31 38 84 q-2 53 -36 80 q-35 26 -76 41 q-37 15 -55 28 q-19 14 -19 39 q0 25 16 38 q15 12 40 12 q20 0 36 -8 q15 -8 24 -24 l54 28 q-12 28 -45 47 q-33 18 -72 19 q-46 0 -80 -30 q-34 -29 -36 -84 q0 -46 30 -74 q29 -29 83 -48 q36 -13 55 -27 q19 -14 19 -37 q-1 -26 -19 -41 q-19 -14 -47 -14 q-29 0 -51 14 q-23 14 -28 36 l-60 -24 q13 -37 51 -61 q39 -25 88 -26 l0 0 Z" /><glyph glyph-name="" unicode="&#x161;" d="M142 452 l64 0 l79 148 l-49 0 l-62 -106 l-62 106 l-48 0 l78 -148 ZM172 -8 q54 1 90 32 q37 31 38 84 q-2 53 -36 80 q-35 26 -76 41 q-37 15 -55 28 q-19 14 -19 39 q0 25 16 38 q15 12 40 12 q20 0 36 -8 q15 -8 24 -24 l54 28 q-12 28 -45 47 q-33 18 -72 19 q-46 0 -80 -30 q-34 -29 -36 -84 q0 -46 30 -74 q29 -29 83 -48 q36 -13 55 -27 q19 -14 19 -37 q-1 -26 -19 -41 q-19 -14 -47 -14 q-29 0 -51 14 q-23 14 -28 36 l-60 -24 q13 -37 51 -61 q39 -25 88 -26 l0 0 Z" /><glyph glyph-name="" unicode="&#x15f;" d="M300 108 q-2 53 -36 80 q-35 26 -76 41 q-37 15 -55 28 q-19 14 -19 39 q0 25 16 38 q15 12 40 12 q20 0 36 -8 q15 -8 24 -24 l54 28 q-12 28 -45 47 q-33 18 -72 19 q-46 0 -80 -30 q-34 -29 -36 -84 q0 -46 30 -74 q29 -29 83 -48 q36 -13 55 -27 q19 -14 19 -37 q-1 -26 -19 -41 q-19 -14 -47 -14 q-29 0 -51 14 q-23 14 -28 36 l-60 -24 q11 -32 43 -56 q32 -23 74 -29 l-32 -64 l30 -20 q34 12 56 2 q22 -10 23 -37 q0 -20 -13 -33 q-13 -13 -32 -13 q-16 0 -32 9 q-16 8 -26 20 l-34 -14 q12 -22 38 -37 q26 -14 54 -15 q36 1 59 24 q22 24 23 59 q-1 38 -29 59 q-28 20 -70 13 l22 46 q48 5 80 36 q32 30 33 79 l0 0 Z" /><glyph glyph-name="" unicode="&#x219;" d="M172 -8 q54 1 90 32 q37 31 38 84 q-2 53 -36 80 q-35 26 -76 41 q-37 15 -55 28 q-19 14 -19 39 q0 25 16 38 q15 12 40 12 q20 0 36 -8 q15 -8 24 -24 l54 28 q-12 28 -45 47 q-33 18 -72 19 q-46 0 -80 -30 q-34 -29 -36 -84 q0 -46 30 -74 q29 -29 83 -48 q36 -13 55 -27 q19 -14 19 -37 q-1 -26 -19 -41 q-19 -14 -47 -14 q-29 0 -51 14 q-23 14 -28 36 l-60 -24 q13 -37 51 -61 q39 -25 88 -26 l0 0 ZM117 -189 l94 141 l-78 0 l-60 -141 l44 0 Z" /><glyph glyph-name="" unicode="ß" d="M382 306 q30 23 47 57 q17 33 17 74 q-1 72 -50 117 q-50 45 -129 46 q-82 -1 -134 -48 q-52 -47 -54 -122 l0 -430 l62 0 l0 430 q1 51 36 82 q35 32 90 33 q54 -1 87 -31 q32 -30 33 -78 q-1 -48 -32 -80 q-31 -32 -79 -33 l-20 0 l0 -52 l47 0 q49 -1 82 -33 q32 -32 33 -80 q-1 -46 -31 -70 q-30 -24 -73 -24 l-106 0 l0 -64 l116 0 q66 1 111 43 q44 43 46 112 q-1 52 -27 91 q-27 39 -72 60 l0 0 Z" /><glyph glyph-name="" unicode="t" d="M257 340 l0 60 l-107 0 l0 174 l-62 0 l0 -174 l-67 0 l0 -60 l67 0 l0 -235 q1 -48 34 -80 q33 -32 81 -33 q15 0 30 4 q14 4 23 9 l0 47 l-46 0 q-25 0 -42 17 q-17 16 -18 44 l0 227 l107 0 Z" /><glyph glyph-name="" unicode="&#x167;" d="M257 340 l0 60 l-107 0 l0 174 l-62 0 l0 -174 l-67 0 l0 -60 l67 0 l0 -109 l-68 0 l0 -60 l68 0 l0 -66 q1 -48 34 -80 q33 -32 81 -33 q15 0 30 4 q14 4 23 9 l0 47 l-46 0 q-25 0 -42 17 q-17 16 -18 44 l0 58 l102 0 l0 60 l-102 0 l0 109 l107 0 Z" /><glyph glyph-name="" unicode="&#x165;" d="M297 672 l-65 -241 l45 0 l91 241 l-71 0 ZM150 574 l-62 0 l0 -174 l-67 0 l0 -60 l67 0 l0 -235 q1 -48 34 -80 q33 -32 81 -33 q15 0 30 4 q14 4 23 9 l0 47 l-46 0 q-25 0 -42 17 q-17 16 -18 44 l0 227 l107 0 l0 60 l-107 0 l0 174 Z" /><glyph glyph-name="" unicode="&#x163;" d="M196 -53 l23 46 q11 2 21 5 q10 3 16 7 l0 47 l-46 0 q-25 0 -42 17 q-17 16 -18 44 l0 227 l107 0 l0 60 l-107 0 l0 174 l-62 0 l0 -174 l-67 0 l0 -60 l67 0 l0 -235 q1 -42 27 -72 q26 -31 66 -39 l-32 -64 l30 -20 q34 12 56 2 q22 -10 23 -37 q0 -20 -13 -33 q-13 -13 -32 -13 q-16 0 -32 9 q-16 8 -26 20 l-34 -14 q12 -22 38 -37 q26 -14 54 -15 q36 1 59 24 q22 24 23 59 q-1 38 -29 59 q-28 20 -70 13 l0 0 Z" /><glyph glyph-name="" unicode="&#x21b;" d="M257 340 l0 60 l-107 0 l0 174 l-62 0 l0 -174 l-67 0 l0 -60 l67 0 l0 -235 q1 -48 34 -80 q33 -32 81 -33 q15 0 30 4 q14 4 23 9 l0 47 l-46 0 q-25 0 -42 17 q-17 16 -18 44 l0 227 l107 0 ZM104 -189 l44 0 l94 141 l-78 0 l-60 -141 Z" /><glyph glyph-name="" unicode="u" d="M210 -8 q68 1 108 41 q41 40 42 111 l0 256 l-61 0 l0 -249 q-1 -45 -25 -71 q-24 -26 -64 -26 q-39 0 -64 26 q-24 26 -25 71 l0 249 l-61 0 l0 -256 q1 -71 41 -111 q41 -40 109 -41 l0 0 Z" /><glyph glyph-name="" unicode="ú" d="M187 452 l42 0 l118 148 l-72 0 l-88 -148 ZM210 -8 q68 1 108 41 q41 40 42 111 l0 256 l-61 0 l0 -249 q-1 -45 -25 -71 q-24 -26 -64 -26 q-39 0 -64 26 q-24 26 -25 71 l0 249 l-61 0 l0 -256 q1 -71 41 -111 q41 -40 109 -41 l0 0 Z" /><glyph glyph-name="" unicode="&#x1d4;" d="M180 452 l64 0 l79 148 l-49 0 l-62 -106 l-62 106 l-48 0 l78 -148 ZM210 -8 q68 1 108 41 q41 40 42 111 l0 256 l-61 0 l0 -249 q-1 -45 -25 -71 q-24 -26 -64 -26 q-39 0 -64 26 q-24 26 -25 71 l0 249 l-61 0 l0 -256 q1 -71 41 -111 q41 -40 109 -41 l0 0 Z" /><glyph glyph-name="" unicode="û" d="M150 452 l62 107 l62 -107 l49 0 l-79 148 l-64 0 l-78 -148 l48 0 ZM210 -8 q68 1 108 41 q41 40 42 111 l0 256 l-61 0 l0 -249 q-1 -45 -25 -71 q-24 -26 -64 -26 q-39 0 -64 26 q-24 26 -25 71 l0 249 l-61 0 l0 -256 q1 -71 41 -111 q41 -40 109 -41 l0 0 Z" /><glyph glyph-name="" unicode="ü" d="M140 475 q18 0 30 12 q12 12 13 30 q-1 19 -13 31 q-12 12 -30 12 q-18 0 -31 -12 q-12 -12 -13 -31 q1 -18 13 -30 q13 -12 31 -12 l0 0 ZM285 475 q18 0 31 12 q12 12 12 30 q0 19 -12 31 q-13 12 -31 12 q-18 0 -30 -12 q-12 -12 -13 -31 q1 -18 13 -30 q12 -12 30 -12 l0 0 ZM210 -8 q68 1 108 41 q41 40 42 111 l0 256 l-61 0 l0 -249 q-1 -45 -25 -71 q-24 -26 -64 -26 q-39 0 -64 26 q-24 26 -25 71 l0 249 l-61 0 l0 -256 q1 -71 41 -111 q41 -40 109 -41 l0 0 Z" /><glyph glyph-name="" unicode="ù" d="M237 452 l-88 148 l-72 0 l118 -148 l42 0 ZM210 -8 q68 1 108 41 q41 40 42 111 l0 256 l-61 0 l0 -249 q-1 -45 -25 -71 q-24 -26 -64 -26 q-39 0 -64 26 q-24 26 -25 71 l0 249 l-61 0 l0 -256 q1 -71 41 -111 q41 -40 109 -41 l0 0 Z" /><glyph glyph-name="" unicode="&#x171;" d="M120 452 l42 0 l117 148 l-72 0 l-87 -148 ZM250 452 l42 0 l117 148 l-72 0 l-87 -148 ZM210 -8 q68 1 108 41 q41 40 42 111 l0 256 l-61 0 l0 -249 q-1 -45 -25 -71 q-24 -26 -64 -26 q-39 0 -64 26 q-24 26 -25 71 l0 249 l-61 0 l0 -256 q1 -71 41 -111 q41 -40 109 -41 l0 0 Z" /><glyph glyph-name="" unicode="&#x16b;" d="M104 483 l215 0 l0 42 l-215 0 l0 -42 ZM210 -8 q68 1 108 41 q41 40 42 111 l0 256 l-61 0 l0 -249 q-1 -45 -25 -71 q-24 -26 -64 -26 q-39 0 -64 26 q-24 26 -25 71 l0 249 l-61 0 l0 -256 q1 -71 41 -111 q41 -40 109 -41 l0 0 Z" /><glyph glyph-name="" unicode="&#x173;" d="M274 4 q40 16 63 52 q23 36 23 88 l0 256 l-61 0 l0 -249 q-1 -45 -25 -71 q-24 -26 -64 -26 q-39 0 -64 26 q-24 26 -25 71 l0 249 l-61 0 l0 -256 q1 -71 41 -111 q41 -40 109 -41 l2 0 q-23 -19 -36 -42 q-13 -22 -13 -49 q1 -38 24 -60 q24 -21 65 -23 q30 -2 57 8 q26 10 49 32 l-22 31 q-14 -18 -33 -27 q-19 -10 -42 -10 q-26 0 -40 15 q-14 15 -14 39 q1 32 19 55 q19 24 48 43 l0 0 Z" /><glyph glyph-name="" unicode="&#x16f;" d="M212 438 q35 1 58 25 q23 23 24 58 q-1 35 -24 59 q-23 23 -58 24 q-35 -1 -59 -24 q-24 -24 -25 -59 q1 -35 25 -58 q24 -24 59 -25 l0 0 ZM212 472 q-21 0 -35 14 q-14 14 -14 35 q0 21 14 35 q14 14 35 15 q20 -1 34 -15 q13 -14 14 -35 q-1 -21 -14 -35 q-14 -14 -34 -14 l0 0 ZM210 -8 q68 1 108 41 q41 40 42 111 l0 256 l-61 0 l0 -249 q-1 -45 -25 -71 q-24 -26 -64 -26 q-39 0 -64 26 q-24 26 -25 71 l0 249 l-61 0 l0 -256 q1 -71 41 -111 q41 -40 109 -41 l0 0 Z" /><glyph glyph-name="" unicode="v" d="M323 400 l-123 -328 l-124 328 l-67 0 l160 -400 l60 0 l161 400 l-67 0 Z" /><glyph glyph-name="" unicode="w" d="M566 400 l-106 -328 l-109 328 l-59 0 l-109 -326 l-104 326 l-70 0 l138 -400 l68 0 l107 314 l106 -314 l68 0 l137 400 l-67 0 Z" /><glyph glyph-name="" unicode="&#x1e83;" d="M457 600 l-72 0 l-88 -148 l42 0 l118 148 ZM566 400 l-106 -328 l-109 328 l-59 0 l-109 -326 l-104 326 l-70 0 l138 -400 l68 0 l107 314 l106 -314 l68 0 l137 400 l-67 0 Z" /><glyph glyph-name="" unicode="&#x175;" d="M322 559 l62 -107 l49 0 l-79 148 l-64 0 l-78 -148 l48 0 l62 107 ZM566 400 l-106 -328 l-109 328 l-59 0 l-109 -326 l-104 326 l-70 0 l138 -400 l68 0 l107 314 l106 -314 l68 0 l137 400 l-67 0 Z" /><glyph glyph-name="" unicode="&#x1e85;" d="M250 475 q18 0 30 12 q12 12 13 30 q-1 19 -13 31 q-12 12 -30 12 q-18 0 -31 -12 q-12 -12 -13 -31 q1 -18 13 -30 q13 -12 31 -12 l0 0 ZM395 475 q18 0 31 12 q12 12 12 30 q0 19 -12 31 q-13 12 -31 12 q-18 0 -30 -12 q-12 -12 -13 -31 q1 -18 13 -30 q12 -12 30 -12 l0 0 ZM566 400 l-106 -328 l-109 328 l-59 0 l-109 -326 l-104 326 l-70 0 l138 -400 l68 0 l107 314 l106 -314 l68 0 l137 400 l-67 0 Z" /><glyph glyph-name="" unicode="&#x1e81;" d="M347 452 l-88 148 l-72 0 l118 -148 l42 0 ZM566 400 l-106 -328 l-109 328 l-59 0 l-109 -326 l-104 326 l-70 0 l138 -400 l68 0 l107 314 l106 -314 l68 0 l137 400 l-67 0 Z" /><glyph glyph-name="" unicode="x" d="M417 400 l-74 0 l-130 -155 l-129 155 l-75 0 l167 -200 l-167 -200 l76 0 l129 155 l129 -155 l74 0 l-166 200 l166 200 Z" /><glyph glyph-name="" unicode="y" d="M330 400 l-124 -328 l-128 328 l-69 0 l164 -403 l-96 -237 l66 0 l85 210 l172 430 l-70 0 Z" /><glyph glyph-name="" unicode="ý" d="M340 600 l-72 0 l-88 -148 l42 0 l118 148 ZM330 400 l-124 -328 l-128 328 l-69 0 l164 -403 l-96 -237 l66 0 l85 210 l172 430 l-70 0 Z" /><glyph glyph-name="" unicode="&#x177;" d="M205 559 l62 -107 l49 0 l-79 148 l-64 0 l-78 -148 l48 0 l62 107 ZM330 400 l-124 -328 l-128 328 l-69 0 l164 -403 l-96 -237 l66 0 l85 210 l172 430 l-70 0 Z" /><glyph glyph-name="" unicode="ÿ" d="M133 475 q18 0 30 12 q12 12 13 30 q-1 19 -13 31 q-12 12 -30 12 q-18 0 -31 -12 q-12 -12 -13 -31 q1 -18 13 -30 q13 -12 31 -12 l0 0 ZM278 475 q18 0 31 12 q12 12 12 30 q0 19 -12 31 q-13 12 -31 12 q-18 0 -30 -12 q-12 -12 -13 -31 q1 -18 13 -30 q12 -12 30 -12 l0 0 ZM330 400 l-124 -328 l-128 328 l-69 0 l164 -403 l-96 -237 l66 0 l85 210 l172 430 l-70 0 Z" /><glyph glyph-name="" unicode="&#x1ef3;" d="M230 452 l-88 148 l-72 0 l118 -148 l42 0 ZM330 400 l-124 -328 l-128 328 l-69 0 l164 -403 l-96 -237 l66 0 l85 210 l172 430 l-70 0 Z" /><glyph glyph-name="" unicode="z" d="M379 400 l-330 0 l0 -62 l214 0 l-230 -338 l346 0 l0 62 l-230 0 l230 338 Z" /><glyph glyph-name="" unicode="&#x17a;" d="M349 600 l-72 0 l-88 -148 l42 0 l118 148 ZM379 400 l-330 0 l0 -62 l214 0 l-230 -338 l346 0 l0 62 l-230 0 l230 338 Z" /><glyph glyph-name="" unicode="&#x17e;" d="M246 452 l79 148 l-49 0 l-62 -106 l-62 106 l-48 0 l78 -148 l64 0 ZM379 400 l-330 0 l0 -62 l214 0 l-230 -338 l346 0 l0 62 l-230 0 l230 338 Z" /><glyph glyph-name="" unicode="&#x17c;" d="M214 460 q18 0 30 13 q12 12 13 30 q-1 18 -13 31 q-12 12 -30 12 q-18 0 -30 -12 q-12 -13 -13 -31 q1 -18 13 -30 q12 -13 30 -13 l0 0 ZM379 400 l-330 0 l0 -62 l214 0 l-230 -338 l346 0 l0 62 l-230 0 l230 338 Z" /><glyph glyph-name="" unicode="&#xfb01;" d="M158 615 q1 28 18 44 q17 17 42 17 l46 -1 l0 48 q-9 5 -23 9 q-15 4 -30 4 q-48 -1 -81 -33 q-33 -32 -34 -80 l0 -223 l-67 0 l0 -60 l67 0 l0 -340 l62 0 l0 340 l107 0 l0 60 l-107 0 l0 215 ZM431 517 q-1 19 -13 31 q-12 12 -30 12 q-18 0 -31 -12 q-12 -12 -13 -31 q1 -18 13 -30 q13 -12 31 -12 q18 0 30 12 q12 12 13 30 l0 0 ZM357 0 l62 0 l0 400 l-62 0 l0 -400 Z" /><glyph glyph-name="" unicode="&#xfb02;" d="M158 615 q1 28 18 44 q17 17 42 17 l46 -1 l0 48 q-9 5 -23 9 q-15 4 -30 4 q-48 -1 -81 -33 q-33 -32 -34 -80 l0 -223 l-67 0 l0 -60 l67 0 l0 -340 l62 0 l0 340 l107 0 l0 60 l-107 0 l0 215 ZM349 736 l0 -736 l62 0 l0 736 l-62 0 Z" /><glyph glyph-name="" unicode="ª" d="M258 600 l0 -54 q-15 27 -41 43 q-27 16 -60 16 q-52 -1 -86 -37 q-35 -35 -36 -88 q1 -54 36 -89 q34 -35 86 -36 q33 0 60 16 q26 16 41 43 l0 -54 l34 0 l0 240 l-34 0 ZM163 385 q-40 1 -66 28 q-27 26 -28 67 q1 39 28 66 q26 26 66 27 q40 -1 67 -27 q27 -27 28 -66 q-1 -41 -28 -67 q-27 -27 -67 -28 l0 0 Z" /><glyph glyph-name="" unicode="º" d="M163 355 q55 1 91 36 q37 35 38 89 q-1 53 -38 88 q-36 36 -91 37 q-55 -1 -91 -37 q-36 -35 -37 -88 q1 -54 37 -89 q36 -35 91 -36 l0 0 ZM163 385 q-40 1 -66 28 q-27 26 -28 67 q1 39 28 66 q26 26 66 27 q40 -1 67 -27 q27 -27 28 -66 q-1 -41 -28 -67 q-27 -27 -67 -28 l0 0 Z" /><glyph glyph-name="" unicode="&#x394;" d="M334 600 l-72 0 l-241 -600 l553 0 l-240 600 ZM113 57 l185 470 l184 -470 l-369 0 Z" /><glyph glyph-name="" unicode="&#x3a9;" d="M55 0 l230 0 l0 34 q-60 30 -106 101 q-47 70 -49 169 q1 106 64 176 q63 71 171 74 q111 -4 170 -80 q59 -75 60 -168 q-2 -102 -49 -172 q-46 -69 -108 -100 l0 -34 l231 0 l0 46 l-139 0 l0 6 q49 35 86 104 q38 69 40 159 q-2 116 -79 199 q-78 83 -212 87 q-131 -3 -213 -83 q-82 -80 -84 -205 q2 -89 38 -156 q37 -67 87 -105 l0 -6 l-138 0 l0 -46 Z" /><glyph glyph-name="" unicode="&#x3bc;" d="M356 400 l0 -243 q-1 -47 -33 -78 q-32 -31 -80 -32 q-47 1 -78 32 q-31 31 -32 78 l0 243 l-62 0 l0 -600 l48 0 l0 235 q21 -20 49 -32 q27 -11 59 -11 q40 0 74 19 q33 18 55 51 l0 -62 l61 0 l0 400 l-61 0 Z" /><glyph glyph-name="" unicode="&#x3c0;" d="M70 0 l58 0 q28 65 48 182 q20 117 24 207 l193 -1 l0 -267 q0 -46 3 -77 q4 -30 11 -44 l58 0 q-7 20 -10 50 q-3 30 -3 79 l0 259 l82 0 l5 47 l-388 0 q-52 0 -84 -7 q-31 -6 -49 -16 l7 -36 q16 6 43 9 q26 3 73 3 q-4 -99 -24 -208 q-20 -110 -47 -180 l0 0 Z" /><glyph glyph-name="" unicode="0" d="M278 -8 q105 3 160 88 q56 85 56 220 q0 135 -56 220 q-55 85 -160 88 q-105 -3 -160 -88 q-55 -85 -55 -220 q0 -135 55 -220 q55 -85 160 -88 l0 0 ZM279 56 q-76 2 -113 69 q-38 67 -38 175 q0 108 38 175 q37 67 113 69 q75 -2 113 -69 q38 -67 38 -175 q0 -108 -38 -175 q-38 -67 -113 -69 l0 0 Z" /><glyph glyph-name="" unicode="1" d="M139 0 l64 0 l0 600 l-164 0 l0 -64 l100 0 l0 -536 Z" /><glyph glyph-name="" unicode="2" d="M159 64 l152 169 q68 74 94 118 q25 44 22 93 q-4 77 -53 120 q-50 44 -124 45 q-80 0 -132 -48 q-53 -49 -54 -130 l70 0 q0 54 32 84 q32 30 81 30 q47 -1 78 -29 q32 -28 33 -83 q2 -29 -17 -62 q-19 -33 -76 -96 l-251 -275 l432 0 l0 64 l-287 0 Z" /><glyph glyph-name="" unicode="3" d="M237 354 l-16 0 l192 246 l-358 0 l0 -63 l233 0 l-191 -247 l144 0 q52 -1 86 -31 q34 -30 35 -81 q-1 -52 -35 -87 q-35 -35 -87 -36 q-49 1 -83 32 q-34 32 -35 80 l-67 -1 q2 -74 54 -123 q53 -49 131 -51 q81 2 133 54 q52 51 54 129 q-2 79 -55 128 q-54 49 -135 51 l0 0 Z" /><glyph glyph-name="" unicode="4" d="M442 190 l-63 0 l0 410 l-79 0 l-275 -474 l290 0 l0 -126 l64 0 l0 126 l63 0 l0 64 ZM124 190 l191 336 l0 -336 l-191 0 Z" /><glyph glyph-name="" unicode="5" d="M255 397 q-32 0 -62 -9 q-29 -10 -53 -27 l22 173 l250 0 l0 64 l-307 0 l-34 -280 l56 -33 q22 23 52 35 q29 13 63 13 q60 -1 100 -38 q40 -38 41 -101 q0 -59 -39 -98 q-39 -39 -112 -40 q-45 -1 -92 19 q-48 20 -84 70 l-6 0 l-8 -76 q32 -36 84 -56 q51 -21 108 -21 q99 2 155 58 q57 56 58 146 q-2 88 -54 144 q-53 55 -138 57 l0 0 Z" /><glyph glyph-name="" unicode="6" d="M475 207 q-8 90 -69 141 q-61 51 -133 51 q-15 0 -28 -3 q-12 -2 -22 -6 l176 210 l-80 0 l-212 -267 q-24 -30 -39 -66 q-14 -37 -12 -79 q6 -86 68 -141 q61 -55 151 -53 q88 7 145 66 q56 59 55 147 l0 0 ZM274 56 q-65 -3 -107 34 q-43 36 -48 99 q-3 65 35 108 q38 43 103 48 q64 3 107 -36 q43 -38 48 -103 q3 -62 -35 -103 q-38 -42 -103 -47 l0 0 Z" /><glyph glyph-name="" unicode="7" d="M41 600 l0 -64 l318 0 l-307 -536 l75 0 l313 558 l0 42 l-399 0 Z" /><glyph glyph-name="" unicode="8" d="M321 334 q33 19 51 52 q19 32 19 73 q-1 64 -45 106 q-43 42 -111 43 q-68 -1 -112 -43 q-44 -42 -45 -106 q0 -41 19 -73 q19 -32 52 -52 q-48 -22 -76 -64 q-28 -42 -29 -97 q2 -78 55 -128 q53 -51 135 -53 q84 2 137 53 q53 50 55 128 q-1 55 -29 97 q-28 42 -76 64 l0 0 ZM235 547 q42 -1 69 -28 q27 -28 28 -70 q-1 -41 -28 -68 q-27 -27 -69 -28 q-42 1 -70 28 q-27 27 -28 68 q1 42 28 70 q28 27 70 28 l0 0 ZM234 49 q-54 1 -89 38 q-36 36 -37 90 q1 55 37 90 q35 36 89 37 q55 -1 90 -37 q36 -35 37 -90 q-1 -54 -37 -90 q-35 -37 -90 -38 l0 0 Z" /><glyph glyph-name="" unicode="9" d="M475 412 q-7 86 -68 141 q-62 55 -151 53 q-88 -7 -145 -66 q-56 -59 -55 -147 q7 -90 68 -141 q61 -51 134 -51 q15 0 27 3 q12 2 22 5 l-176 -209 l81 0 l211 267 q25 30 39 67 q14 36 13 78 l0 0 ZM274 255 q-65 -3 -108 36 q-43 38 -48 103 q-3 62 35 104 q38 41 104 46 q64 3 107 -34 q42 -36 47 -99 q3 -65 -35 -108 q-38 -43 -102 -48 l0 0 Z" /><glyph glyph-name="" unicode="&#x2044;" d="M-15 0 l49 0 l419 600 l-50 0 l-418 -600 Z" /><glyph glyph-name="" unicode="½" d="M148 200 l0 400 l-109 0 l0 -42 l67 0 l0 -358 l42 0 ZM557 600 l-418 -600 l49 0 l419 600 l-50 0 ZM615 43 l101 112 q46 49 63 79 q17 29 15 62 q-3 52 -36 81 q-33 29 -82 29 q-54 0 -89 -32 q-34 -32 -35 -87 l46 0 q1 36 22 57 q21 20 54 20 q31 -1 52 -19 q21 -19 22 -56 q1 -20 -11 -42 q-13 -22 -51 -64 l-168 -183 l288 0 l0 43 l-191 0 Z" /><glyph glyph-name="" unicode="¼" d="M148 200 l0 400 l-109 0 l0 -42 l67 0 l0 -358 l42 0 ZM565 598 l-418 -600 l49 0 l419 600 l-50 0 ZM784 127 l-42 0 l0 273 l-53 0 l-183 -316 l193 0 l0 -84 l43 0 l0 84 l42 0 l0 43 ZM571 127 l128 224 l0 -224 l-128 0 Z" /><glyph glyph-name="" unicode="¾" d="M303 319 q-1 52 -37 85 q-35 33 -90 34 l-11 0 l128 164 l-238 0 l0 -42 l155 0 l-127 -165 l96 0 q34 0 57 -20 q22 -20 23 -54 q-1 -35 -24 -58 q-22 -23 -57 -24 q-33 1 -56 21 q-22 21 -23 53 l-44 0 q1 -49 36 -82 q35 -33 87 -34 q54 1 89 36 q35 34 36 86 l0 0 ZM613 598 l-418 -600 l49 0 l419 600 l-50 0 ZM800 127 l-42 0 l0 273 l-53 0 l-183 -316 l193 0 l0 -84 l43 0 l0 84 l42 0 l0 43 ZM587 127 l128 224 l0 -224 l-128 0 Z" /><glyph glyph-name="" unicode="¹" d="M85 300 l34 0 l0 300 l-80 0 l0 -30 l46 0 l0 -270 Z" /><glyph glyph-name="" unicode="²" d="M110 345 l74 81 q32 35 45 57 q12 22 11 45 q-2 37 -26 58 q-24 21 -60 22 q-38 -1 -64 -24 q-25 -23 -25 -62 l34 0 q0 26 15 40 q15 15 39 15 q22 -1 38 -14 q15 -14 16 -40 q1 -15 -9 -30 q-9 -16 -36 -46 l-121 -133 l208 0 l0 31 l-139 0 Z" /><glyph glyph-name="" unicode="³" d="M144 481 l-8 0 l93 118 l-172 0 l0 -30 l112 0 l-92 -119 l69 0 q25 0 41 -15 q16 -15 17 -39 q-1 -25 -17 -42 q-16 -16 -41 -17 q-24 1 -40 15 q-16 15 -17 38 l-32 0 q1 -35 26 -59 q25 -24 63 -25 q38 1 64 26 q25 25 26 62 q-1 38 -27 62 q-26 24 -65 25 l0 0 Z" /><glyph glyph-name="" unicode="*" d="M110 412 l31 65 l31 -65 l32 19 l-42 60 l73 -7 l0 37 l-73 -7 l42 60 l-32 19 l-31 -65 l-31 65 l-32 -19 l42 -60 l-73 7 l0 -37 l73 7 l-42 -60 l32 -19 Z" /><glyph glyph-name="" unicode="\" d="M499 -240 l60 0 l-514 976 l-60 0 l514 -976 Z" /><glyph glyph-name="" unicode="·" d="M114 253 q15 0 25 10 q11 10 11 25 q0 15 -11 25 q-10 10 -25 10 q-15 0 -25 -10 q-10 -10 -10 -25 q0 -15 10 -25 q10 -10 25 -10 l0 0 Z" /><glyph glyph-name="" unicode="&#x2022;" d="M232 127 q56 1 95 40 q39 39 41 97 q-2 57 -41 96 q-39 39 -95 41 q-57 -2 -96 -41 q-39 -39 -41 -96 q2 -58 41 -97 q39 -39 96 -40 l0 0 Z" /><glyph glyph-name="" unicode=":" d="M124 322 q19 0 31 13 q13 12 13 30 q0 18 -13 30 q-12 12 -31 13 q-18 -1 -30 -13 q-12 -12 -13 -30 q1 -18 13 -30 q12 -13 30 -13 l0 0 ZM124 -8 q19 0 31 13 q13 12 13 30 q0 18 -13 30 q-12 12 -31 13 q-18 -1 -30 -13 q-12 -12 -13 -30 q1 -18 13 -30 q12 -13 30 -13 l0 0 Z" /><glyph glyph-name="" unicode="," d="M57 -124 l123 225 l-70 0 l-105 -225 l52 0 Z" /><glyph glyph-name="" unicode="&#x2026;" d="M95 -8 q23 1 39 16 q15 16 16 39 q-1 23 -16 39 q-16 15 -39 16 q-22 -1 -38 -16 q-16 -16 -17 -39 q1 -23 17 -39 q16 -15 38 -16 l0 0 ZM312 -8 q23 1 39 16 q15 16 16 39 q-1 23 -16 39 q-16 15 -39 16 q-22 -1 -38 -16 q-16 -16 -17 -39 q1 -23 17 -39 q16 -15 38 -16 l0 0 ZM534 -8 q23 1 39 16 q15 16 16 39 q-1 23 -16 39 q-16 15 -39 16 q-22 -1 -38 -16 q-16 -16 -17 -39 q1 -23 17 -39 q16 -15 38 -16 l0 0 Z" /><glyph glyph-name="" unicode="!" d="M97 171 l49 0 l7 501 l-62 0 l6 -501 ZM122 -8 q18 1 30 13 q12 12 13 30 q-1 18 -13 31 q-12 12 -30 12 q-18 0 -30 -12 q-12 -13 -13 -31 q1 -18 13 -30 q12 -12 30 -13 l0 0 Z" /><glyph glyph-name="" unicode="¡" d="M122 314 q18 0 30 13 q12 12 13 30 q-1 18 -13 30 q-12 12 -30 13 q-18 -1 -30 -13 q-12 -12 -13 -30 q1 -18 13 -30 q12 -13 30 -13 l0 0 ZM91 -240 l62 0 l-7 469 l-49 0 l-6 -469 Z" /><glyph glyph-name="" unicode="#" d="M152 0 l47 0 l19 141 l154 0 l-20 -141 l45 0 l22 141 l112 0 l6 47 l-112 0 l27 189 l112 0 l7 46 l-113 0 l20 141 l-46 0 l-20 -141 l-153 0 l19 141 l-45 0 l-21 -141 l-111 0 l-8 -46 l114 0 l-28 -189 l-113 0 l-6 -47 l112 0 l-20 -141 ZM226 188 l26 189 l154 0 l-28 -189 l-152 0 Z" /><glyph glyph-name="" unicode="." d="M95 -8 q23 1 39 16 q15 16 16 39 q-1 23 -16 39 q-16 15 -39 16 q-22 -1 -38 -16 q-16 -16 -17 -39 q1 -23 17 -39 q16 -15 38 -16 l0 0 Z" /><glyph glyph-name="" unicode="?" d="M224 167 l57 0 l0 139 q9 60 72 84 q62 24 71 130 q-1 72 -48 117 q-48 45 -124 46 q-74 -1 -121 -46 q-47 -45 -50 -116 l56 0 q3 47 35 77 q31 30 80 31 q53 -1 84 -31 q32 -30 33 -78 q-9 -87 -72 -105 q-64 -18 -73 -116 l0 -132 ZM256 -8 q18 0 30 13 q12 12 13 30 q-1 18 -13 30 q-12 12 -30 13 q-18 -1 -31 -13 q-12 -12 -13 -30 q1 -18 13 -30 q13 -13 31 -13 l0 0 Z" /><glyph glyph-name="" unicode="¿" d="M224 325 q18 1 30 13 q12 12 13 30 q-1 18 -13 31 q-12 12 -30 12 q-18 0 -31 -12 q-12 -13 -13 -31 q1 -18 13 -30 q13 -12 31 -13 l0 0 ZM227 -240 q74 1 121 46 q47 45 50 117 l-56 0 q-3 -48 -35 -78 q-31 -30 -80 -31 q-52 1 -84 31 q-32 30 -33 79 q9 86 73 105 q63 18 72 116 l0 91 l-57 0 l0 -98 q-9 -61 -71 -84 q-63 -24 -72 -130 q1 -73 49 -118 q47 -45 123 -46 l0 0 Z" /><glyph glyph-name="" unicode="&quot;" d="M85 341 l46 0 l7 267 l-59 0 l6 -267 ZM217 341 l46 0 l7 267 l-60 0 l7 -267 Z" /><glyph glyph-name="" unicode="&#39;" d="M85 373 l46 0 l7 235 l-59 0 l6 -235 Z" /><glyph glyph-name="" unicode=";" d="M138 322 q18 0 30 13 q12 12 13 30 q-1 18 -13 30 q-12 12 -30 13 q-18 -1 -30 -13 q-13 -12 -13 -30 q0 -18 13 -30 q12 -13 30 -13 l0 0 ZM75 -124 l123 225 l-70 0 l-105 -225 l52 0 Z" /><glyph glyph-name="" unicode="/" d="M-15 -240 l60 0 l514 976 l-60 0 l-514 -976 Z" /><glyph glyph-name="" unicode="_" d="M39 -60 l480 0 l0 60 l-480 0 l0 -60 Z" /><glyph glyph-name="" unicode="{" d="M186 -201 l36 0 l0 47 q-38 0 -52 16 q-15 15 -14 48 l0 215 q1 44 -10 80 q-10 36 -46 63 q36 26 46 63 q11 36 10 80 l0 211 q-1 38 14 53 q15 15 52 14 l0 47 l-36 0 q-34 -1 -56 -30 q-22 -30 -23 -76 l0 -207 q1 -52 -10 -83 q-11 -31 -50 -51 l0 -43 q39 -18 50 -48 q11 -31 10 -85 l0 -209 q1 -46 23 -75 q22 -29 56 -30 l0 0 Z" /><glyph glyph-name="" unicode="}" d="M27 -201 l35 0 q35 1 57 30 q22 29 23 75 l0 209 q-1 54 10 85 q11 30 50 48 l0 43 q-39 20 -50 51 q-11 31 -10 83 l0 207 q-1 46 -23 76 q-22 29 -57 30 l-35 0 l0 -47 q36 1 51 -14 q15 -15 14 -53 l0 -211 q-1 -44 10 -80 q10 -37 46 -63 q-36 -27 -46 -63 q-11 -36 -10 -80 l0 -215 q1 -33 -13 -48 q-14 -16 -52 -16 l0 -47 Z" /><glyph glyph-name="" unicode="[" d="M73 -200 l158 0 l0 48 l-103 0 l0 840 l103 0 l0 48 l-158 0 l0 -936 Z" /><glyph glyph-name="" unicode="]" d="M29 -200 l157 0 l0 936 l-157 0 l0 -48 l103 0 l0 -840 l-103 0 l0 -48 Z" /><glyph glyph-name="" unicode="(" d="M273 -232 l0 45 q-67 7 -110 108 q-43 102 -45 329 q2 229 45 332 q43 103 110 109 l0 45 q-91 -4 -149 -118 q-59 -115 -61 -368 q2 -252 61 -365 q58 -113 149 -117 l0 0 Z" /><glyph glyph-name="" unicode=")" d="M28 -232 q91 4 149 117 q59 113 61 365 q-2 253 -61 368 q-58 114 -149 118 l0 -45 q67 -6 110 -109 q43 -103 45 -332 q-2 -227 -45 -329 q-43 -101 -110 -108 l0 -45 Z" /><glyph glyph-name="" unicode="&#x2014;" d="M0 178 l800 0 l0 60 l-800 0 l0 -60 Z" /><glyph glyph-name="" unicode="&#x2013;" d="M40 178 l400 0 l0 60 l-400 0 l0 -60 Z" /><glyph glyph-name="" unicode="-" d="M40 178 l280 0 l0 60 l-280 0 l0 -60 Z" /><glyph glyph-name="" unicode="­" d="M40 178 l280 0 l0 60 l-280 0 l0 -60 Z" /><glyph glyph-name="" unicode="«" d="M217 76 l54 0 l-122 147 l122 147 l-54 0 l-121 -147 l121 -147 ZM362 76 l54 0 l-121 147 l121 147 l-54 0 l-122 -147 l122 -147 Z" /><glyph glyph-name="" unicode="»" d="M95 76 l53 0 l122 147 l-122 147 l-53 0 l121 -147 l-121 -147 ZM239 76 l55 0 l122 147 l-122 147 l-55 0 l122 -147 l-122 -147 Z" /><glyph glyph-name="" unicode="&#x2039;" d="M169 76 l54 0 l-122 147 l122 147 l-54 0 l-121 -147 l121 -147 Z" /><glyph glyph-name="" unicode="&#x203a;" d="M63 76 l53 0 l122 147 l-122 147 l-53 0 l121 -147 l-121 -147 Z" /><glyph glyph-name="" unicode="&#x201e;" d="M62 -155 l91 241 l-71 0 l-65 -241 l45 0 ZM197 -155 l91 241 l-71 0 l-65 -241 l45 0 Z" /><glyph glyph-name="" unicode="&#x201c;" d="M114 608 l-91 -241 l71 0 l65 241 l-45 0 ZM255 608 l-91 -241 l71 0 l65 241 l-45 0 Z" /><glyph glyph-name="" unicode="&#x201d;" d="M204 367 l91 241 l-71 0 l-65 -241 l45 0 ZM59 366 l91 241 l-71 0 l-65 -241 l45 0 Z" /><glyph glyph-name="" unicode="&#x2018;" d="M108 608 l-91 -241 l71 0 l65 241 l-45 0 Z" /><glyph glyph-name="" unicode="&#x2019;" d="M78 367 l91 241 l-71 0 l-65 -241 l45 0 Z" /><glyph glyph-name="" unicode="&#x201a;" d="M63 -155 l91 241 l-71 0 l-65 -241 l45 0 Z" /><glyph glyph-name="" unicode=" " d="" /><glyph glyph-name="" unicode="¢" d="M264 433 q32 0 60 -10 q28 -10 50 -30 l0 63 q-45 29 -101 32 l0 73 l-41 0 l0 -75 q-80 -13 -130 -70 q-51 -56 -53 -136 q2 -80 53 -136 q50 -57 130 -70 l0 -75 l41 0 l0 73 q57 3 101 32 l0 63 q-21 -20 -50 -30 q-28 -10 -60 -10 q-65 2 -108 45 q-43 43 -45 108 q2 65 45 108 q43 43 108 45 l0 0 Z" /><glyph glyph-name="" unicode="¤" d="M99 111 l41 41 q47 -36 104 -36 q57 0 104 36 l41 -41 l34 36 l-40 39 q35 47 35 105 q0 57 -35 104 l40 39 l-35 34 l-40 -39 q-47 35 -103 35 q-57 0 -104 -36 l-41 41 l-34 -36 l40 -39 q-35 -47 -35 -103 q0 -57 35 -104 l-41 -40 l34 -36 ZM155 202 q-36 38 -36 88 q1 50 36 88 q39 37 89 37 q49 0 88 -36 q37 -39 38 -88 q0 -50 -37 -89 q-39 -37 -89 -37 q-50 0 -89 37 l0 0 Z" /><glyph glyph-name="" unicode="$" d="M409 158 q-18 139 -146 171 q-128 33 -146 126 q1 45 32 67 q30 22 73 22 q35 0 62 -14 q28 -13 46 -39 l50 42 q-20 26 -52 45 q-31 19 -70 27 l0 66 l-61 0 l0 -64 q-62 -7 -102 -48 q-41 -41 -42 -109 q18 -131 146 -163 q128 -33 146 -131 q-1 -48 -35 -74 q-34 -26 -85 -26 q-51 1 -87 25 q-35 25 -51 67 l-58 -34 q22 -50 66 -82 q44 -31 102 -38 l0 -63 l61 0 l0 63 q66 9 108 52 q42 42 43 112 l0 0 Z" /><glyph glyph-name="" unicode="&#x20ac;" d="M371 56 q-77 1 -136 40 q-59 40 -88 106 l239 -1 l53 56 l-309 2 q-3 20 -3 41 q0 19 3 38 l295 -1 l57 56 l-337 1 q29 67 88 108 q60 41 138 42 q39 0 76 -12 q37 -13 68 -36 l20 63 q-37 23 -79 36 q-43 13 -85 13 q-105 -2 -184 -60 q-78 -59 -110 -154 l-28 0 l-40 -56 l56 0 q-1 -10 -1 -19 q-1 -9 -1 -19 q0 -21 3 -41 l-21 0 l-36 -57 l70 0 q32 -94 110 -151 q78 -57 182 -59 q43 0 87 14 q44 14 82 38 l0 81 q-34 -33 -77 -51 q-44 -18 -92 -18 l0 0 Z" /><glyph glyph-name="" unicode="&#x192;" d="M292 561 q11 0 22 -4 q11 -3 18 -10 l6 47 q-7 6 -21 10 q-15 4 -30 4 q-48 -1 -84 -32 q-37 -32 -46 -80 l-15 -96 l-68 0 l-7 -48 l67 0 l-87 -552 l56 0 l87 552 l113 0 l7 48 l-112 0 l14 89 q6 32 27 52 q22 19 53 20 l0 0 Z" /><glyph glyph-name="" unicode="£" d="M148 46 l0 227 l149 0 l0 43 l-149 0 l0 111 q1 60 35 96 q34 35 93 36 q42 -1 75 -26 q33 -26 43 -67 l47 21 q-18 54 -64 87 q-45 33 -101 34 q-79 -1 -127 -51 q-48 -49 -49 -130 l0 -111 l-64 0 l0 -43 l64 0 l0 -273 l352 0 l0 46 l-304 0 Z" /><glyph glyph-name="" unicode="¥" d="M301 288 l205 312 l-59 0 l-175 -267 l-173 267 l-60 0 l206 -312 l0 -8 l-164 0 l0 -40 l164 0 l0 -82 l-163 0 l0 -40 l163 0 l0 -118 l56 0 l0 118 l165 0 l0 40 l-165 0 l0 82 l165 0 l0 40 l-165 0 l0 8 Z" /><glyph glyph-name="" unicode="&#x2248;" d="M331 255 q50 1 80 38 q29 37 28 94 l-45 0 q1 -40 -18 -64 q-18 -23 -49 -24 q-21 1 -36 12 q-16 12 -28 28 q-21 27 -44 42 q-23 16 -55 16 q-52 -1 -83 -36 q-31 -36 -30 -97 l45 0 q-1 38 17 63 q18 24 50 25 q19 0 34 -10 q14 -10 29 -27 q16 -20 41 -39 q25 -20 64 -21 l0 0 ZM331 97 q50 1 80 38 q29 36 28 94 l-45 0 q1 -40 -18 -64 q-18 -23 -49 -24 q-21 0 -36 12 q-16 11 -28 28 q-21 27 -44 42 q-23 16 -55 16 q-52 -1 -83 -36 q-31 -36 -30 -97 l45 0 q-1 38 17 62 q18 25 50 26 q19 0 34 -10 q14 -10 29 -27 q17 -21 41 -40 q25 -19 64 -20 l0 0 Z" /><glyph glyph-name="" unicode="~" d="M321 140 q51 1 81 38 q30 37 27 94 l-45 0 q2 -40 -17 -64 q-19 -23 -50 -24 q-21 0 -35 12 q-15 11 -29 28 q-21 27 -44 43 q-23 16 -55 16 q-53 -1 -84 -37 q-31 -37 -29 -97 l45 0 q0 38 18 63 q18 25 50 26 q19 0 33 -10 q14 -10 29 -28 q16 -20 41 -39 q25 -20 64 -21 l0 0 Z" /><glyph glyph-name="" unicode="÷" d="M295 316 q16 0 28 12 q11 11 12 28 q-1 17 -12 28 q-12 12 -28 12 q-16 0 -28 -12 q-11 -11 -12 -28 q1 -17 12 -28 q12 -12 28 -12 l0 0 ZM55 202 l480 0 l0 36 l-480 0 l0 -36 ZM295 44 q16 0 28 12 q11 11 12 28 q-1 17 -12 28 q-12 12 -28 12 q-16 0 -28 -12 q-11 -11 -12 -28 q1 -17 12 -28 q12 -12 28 -12 l0 0 Z" /><glyph glyph-name="" unicode="&#x2205;" d="M513 392 l34 34 l-20 20 l-34 -34 q-32 28 -73 44 q-40 16 -86 16 q-102 -3 -169 -70 q-67 -67 -70 -169 q0 -46 16 -86 q16 -41 44 -73 l-34 -34 l20 -20 l34 34 q32 -28 73 -44 q40 -16 86 -16 q102 3 169 70 q67 67 70 169 q0 46 -16 86 q-16 41 -44 73 l0 0 ZM146 233 q2 81 55 133 q52 53 133 55 q35 0 67 -12 q31 -12 56 -33 l-266 -266 q-21 25 -33 56 q-12 32 -12 67 l0 0 ZM334 44 q-35 0 -67 12 q-31 12 -56 34 l266 266 q22 -25 34 -56 q12 -32 12 -67 q-2 -81 -55 -134 q-53 -53 -134 -55 l0 0 Z" /><glyph glyph-name="" unicode="=" d="M55 266 l480 0 l0 43 l-480 0 l0 -43 ZM55 115 l480 0 l0 43 l-480 0 l0 -43 Z" /><glyph glyph-name="" unicode="&gt;" d="M79 522 l0 -53 l390 -197 l-390 -197 l0 -54 l441 223 l0 57 l-441 221 Z" /><glyph glyph-name="" unicode="&#x2265;" d="M103 548 l0 -53 l389 -184 l-389 -184 l0 -54 l441 210 l0 56 l-441 209 ZM103 0 l441 0 l0 39 l-441 0 l0 -39 Z" /><glyph glyph-name="" unicode="&#x221e;" d="M164 118 q35 0 72 22 q38 21 75 61 q36 -40 74 -61 q37 -22 72 -22 q47 1 77 32 q30 31 32 83 q-2 52 -32 83 q-30 31 -77 32 q-35 0 -72 -22 q-38 -21 -74 -61 q-37 40 -75 61 q-37 22 -72 22 q-47 -1 -77 -33 q-30 -32 -32 -82 q2 -50 32 -82 q30 -32 77 -33 l0 0 ZM164 160 q-28 1 -47 21 q-19 21 -20 52 q1 31 20 51 q19 20 47 21 q26 0 56 -19 q30 -18 62 -53 q-32 -35 -62 -54 q-30 -19 -56 -19 l0 0 ZM457 160 q-26 0 -57 19 q-30 19 -61 54 q31 35 61 53 q31 19 57 19 q28 -1 46 -21 q19 -20 21 -51 q-2 -31 -21 -52 q-18 -20 -46 -21 l0 0 Z" /><glyph glyph-name="" unicode="&#x222b;" d="M91 -151 q29 0 51 19 q22 19 27 50 l96 606 q3 11 10 18 q8 6 17 6 q12 0 16 -9 q4 -9 1 -30 l42 0 q12 37 -4 60 q-15 23 -47 24 q-29 0 -51 -19 q-23 -19 -28 -50 l-97 -606 q-1 -11 -8 -18 q-8 -6 -17 -6 q-12 0 -16 9 q-5 9 -1 30 l-43 0 q-11 -38 4 -61 q16 -22 48 -23 l0 0 Z" /><glyph glyph-name="" unicode="&lt;" d="M520 522 l-441 -221 l0 -57 l441 -223 l0 54 l-390 197 l390 197 l0 53 Z" /><glyph glyph-name="" unicode="&#x2264;" d="M544 548 l-441 -209 l0 -56 l441 -210 l0 54 l-389 184 l389 184 l0 53 ZM103 0 l441 0 l0 39 l-441 0 l0 -39 Z" /><glyph glyph-name="" unicode="¬" d="M513 93 l47 0 l0 252 l-481 0 l0 -47 l434 0 l0 -205 Z" /><glyph glyph-name="" unicode="µ" d="M356 400 l0 -243 q-1 -47 -33 -78 q-32 -31 -80 -32 q-47 1 -78 32 q-31 31 -32 78 l0 243 l-62 0 l0 -600 l48 0 l0 235 q21 -20 49 -32 q27 -11 59 -11 q40 0 74 19 q33 18 55 51 l0 -62 l61 0 l0 400 l-61 0 Z" /><glyph glyph-name="" unicode="&#x2212;" d="M55 202 l399 0 l0 61 l-399 0 l0 -61 Z" /><glyph glyph-name="" unicode="×" d="M489 377 l-65 67 l-130 -130 l-130 130 l-65 -67 l129 -129 l-129 -129 l65 -67 l130 130 l130 -130 l65 67 l-129 129 l129 129 Z" /><glyph glyph-name="" unicode="&#x2260;" d="M535 266 l0 43 l-129 0 l81 94 l-42 0 l-80 -94 l-310 0 l0 -43 l273 0 l-92 -108 l-181 0 l0 -43 l144 0 l-96 -112 l41 0 l96 112 l295 0 l0 43 l-258 0 l93 108 l165 0 Z" /><glyph glyph-name="" unicode="&#x2202;" d="M144 564 l0 -46 q62 13 110 -29 q47 -42 67 -124 q-77 34 -147 1 q-70 -33 -106 -126 q-36 -101 0 -166 q37 -66 132 -68 q81 3 134 74 q52 72 54 182 q-2 143 -70 228 q-68 84 -174 74 l0 0 ZM333 262 q-2 -91 -40 -151 q-38 -60 -93 -62 q-62 2 -85 52 q-23 50 4 125 q32 82 89 105 q57 23 122 -18 q3 -24 3 -51 l0 0 Z" /><glyph glyph-name="" unicode="%" d="M159 360 q45 1 76 36 q30 35 31 87 q-1 53 -31 88 q-31 36 -76 37 q-46 -1 -76 -37 q-31 -35 -32 -88 q1 -52 32 -87 q30 -35 76 -36 l0 0 ZM61 0 l65 0 l412 600 l-65 0 l-412 -600 ZM159 408 q-25 1 -41 22 q-17 21 -18 53 q1 33 18 55 q16 21 41 22 q24 -1 41 -22 q17 -22 18 -55 q-1 -32 -18 -53 q-17 -21 -41 -22 l0 0 ZM441 -8 q46 1 76 37 q30 35 31 88 q-1 52 -31 87 q-30 35 -76 36 q-46 -1 -76 -36 q-31 -35 -32 -87 q1 -53 32 -88 q30 -36 76 -37 l0 0 ZM441 40 q-25 1 -41 22 q-17 22 -18 55 q1 32 18 53 q16 21 41 22 q24 -1 41 -22 q16 -21 17 -53 q-1 -33 -17 -55 q-17 -21 -41 -22 l0 0 Z" /><glyph glyph-name="" unicode="&#x2030;" d="M159 360 q45 1 76 36 q30 35 31 87 q-1 53 -31 88 q-31 36 -76 37 q-46 -1 -76 -37 q-31 -35 -32 -88 q1 -52 32 -87 q30 -35 76 -36 l0 0 ZM61 0 l65 0 l412 600 l-65 0 l-412 -600 ZM159 408 q-25 1 -41 22 q-17 21 -18 53 q1 33 18 55 q16 21 41 22 q24 -1 41 -22 q17 -22 18 -55 q-1 -32 -18 -53 q-17 -21 -41 -22 l0 0 ZM441 -8 q46 1 76 37 q30 35 31 88 q-1 52 -31 87 q-30 35 -76 36 q-46 -1 -76 -36 q-31 -35 -32 -87 q1 -53 32 -88 q30 -36 76 -37 l0 0 ZM696 -8 q46 1 76 37 q30 35 31 88 q-1 52 -31 87 q-30 35 -76 36 q-46 -1 -76 -36 q-31 -35 -32 -87 q1 -53 32 -88 q30 -36 76 -37 l0 0 ZM441 40 q-25 1 -41 22 q-17 22 -18 55 q1 32 18 53 q16 21 41 22 q24 -1 41 -22 q16 -21 17 -53 q-1 -33 -17 -55 q-17 -21 -41 -22 l0 0 ZM696 40 q-25 1 -41 22 q-17 22 -18 55 q1 32 18 53 q16 21 41 22 q25 -1 41 -22 q16 -21 17 -53 q-1 -33 -17 -55 q-16 -21 -41 -22 l0 0 Z" /><glyph glyph-name="" unicode="+" d="M299 0 l57 0 l0 219 l219 0 l0 58 l-219 0 l0 219 l-57 0 l0 -219 l-220 0 l0 -58 l220 0 l0 -219 Z" /><glyph glyph-name="" unicode="±" d="M350 348 l0 144 l-53 0 l0 -144 l-250 0 l0 -54 l250 0 l0 -144 l53 0 l0 144 l250 0 l0 54 l-250 0 ZM47 0 l553 0 l0 48 l-553 0 l0 -48 Z" /><glyph glyph-name="" unicode="&#x220f;" d="M557 562 l-510 0 l0 -45 l60 0 l0 -613 l46 0 l0 613 l298 0 l0 -613 l45 0 l0 613 l61 0 l0 45 Z" /><glyph glyph-name="" unicode="&#x221a;" d="M208 -62 l32 0 l314 654 l-39 17 l-286 -598 l-83 253 l-83 0 l0 -42 l52 0 l93 -284 Z" /><glyph glyph-name="" unicode="&#x2211;" d="M79 -94 l456 -1 l0 48 l-373 0 l279 281 l-279 280 l373 0 l0 48 l-456 0 l0 -35 l297 -293 l-297 -294 l0 -34 Z" /><glyph glyph-name="" unicode="&#x25ca;" d="M320 42 l241 241 l-241 241 l-241 -242 l241 -240 ZM321 112 l-171 170 l171 172 l170 -171 l-170 -171 Z" /><glyph glyph-name="" unicode="&#xf8ff;" d="M383 0 q129 3 215 89 q86 86 89 215 q-3 129 -89 215 q-86 86 -215 89 q-129 -3 -215 -89 q-86 -86 -89 -215 q3 -129 89 -215 q86 -86 215 -89 l0 0 ZM383 29 q-116 3 -194 81 q-78 78 -81 194 q3 117 81 195 q78 77 194 80 q117 -3 195 -80 q77 -78 80 -195 q-3 -116 -80 -194 q-78 -78 -195 -81 l0 0 ZM542 174 q3 0 6 1 q2 1 4 3 q4 5 4 11 q0 5 -4 9 l-105 106 l105 106 q5 4 5 10 q0 6 -5 10 q-4 5 -10 5 q-5 0 -10 -5 l-116 -116 q-4 -4 -4 -10 q0 -5 4 -10 l116 -116 q2 -2 5 -3 q3 -1 5 -1 l0 0 ZM224 174 q6 0 10 4 q4 4 4 10 l0 232 q0 6 -4 10 q-4 4 -10 4 q-6 0 -10 -4 q-5 -4 -5 -10 l0 -232 q0 -6 5 -10 q4 -4 10 -4 l0 0 ZM383 174 q6 0 10 4 q4 4 4 10 l0 232 q0 6 -4 10 q-4 4 -10 4 q-6 0 -10 -4 q-5 -4 -5 -10 l0 -232 q0 -6 5 -10 q4 -4 10 -4 l0 0 ZM267 290 l73 0 q6 0 10 4 q4 4 4 10 q0 6 -4 10 q-4 4 -10 4 l-73 0 q-6 0 -10 -4 q-5 -4 -5 -10 q0 -6 5 -10 q4 -4 10 -4 l0 0 Z" /><glyph glyph-name="" unicode="|" d="M98 -120 l42 0 l0 720 l-42 0 l0 -720 Z" /><glyph glyph-name="" unicode="¦" d="M98 312 l42 0 l0 288 l-42 0 l0 -288 ZM98 -120 l42 0 l0 288 l-42 0 l0 -288 Z" /><glyph glyph-name="" unicode="@" d="M417 119 l0 174 q-2 63 -45 104 q-44 41 -111 42 q-88 -2 -146 -64 q-58 -61 -60 -154 q2 -95 66 -157 q64 -62 162 -64 l134 0 l0 40 l-134 0 q-80 2 -133 52 q-53 51 -55 129 q2 76 49 126 q46 50 117 52 q49 -1 82 -31 q32 -30 33 -75 l0 -22 q-13 18 -35 29 q-22 11 -45 11 q-43 -1 -71 -29 q-29 -28 -30 -71 q1 -44 30 -72 q28 -28 72 -29 q21 0 43 11 q22 10 36 28 l0 -30 l41 0 ZM310 146 q-30 1 -49 19 q-19 18 -20 46 q1 28 20 46 q19 18 49 19 q24 0 42 -13 q17 -12 24 -32 l0 -40 q-7 -20 -24 -32 q-18 -13 -42 -13 l0 0 Z" /><glyph glyph-name="" unicode="&amp;" d="M504 334 l-56 0 l0 101 l-62 0 l0 -101 l-122 0 q-49 1 -81 30 q-33 30 -34 78 q1 46 31 70 q30 24 73 24 l131 0 l0 64 l-142 0 q-66 -1 -110 -43 q-44 -43 -46 -112 q0 -43 20 -79 q19 -36 52 -60 q-35 -23 -56 -60 q-20 -37 -21 -82 q2 -73 55 -118 q52 -45 132 -46 q81 1 130 48 q49 47 50 122 l0 103 l56 0 l0 61 ZM267 55 q-54 1 -90 31 q-37 30 -38 80 q1 46 33 76 q31 30 79 31 l135 0 l0 -103 q-1 -50 -32 -82 q-32 -32 -87 -33 l0 0 Z" /><glyph glyph-name="" unicode="¶" d="M256 -120 l35 0 l0 720 l-62 0 q-67 0 -104 -34 q-37 -34 -38 -100 q1 -65 38 -100 q37 -34 104 -34 l27 0 l0 -452 ZM366 -120 l35 0 l0 720 l-35 0 l0 -720 Z" /><glyph glyph-name="" unicode="©" d="M357 -8 q131 3 218 90 q87 87 90 218 q-3 131 -90 218 q-87 87 -218 90 q-130 -3 -217 -90 q-88 -87 -91 -218 q3 -131 91 -218 q87 -87 217 -90 l0 0 ZM357 29 q-115 3 -191 79 q-76 76 -79 192 q3 116 79 192 q76 76 191 79 q117 -3 193 -79 q76 -76 79 -192 q-3 -116 -79 -192 q-76 -76 -193 -79 l0 0 ZM364 125 q59 1 103 34 q44 33 62 86 l-55 0 q-15 -31 -44 -49 q-29 -19 -66 -19 q-52 1 -86 35 q-35 34 -36 87 q1 52 36 86 q34 34 86 35 q37 0 66 -19 q29 -18 44 -49 l55 0 q-18 53 -62 86 q-44 33 -103 34 q-74 -2 -123 -51 q-49 -49 -51 -122 q2 -74 51 -123 q49 -49 123 -51 l0 0 Z" /><glyph glyph-name="" unicode="®" d="M357 608 q-130 -3 -217 -90 q-88 -87 -91 -218 q3 -131 91 -218 q87 -87 217 -90 q131 3 218 90 q87 87 90 218 q-3 131 -90 218 q-87 87 -218 90 l0 0 ZM357 29 q-115 3 -191 79 q-76 76 -79 192 q3 116 79 192 q76 76 191 79 q117 -3 193 -79 q76 -76 79 -192 q-3 -116 -79 -192 q-76 -76 -193 -79 l0 0 ZM468 368 q-1 38 -26 62 q-26 25 -65 26 l-101 0 l0 -312 l35 0 l0 135 l54 0 l76 -135 l39 0 l-76 139 q29 9 46 31 q18 23 18 54 l0 0 ZM311 422 l66 0 q24 -1 39 -16 q15 -15 16 -38 q-1 -24 -16 -39 q-15 -15 -39 -15 l-66 0 l0 108 Z" /><glyph glyph-name="" unicode="§" d="M416 196 q32 30 32 72 q-19 105 -156 128 q-136 23 -156 96 q2 37 38 55 q36 19 85 19 q38 0 70 -12 q31 -11 51 -30 l34 28 q-26 25 -68 40 q-41 16 -90 16 q-66 0 -116 -30 q-49 -29 -52 -88 q0 -22 9 -39 q8 -18 23 -31 q-16 -15 -24 -32 q-8 -18 -8 -39 q20 -105 156 -128 q137 -23 156 -95 q-2 -40 -43 -60 q-41 -21 -99 -21 q-60 1 -101 21 q-41 20 -56 50 l-41 -24 q22 -38 74 -64 q51 -25 122 -26 q78 1 134 33 q55 33 58 91 q0 22 -8 40 q-9 17 -24 30 l0 0 ZM136 350 q0 14 6 25 q6 12 17 20 q75 -30 155 -51 q80 -22 86 -76 q0 -14 -6 -25 q-6 -12 -17 -21 q-75 30 -155 52 q-80 21 -86 76 l0 0 Z" /><glyph glyph-name="" unicode="&#x2122;" d="M39 565 l76 0 l0 -246 l39 0 l0 246 l77 0 l0 35 l-192 0 l0 -35 ZM528 600 l-101 -151 l-102 151 l-42 0 l0 -281 l39 0 l0 218 l105 -155 l105 158 l0 -221 l38 0 l0 281 l-42 0 Z" /><glyph glyph-name="" unicode="°" d="M202 394 q45 1 76 31 q30 31 31 76 q-1 45 -31 76 q-31 30 -76 31 q-45 -1 -76 -31 q-30 -31 -31 -76 q1 -45 31 -76 q31 -30 76 -31 l0 0 ZM202 428 q-31 1 -52 21 q-20 21 -21 52 q1 31 21 52 q21 20 52 21 q31 -1 52 -21 q20 -21 21 -52 q-1 -31 -21 -52 q-21 -20 -52 -21 l0 0 Z" /><glyph glyph-name="" unicode="&#x212e;" d="M380 -7 q83 1 153 33 q70 31 117 86 l-49 0 q-40 -47 -97 -74 q-57 -27 -124 -28 q-61 1 -115 25 q-54 24 -94 66 q-3 4 -5 9 q-2 5 -2 10 l0 168 q0 3 4 3 l554 0 l0 8 q-4 132 -100 219 q-97 87 -242 90 q-145 -3 -242 -90 q-96 -87 -100 -219 q4 -130 100 -216 q97 -87 242 -90 l0 0 ZM168 308 q-2 0 -3 2 q-1 2 -1 4 l0 164 q0 6 2 12 q2 5 6 9 q41 42 94 66 q54 24 114 25 q62 -1 115 -24 q53 -24 93 -64 q4 -4 6 -9 q2 -6 2 -11 l0 -168 q0 -2 0 -4 q-1 -2 -3 -2 l-425 0 Z" /><glyph glyph-name="" unicode="&#x2113;" d="M271 -4 q56 0 103 28 q46 29 79 88 l-31 27 q-18 -34 -54 -62 q-35 -28 -83 -30 q-43 0 -76 31 q-33 31 -35 97 l0 22 q94 81 149 159 q55 79 56 160 q0 57 -29 98 q-29 41 -91 43 q-56 2 -100 -44 q-44 -46 -47 -163 l0 -235 q-17 -15 -36 -29 q-20 -15 -40 -31 l20 -37 q15 11 29 22 q15 11 28 20 l0 -9 q4 -62 42 -107 q38 -46 116 -48 l0 0 ZM174 258 l0 200 q2 86 28 120 q26 33 56 32 q39 -1 56 -28 q16 -27 16 -69 q-2 -64 -45 -128 q-44 -63 -111 -127 l0 0 Z" /><glyph glyph-name="" unicode="^" d="M532 158 l-222 442 l-57 0 l-222 -442 l54 0 l197 391 l197 -391 l53 0 Z" /><glyph glyph-name="" unicode="&#x2020;" d="M431 377 l-140 0 l0 159 l-43 0 l0 -159 l-137 0 l0 -43 l137 0 l0 -470 l43 0 l0 470 l140 0 l0 43 Z" /><glyph glyph-name="" unicode="&#x2021;" d="M431 334 l0 43 l-140 0 l0 159 l-43 0 l0 -159 l-137 0 l0 -43 l137 0 l0 -265 l-137 0 l0 -42 l137 0 l0 -163 l43 0 l0 163 l140 0 l0 42 l-140 0 l0 265 l140 0 Z" /><glyph glyph-name="" unicode="&#x308;" d="M-244 475 q18 0 30 12 q12 12 13 30 q-1 19 -13 31 q-12 12 -30 12 q-18 0 -31 -12 q-12 -12 -13 -31 q1 -18 13 -30 q13 -12 31 -12 l0 0 ZM-99 475 q18 0 31 12 q12 12 12 30 q0 19 -12 31 q-13 12 -31 12 q-18 0 -30 -12 q-12 -12 -13 -31 q1 -18 13 -30 q12 -12 30 -12 l0 0 Z" /><glyph glyph-name="" unicode="&#x307;" d="M-122 460 q18 0 30 13 q12 12 13 30 q-1 18 -13 31 q-12 12 -30 12 q-18 0 -30 -12 q-12 -13 -13 -31 q1 -18 13 -30 q12 -13 30 -13 l0 0 Z" /><glyph glyph-name="" unicode="&#x300;" d="M-20 452 l-88 148 l-72 0 l118 -148 l42 0 Z" /><glyph glyph-name="" unicode="&#x301;" d="M-196 452 l42 0 l118 148 l-72 0 l-88 -148 Z" /><glyph glyph-name="" unicode="&#x30b;" d="M-150 452 l42 0 l117 148 l-72 0 l-87 -148 ZM-20 452 l42 0 l117 148 l-72 0 l-87 -148 Z" /><glyph glyph-name="" unicode="&#x302;" d="M-218 452 l62 107 l62 -107 l49 0 l-79 148 l-64 0 l-78 -148 l48 0 Z" /><glyph glyph-name="" unicode="&#x30c;" d="M-188 452 l64 0 l79 148 l-49 0 l-62 -106 l-62 106 l-48 0 l78 -148 Z" /><glyph glyph-name="" unicode="&#x306;" d="M-277 453 q58 1 95 33 q36 33 37 89 l-39 0 q-1 -35 -26 -58 q-26 -23 -67 -24 q-41 1 -66 24 q-25 23 -26 58 l-39 0 q1 -56 37 -89 q37 -32 94 -33 l0 0 Z" /><glyph glyph-name="" unicode="&#x30a;" d="M-79 438 q35 1 58 25 q23 23 24 58 q-1 35 -24 59 q-23 23 -58 24 q-35 -1 -59 -24 q-24 -24 -25 -59 q1 -35 25 -58 q24 -24 59 -25 l0 0 ZM-79 472 q-21 0 -35 14 q-14 14 -14 35 q0 21 14 35 q14 14 35 15 q20 -1 34 -15 q13 -14 14 -35 q-1 -21 -14 -35 q-14 -14 -34 -14 l0 0 Z" /><glyph glyph-name="" unicode="&#x303;" d="M-111 491 q41 1 63 32 q22 30 22 76 l-46 0 q0 -31 -10 -46 q-10 -16 -29 -16 q-13 0 -21 7 q-8 6 -14 15 q-12 19 -30 31 q-17 13 -43 13 q-39 -1 -61 -31 q-23 -30 -23 -77 l46 0 q0 27 10 44 q10 17 30 18 q10 0 18 -5 q8 -4 15 -17 q11 -17 28 -30 q18 -13 45 -14 l0 0 Z" /><glyph glyph-name="" unicode="&#x304;" d="M-263 483 l215 0 l0 42 l-215 0 l0 -42 Z" /><glyph glyph-name="" unicode="&#x312;" d="M-61 663 l-94 -141 l78 0 l60 141 l-44 0 Z" /><glyph glyph-name="" unicode="&#x323;" d="M-74 -200 q18 0 30 13 q12 12 13 30 q-1 18 -13 30 q-12 12 -30 13 q-18 -1 -30 -13 q-12 -12 -13 -30 q1 -18 13 -30 q12 -13 30 -13 l0 0 Z" /><glyph glyph-name="" unicode="&#x326;" d="M-139 -101 l94 141 l-78 0 l-60 -141 l44 0 Z" /><glyph glyph-name="" unicode="&#x327;" d="M-113 -208 q36 1 59 24 q22 24 23 59 q-1 38 -29 59 q-28 20 -70 13 l26 53 l-38 0 l-35 -70 l30 -20 q34 12 56 2 q22 -10 23 -37 q0 -20 -13 -33 q-13 -13 -32 -13 q-16 0 -32 9 q-16 8 -26 20 l-34 -14 q12 -22 38 -37 q26 -14 54 -15 l0 0 Z" /><glyph glyph-name="" unicode="&#x328;" d="M-112 -207 q30 -2 57 8 q26 10 49 32 l-22 31 q-14 -18 -33 -27 q-19 -10 -42 -10 q-26 0 -40 15 q-14 15 -14 39 q1 41 31 69 q29 27 70 50 l-33 11 q-48 -28 -80 -60 q-31 -32 -32 -75 q1 -38 24 -60 q24 -21 65 -23 l0 0 Z" /><glyph glyph-name="" unicode="&#x335;" d="M-375 180 l232 0 l0 60 l-232 0 l0 -60 Z" /><glyph glyph-name="" unicode="&#x336;" d="M-602 186 l570 0 l0 44 l-570 0 l0 -44 Z" /><glyph glyph-name="" unicode="&#x337;" d="M-367 104 l34 -29 l214 227 l-35 29 l-213 -227 Z" /><glyph glyph-name="" unicode="&#x338;" d="M-497 -6 l47 -29 l447 641 l-46 30 l-448 -642 Z" /><glyph glyph-name="" unicode="´" d="M8 452 l42 0 l118 148 l-72 0 l-88 -148 Z" /><glyph glyph-name="" unicode="&#x2d8;" d="M237 453 q58 1 95 33 q36 33 37 89 l-39 0 q-1 -35 -26 -58 q-26 -23 -67 -24 q-41 1 -66 24 q-25 23 -26 58 l-39 0 q1 -56 37 -89 q37 -32 94 -33 l0 0 Z" /><glyph glyph-name="" unicode="&#x2c7;" d="M124 452 l64 0 l79 148 l-49 0 l-62 -106 l-62 106 l-48 0 l78 -148 Z" /><glyph glyph-name="" unicode="¸" d="M123 -208 q36 1 59 24 q22 24 23 59 q-1 38 -29 59 q-28 20 -70 13 l26 53 l-38 0 l-35 -70 l30 -20 q34 12 56 2 q22 -10 23 -37 q0 -20 -13 -33 q-13 -13 -32 -13 q-16 0 -32 9 q-16 8 -26 20 l-34 -14 q12 -22 38 -37 q26 -14 54 -15 l0 0 Z" /><glyph glyph-name="" unicode="&#x2c6;" d="M94 452 l62 107 l62 -107 l49 0 l-79 148 l-64 0 l-78 -148 l48 0 Z" /><glyph glyph-name="" unicode="¨" d="M100 475 q18 0 30 12 q12 12 13 30 q-1 19 -13 31 q-12 12 -30 12 q-18 0 -31 -12 q-12 -12 -13 -31 q1 -18 13 -30 q13 -12 31 -12 l0 0 ZM245 475 q18 0 31 12 q12 12 12 30 q0 19 -12 31 q-13 12 -31 12 q-18 0 -30 -12 q-12 -12 -13 -31 q1 -18 13 -30 q12 -12 30 -12 l0 0 Z" /><glyph glyph-name="" unicode="&#x2d9;" d="M122 460 q18 0 30 13 q12 12 13 30 q-1 18 -13 31 q-12 12 -30 12 q-18 0 -30 -12 q-12 -13 -13 -31 q1 -18 13 -30 q12 -13 30 -13 l0 0 Z" /><glyph glyph-name="" unicode="`" d="M184 452 l-88 148 l-72 0 l118 -148 l42 0 Z" /><glyph glyph-name="" unicode="&#x2dd;" d="M8 452 l42 0 l118 148 l-72 0 l-88 -148 Z" /><glyph glyph-name="" unicode="¯" d="M47 483 l215 0 l0 42 l-215 0 l0 -42 Z" /><glyph glyph-name="" unicode="&#x2db;" d="M132 -207 q30 -2 57 8 q26 10 49 32 l-22 31 q-14 -18 -33 -27 q-19 -10 -42 -10 q-26 0 -40 15 q-14 15 -14 39 q1 41 31 69 q29 27 70 50 l-33 11 q-48 -28 -80 -60 q-31 -32 -32 -75 q1 -38 24 -60 q24 -21 65 -23 l0 0 Z" /><glyph glyph-name="" unicode="&#x2da;" d="M81 438 q35 1 58 25 q23 23 24 58 q-1 35 -24 59 q-23 23 -58 24 q-35 -1 -59 -24 q-24 -24 -25 -59 q1 -35 25 -58 q24 -24 59 -25 l0 0 ZM81 472 q-21 0 -35 14 q-14 14 -14 35 q0 21 14 35 q14 14 35 15 q20 -1 34 -15 q13 -14 14 -35 q-1 -21 -14 -35 q-14 -14 -34 -14 l0 0 Z" /><glyph glyph-name="" unicode="&#x2dc;" d="M217 491 q41 1 63 32 q22 30 22 76 l-46 0 q0 -31 -10 -46 q-10 -16 -29 -16 q-13 0 -21 7 q-8 6 -14 15 q-12 19 -30 31 q-17 13 -43 13 q-39 -1 -61 -31 q-23 -30 -23 -77 l46 0 q0 27 10 44 q10 17 30 18 q10 0 18 -5 q8 -4 15 -17 q11 -17 28 -30 q18 -13 45 -14 l0 0 Z" /></font>
</defs>
</svg>
