<?xml version="1.0" standalone="no"?><!DOCTYPE svg PUBLIC "-//W3C//DTD SVG 1.1//EN" "http://www.w3.org/Graphics/SVG/1.1/DTD/svg11.dtd" ><svg xmlns="http://www.w3.org/2000/svg"><metadata></metadata><defs><font id="1.002;AMMP;Now-Medium" horiz-adv-x="918"><font-face font-family="Now Medium" font-weight="500" font-stretch="normal" units-per-em="800" panose-1="0 0 6 0 0 0 0 0 0 0" ascent="720" descent="-240" x-height="0" bbox="-611 -242 876 912" underline-thickness="50" underline-position="-75" unicode-range="U+0020-fb02" /><missing-glyph horiz-adv-x="498" d="M75 0 l348 0 l0 600 l-348 0 l0 -600 ZM146 72 l0 456 l205 0 l0 -456 l-205 0 Z" /><glyph glyph-name="" unicode="A" d="M430 0 l106 0 l-217 600 l-109 0 l-217 -600 l106 0 l43 127 l245 0 l43 -127 ZM171 213 l94 280 l94 -280 l-188 0 Z" /><glyph glyph-name="" unicode="Á" d="M413 800 l-97 0 l-88 -149 l62 0 l123 149 ZM430 0 l106 0 l-217 600 l-109 0 l-217 -600 l106 0 l43 127 l245 0 l43 -127 ZM171 213 l94 280 l94 -280 l-188 0 Z" /><glyph glyph-name="" unicode="&#x102;" d="M264 649 q63 0 100 34 q38 33 39 97 l-55 0 q-1 -31 -23 -53 q-23 -22 -61 -23 q-37 1 -60 23 q-22 22 -23 53 l-55 0 q1 -64 39 -97 q37 -34 99 -34 l0 0 ZM430 0 l106 0 l-217 600 l-109 0 l-217 -600 l106 0 l43 127 l245 0 l43 -127 ZM171 213 l94 280 l94 -280 l-188 0 Z" /><glyph glyph-name="" unicode="&#x1cd;" d="M301 651 l88 149 l-64 0 l-60 -92 l-59 92 l-65 0 l88 -149 l72 0 ZM430 0 l106 0 l-217 600 l-109 0 l-217 -600 l106 0 l43 127 l245 0 l43 -127 ZM171 213 l94 280 l94 -280 l-188 0 Z" /><glyph glyph-name="" unicode="Â" d="M265 744 l60 -93 l64 0 l-88 149 l-72 0 l-88 -149 l65 0 l59 93 ZM430 0 l106 0 l-217 600 l-109 0 l-217 -600 l106 0 l43 127 l245 0 l43 -127 ZM171 213 l94 280 l94 -280 l-188 0 Z" /><glyph glyph-name="" unicode="Ä" d="M186 672 q22 1 37 16 q15 14 16 36 q-1 22 -16 37 q-15 14 -37 15 q-22 -1 -36 -15 q-15 -15 -16 -37 q1 -22 16 -36 q14 -15 36 -16 l0 0 ZM343 672 q22 1 37 16 q14 14 15 36 q-1 22 -15 37 q-15 14 -37 15 q-22 -1 -36 -15 q-15 -15 -16 -37 q1 -22 16 -36 q14 -15 36 -16 l0 0 ZM430 0 l106 0 l-217 600 l-109 0 l-217 -600 l106 0 l43 127 l245 0 l43 -127 ZM171 213 l94 280 l94 -280 l-188 0 Z" /><glyph glyph-name="" unicode="À" d="M302 651 l-88 149 l-97 0 l123 -149 l62 0 ZM430 0 l106 0 l-217 600 l-109 0 l-217 -600 l106 0 l43 127 l245 0 l43 -127 ZM171 213 l94 280 l94 -280 l-188 0 Z" /><glyph glyph-name="" unicode="&#x100;" d="M379 735 l-228 0 l0 -62 l228 0 l0 62 ZM430 0 l106 0 l-217 600 l-109 0 l-217 -600 l106 0 l43 127 l245 0 l43 -127 ZM171 213 l94 280 l94 -280 l-188 0 Z" /><glyph glyph-name="" unicode="&#x104;" d="M553 -119 q-12 -19 -31 -29 q-19 -11 -40 -11 q-23 0 -36 14 q-13 14 -13 38 q1 37 30 61 q29 24 73 46 l-217 600 l-109 0 l-217 -600 l106 0 l43 127 l245 0 l43 -127 l33 0 q-40 -21 -65 -49 q-25 -28 -26 -67 q0 -39 25 -63 q25 -25 70 -28 q33 -1 63 10 q29 11 53 35 l-30 43 ZM171 213 l94 280 l94 -280 l-188 0 Z" /><glyph glyph-name="" unicode="Å" d="M430 0 l106 0 l-210 580 q14 13 23 30 q8 18 8 38 q-1 38 -26 64 q-25 25 -63 26 q-38 -1 -64 -26 q-26 -26 -27 -64 q0 -19 7 -35 q7 -16 20 -29 l-211 -584 l106 0 l43 127 l245 0 l43 -127 ZM268 696 q20 -1 33 -14 q14 -14 14 -34 q0 -21 -14 -34 q-13 -13 -33 -13 q-20 0 -33 13 q-13 13 -13 34 q0 20 13 34 q13 13 33 14 l0 0 ZM171 213 l94 280 l94 -280 l-188 0 Z" /><glyph glyph-name="" unicode="Ã" d="M214 721 q7 0 13 -4 q6 -4 12 -14 q13 -20 32 -32 q19 -13 45 -13 q45 1 68 34 q23 33 23 84 l-61 0 q0 -28 -7 -43 q-8 -16 -24 -16 q-10 0 -16 6 q-6 5 -10 12 q-13 19 -31 32 q-19 12 -46 13 q-43 -1 -67 -33 q-24 -33 -24 -85 l61 0 q0 25 8 42 q8 16 24 17 l0 0 ZM430 0 l106 0 l-217 600 l-109 0 l-217 -600 l106 0 l43 127 l245 0 l43 -127 ZM171 213 l94 280 l94 -280 l-188 0 Z" /><glyph glyph-name="" unicode="Æ" d="M685 511 l0 89 l-451 0 l-241 -600 l110 0 l52 134 l186 0 l0 -134 l344 0 l0 89 l-249 0 l0 169 l215 0 l0 84 l-215 0 l0 169 l249 0 ZM187 217 l115 300 l39 0 l0 -300 l-154 0 Z" /><glyph glyph-name="" unicode="B" d="M395 304 q37 18 58 52 q22 33 22 81 q-2 75 -50 119 q-49 43 -123 44 l-236 0 l0 -600 l258 0 q73 1 121 43 q48 43 50 118 q-1 55 -28 91 q-27 35 -72 52 l0 0 ZM377 427 q-1 -36 -25 -60 q-25 -23 -61 -24 l-128 0 l0 166 l128 0 q36 -1 61 -23 q24 -22 25 -59 l0 0 ZM310 91 l-147 0 l0 166 l147 0 q37 -1 62 -24 q24 -24 25 -60 q-1 -36 -25 -59 q-25 -22 -62 -23 l0 0 Z" /><glyph glyph-name="" unicode="C" d="M351 -8 q89 1 159 45 q71 43 111 116 l-84 45 q-27 -50 -76 -79 q-48 -29 -110 -30 q-91 2 -150 61 q-59 59 -61 150 q2 91 61 150 q59 59 150 61 q62 -1 110 -30 q49 -29 76 -79 l84 45 q-40 73 -111 117 q-70 43 -159 44 q-131 -3 -218 -90 q-87 -87 -90 -218 q3 -131 90 -218 q87 -87 218 -90 l0 0 Z" /><glyph glyph-name="" unicode="&#x106;" d="M314 651 l62 0 l123 149 l-97 0 l-88 -149 ZM351 -8 q89 1 159 45 q71 43 111 116 l-84 45 q-27 -50 -76 -79 q-48 -29 -110 -30 q-91 2 -150 61 q-59 59 -61 150 q2 91 61 150 q59 59 150 61 q62 -1 110 -30 q49 -29 76 -79 l84 45 q-40 73 -111 117 q-70 43 -159 44 q-131 -3 -218 -90 q-87 -87 -90 -218 q3 -131 90 -218 q87 -87 218 -90 l0 0 Z" /><glyph glyph-name="" unicode="&#x10c;" d="M315 651 l72 0 l88 149 l-64 0 l-60 -92 l-59 92 l-65 0 l88 -149 ZM351 -8 q89 1 159 45 q71 43 111 116 l-84 45 q-27 -50 -76 -79 q-48 -29 -110 -30 q-91 2 -150 61 q-59 59 -61 150 q2 91 61 150 q59 59 150 61 q62 -1 110 -30 q49 -29 76 -79 l84 45 q-40 73 -111 117 q-70 43 -159 44 q-131 -3 -218 -90 q-87 -87 -90 -218 q3 -131 90 -218 q87 -87 218 -90 l0 0 Z" /><glyph glyph-name="" unicode="Ç" d="M351 89 q-91 2 -150 61 q-59 59 -61 150 q2 91 61 150 q59 59 150 61 q62 -1 110 -30 q49 -29 76 -79 l84 45 q-40 73 -111 117 q-70 43 -159 44 q-131 -3 -218 -90 q-87 -87 -90 -218 q3 -124 81 -209 q78 -85 199 -98 l-35 -65 l38 -23 q30 12 50 5 q19 -8 20 -32 q0 -16 -11 -27 q-10 -11 -26 -11 q-13 0 -27 7 q-14 7 -21 18 l-45 -16 q11 -25 37 -40 q26 -16 56 -17 q37 1 61 25 q23 24 24 61 q-1 38 -28 59 q-26 20 -67 13 l22 43 q83 6 148 49 q64 43 102 111 l-84 45 q-27 -50 -76 -79 q-48 -29 -110 -30 l0 0 Z" /><glyph glyph-name="" unicode="&#x10a;" d="M351 655 q24 1 40 17 q16 16 17 39 q-1 25 -17 41 q-16 15 -40 16 q-23 -1 -39 -16 q-16 -16 -17 -41 q1 -23 17 -39 q16 -16 39 -17 l0 0 ZM351 -8 q89 1 159 45 q71 43 111 116 l-84 45 q-27 -50 -76 -79 q-48 -29 -110 -30 q-91 2 -150 61 q-59 59 -61 150 q2 91 61 150 q59 59 150 61 q62 -1 110 -30 q49 -29 76 -79 l84 45 q-40 73 -111 117 q-70 43 -159 44 q-131 -3 -218 -90 q-87 -87 -90 -218 q3 -131 90 -218 q87 -87 218 -90 l0 0 Z" /><glyph glyph-name="" unicode="D" d="M66 0 l180 0 q128 3 212 88 q85 84 88 212 q-3 128 -88 212 q-84 85 -212 88 l-180 0 l0 -600 ZM163 91 l0 418 l83 0 q88 -2 144 -59 q57 -58 59 -150 q-2 -92 -59 -149 q-56 -58 -144 -60 l-83 0 Z" /><glyph glyph-name="" unicode="Ð" d="M246 600 l-180 0 l0 -267 l-59 0 l0 -66 l59 0 l0 -267 l180 0 q128 3 212 88 q85 84 88 212 q-3 128 -88 212 q-84 85 -212 88 l0 0 ZM246 91 l-83 0 l0 176 l99 0 l0 66 l-99 0 l0 176 l83 0 q88 -2 144 -59 q57 -58 59 -150 q-2 -92 -59 -149 q-56 -58 -144 -60 l0 0 Z" /><glyph glyph-name="" unicode="&#x10e;" d="M210 651 l72 0 l88 149 l-64 0 l-60 -92 l-59 92 l-65 0 l88 -149 ZM66 0 l180 0 q128 3 212 88 q85 84 88 212 q-3 128 -88 212 q-84 85 -212 88 l-180 0 l0 -600 ZM163 91 l0 418 l83 0 q88 -2 144 -59 q57 -58 59 -150 q-2 -92 -59 -149 q-56 -58 -144 -60 l-83 0 Z" /><glyph glyph-name="" unicode="&#x110;" d="M246 600 l-180 0 l0 -267 l-59 0 l0 -66 l59 0 l0 -267 l180 0 q128 3 212 88 q85 84 88 212 q-3 128 -88 212 q-84 85 -212 88 l0 0 ZM246 91 l-83 0 l0 176 l99 0 l0 66 l-99 0 l0 176 l83 0 q88 -2 144 -59 q57 -58 59 -150 q-2 -92 -59 -149 q-56 -58 -144 -60 l0 0 Z" /><glyph glyph-name="" unicode="E" d="M415 511 l0 89 l-344 0 l0 -600 l344 0 l0 89 l-246 0 l0 166 l213 0 l0 90 l-213 0 l0 166 l246 0 Z" /><glyph glyph-name="" unicode="É" d="M391 800 l-97 0 l-88 -149 l62 0 l123 149 ZM415 511 l0 89 l-344 0 l0 -600 l344 0 l0 89 l-246 0 l0 166 l213 0 l0 90 l-213 0 l0 166 l246 0 Z" /><glyph glyph-name="" unicode="&#x11a;" d="M279 651 l88 149 l-64 0 l-60 -92 l-59 92 l-65 0 l88 -149 l72 0 ZM415 511 l0 89 l-344 0 l0 -600 l344 0 l0 89 l-246 0 l0 166 l213 0 l0 90 l-213 0 l0 166 l246 0 Z" /><glyph glyph-name="" unicode="Ê" d="M243 744 l60 -93 l64 0 l-88 149 l-72 0 l-88 -149 l65 0 l59 93 ZM415 511 l0 89 l-344 0 l0 -600 l344 0 l0 89 l-246 0 l0 166 l213 0 l0 90 l-213 0 l0 166 l246 0 Z" /><glyph glyph-name="" unicode="Ë" d="M164 672 q22 1 37 16 q15 14 16 36 q-1 22 -16 37 q-15 14 -37 15 q-22 -1 -36 -15 q-15 -15 -16 -37 q1 -22 16 -36 q14 -15 36 -16 l0 0 ZM321 672 q22 1 37 16 q14 14 15 36 q-1 22 -15 37 q-15 14 -37 15 q-22 -1 -36 -15 q-15 -15 -16 -37 q1 -22 16 -36 q14 -15 36 -16 l0 0 ZM415 511 l0 89 l-344 0 l0 -600 l344 0 l0 89 l-246 0 l0 166 l213 0 l0 90 l-213 0 l0 166 l246 0 Z" /><glyph glyph-name="" unicode="&#x116;" d="M243 655 q24 1 40 17 q16 16 17 39 q-1 25 -17 41 q-16 15 -40 16 q-23 -1 -39 -16 q-16 -16 -17 -41 q1 -23 17 -39 q16 -16 39 -17 l0 0 ZM415 511 l0 89 l-344 0 l0 -600 l344 0 l0 89 l-246 0 l0 166 l213 0 l0 90 l-213 0 l0 166 l246 0 Z" /><glyph glyph-name="" unicode="È" d="M280 651 l-88 149 l-97 0 l123 -149 l62 0 ZM415 511 l0 89 l-344 0 l0 -600 l344 0 l0 89 l-246 0 l0 166 l213 0 l0 90 l-213 0 l0 166 l246 0 Z" /><glyph glyph-name="" unicode="&#x112;" d="M357 735 l-228 0 l0 -62 l228 0 l0 62 ZM415 511 l0 89 l-344 0 l0 -600 l344 0 l0 89 l-246 0 l0 166 l213 0 l0 90 l-213 0 l0 166 l246 0 Z" /><glyph glyph-name="" unicode="&#x118;" d="M432 -119 q-12 -19 -31 -29 q-19 -11 -40 -11 q-23 0 -36 14 q-13 14 -13 38 q1 37 30 61 q29 24 73 46 l0 89 l-246 0 l0 166 l213 0 l0 90 l-213 0 l0 166 l246 0 l0 89 l-344 0 l0 -600 l271 0 q-40 -21 -65 -49 q-25 -28 -26 -67 q0 -39 25 -63 q25 -25 70 -28 q33 -1 63 10 q29 11 53 35 l-30 43 Z" /><glyph glyph-name="" unicode="F" d="M415 511 l0 89 l-344 0 l0 -600 l98 0 l0 255 l213 0 l0 90 l-213 0 l0 166 l246 0 Z" /><glyph glyph-name="" unicode="G" d="M352 324 l0 -82 l204 0 q-19 -69 -74 -110 q-54 -42 -129 -43 q-91 2 -151 61 q-59 59 -61 150 q2 91 61 150 q60 59 151 61 q61 -1 110 -30 q48 -29 76 -79 l84 45 q-40 73 -111 117 q-71 43 -159 44 q-131 -3 -218 -90 q-87 -87 -90 -218 q3 -131 90 -218 q87 -87 218 -90 q131 3 218 90 q87 87 90 218 l0 24 l-309 0 Z" /><glyph glyph-name="" unicode="&#x11e;" d="M352 649 q63 0 100 34 q38 33 39 97 l-55 0 q-1 -31 -23 -53 q-23 -22 -61 -23 q-37 1 -60 23 q-22 22 -23 53 l-55 0 q1 -64 39 -97 q37 -34 99 -34 l0 0 ZM352 324 l0 -82 l204 0 q-19 -69 -74 -110 q-54 -42 -129 -43 q-91 2 -151 61 q-59 59 -61 150 q2 91 61 150 q60 59 151 61 q61 -1 110 -30 q48 -29 76 -79 l84 45 q-40 73 -111 117 q-71 43 -159 44 q-131 -3 -218 -90 q-87 -87 -90 -218 q3 -131 90 -218 q87 -87 218 -90 q131 3 218 90 q87 87 90 218 l0 24 l-309 0 Z" /><glyph glyph-name="" unicode="&#x122;" d="M352 324 l0 -82 l204 0 q-19 -69 -74 -110 q-54 -42 -129 -43 q-91 2 -151 61 q-59 59 -61 150 q2 91 61 150 q60 59 151 61 q61 -1 110 -30 q48 -29 76 -79 l84 45 q-40 73 -111 117 q-71 43 -159 44 q-131 -3 -218 -90 q-87 -87 -90 -218 q3 -131 90 -218 q87 -87 218 -90 q131 3 218 90 q87 87 90 218 l0 24 l-309 0 ZM247 -194 l53 0 l100 146 l-95 0 l-58 -146 Z" /><glyph glyph-name="" unicode="&#x120;" d="M353 655 q24 1 40 17 q16 16 17 39 q-1 25 -17 41 q-16 15 -40 16 q-23 -1 -39 -16 q-16 -16 -17 -41 q1 -23 17 -39 q16 -16 39 -17 l0 0 ZM352 324 l0 -82 l204 0 q-19 -69 -74 -110 q-54 -42 -129 -43 q-91 2 -151 61 q-59 59 -61 150 q2 91 61 150 q60 59 151 61 q61 -1 110 -30 q48 -29 76 -79 l84 45 q-40 73 -111 117 q-71 43 -159 44 q-131 -3 -218 -90 q-87 -87 -90 -218 q3 -131 90 -218 q87 -87 218 -90 q131 3 218 90 q87 87 90 218 l0 24 l-309 0 Z" /><glyph glyph-name="" unicode="H" d="M451 600 l0 -254 l-287 0 l0 254 l-98 0 l0 -600 l98 0 l0 255 l287 0 l0 -255 l98 0 l0 600 l-98 0 Z" /><glyph glyph-name="" unicode="&#x126;" d="M599 494 l-50 0 l0 106 l-98 0 l0 -106 l-287 0 l0 106 l-98 0 l0 -106 l-51 0 l0 -48 l51 0 l0 -446 l98 0 l0 255 l287 0 l0 -255 l98 0 l0 446 l50 0 l0 48 ZM451 346 l-287 0 l0 100 l287 0 l0 -100 Z" /><glyph glyph-name="" unicode="I" d="M71 0 l98 0 l0 600 l-98 0 l0 -600 Z" /><glyph glyph-name="" unicode="Í" d="M82 651 l62 0 l123 149 l-97 0 l-88 -149 ZM71 0 l98 0 l0 600 l-98 0 l0 -600 Z" /><glyph glyph-name="" unicode="&#x1cf;" d="M83 651 l72 0 l88 149 l-64 0 l-60 -92 l-59 92 l-65 0 l88 -149 ZM71 0 l98 0 l0 600 l-98 0 l0 -600 Z" /><glyph glyph-name="" unicode="Î" d="M60 651 l59 93 l60 -93 l64 0 l-88 149 l-72 0 l-88 -149 l65 0 ZM71 0 l98 0 l0 600 l-98 0 l0 -600 Z" /><glyph glyph-name="" unicode="Ï" d="M40 672 q22 1 37 16 q15 14 16 36 q-1 22 -16 37 q-15 14 -37 15 q-22 -1 -36 -15 q-15 -15 -16 -37 q1 -22 16 -36 q14 -15 36 -16 l0 0 ZM197 672 q22 1 37 16 q14 14 15 36 q-1 22 -15 37 q-15 14 -37 15 q-22 -1 -36 -15 q-15 -15 -16 -37 q1 -22 16 -36 q14 -15 36 -16 l0 0 ZM71 0 l98 0 l0 600 l-98 0 l0 -600 Z" /><glyph glyph-name="" unicode="&#x130;" d="M119 655 q24 1 40 17 q16 16 17 39 q-1 25 -17 41 q-16 15 -40 16 q-23 -1 -39 -16 q-16 -16 -17 -41 q1 -23 17 -39 q16 -16 39 -17 l0 0 ZM71 0 l98 0 l0 600 l-98 0 l0 -600 Z" /><glyph glyph-name="" unicode="Ì" d="M156 651 l-88 149 l-97 0 l123 -149 l62 0 ZM71 0 l98 0 l0 600 l-98 0 l0 -600 Z" /><glyph glyph-name="" unicode="&#x12a;" d="M5 673 l228 0 l0 62 l-228 0 l0 -62 ZM71 0 l98 0 l0 600 l-98 0 l0 -600 Z" /><glyph glyph-name="" unicode="&#x12e;" d="M186 -119 q-12 -19 -31 -29 q-19 -11 -40 -11 q-23 0 -36 14 q-13 14 -13 38 q1 37 30 61 q29 24 73 46 l0 600 l-98 0 l0 -600 l25 0 q-40 -21 -65 -49 q-25 -28 -26 -67 q0 -39 25 -63 q25 -25 70 -28 q33 -1 63 10 q29 11 53 35 l-30 43 Z" /><glyph glyph-name="" unicode="J" d="M369 600 l-301 0 l0 -91 l203 0 l0 -348 q-1 -36 -21 -57 q-20 -21 -52 -22 q-29 0 -48 19 q-19 18 -23 49 l-98 -26 q9 -62 52 -97 q44 -34 117 -35 q81 1 126 42 q44 42 45 115 l0 451 Z" /><glyph glyph-name="" unicode="K" d="M432 0 l133 0 l-286 328 l266 272 l-129 0 l-218 -229 l-34 0 l0 229 l-98 0 l0 -600 l98 0 l0 283 l32 0 l236 -283 Z" /><glyph glyph-name="" unicode="&#x136;" d="M279 328 l266 272 l-129 0 l-218 -229 l-34 0 l0 229 l-98 0 l0 -600 l98 0 l0 283 l32 0 l236 -283 l133 0 l-286 328 ZM173 -194 l53 0 l100 146 l-95 0 l-58 -146 Z" /><glyph glyph-name="" unicode="L" d="M164 91 l0 509 l-98 0 l0 -600 l309 0 l0 91 l-211 0 Z" /><glyph glyph-name="" unicode="&#x139;" d="M263 800 l-97 0 l-88 -149 l62 0 l123 149 ZM164 91 l0 509 l-98 0 l0 -600 l309 0 l0 91 l-211 0 Z" /><glyph glyph-name="" unicode="&#x13d;" d="M164 600 l-98 0 l0 -600 l309 0 l0 91 l-211 0 l0 509 ZM397 600 l-89 0 l-67 -241 l56 0 l100 241 Z" /><glyph glyph-name="" unicode="&#x13b;" d="M164 91 l0 509 l-98 0 l0 -600 l309 0 l0 91 l-211 0 ZM115 -194 l53 0 l100 146 l-95 0 l-58 -146 Z" /><glyph glyph-name="" unicode="&#x141;" d="M164 91 l0 219 l97 102 l-44 38 l-53 -56 l0 206 l-98 0 l0 -310 l-97 -102 l43 -39 l54 57 l0 -206 l309 0 l0 91 l-211 0 Z" /><glyph glyph-name="" unicode="M" d="M592 600 l-211 -470 l-210 470 l-105 0 l0 -600 l98 0 l0 413 l184 -413 l65 0 l186 414 l0 -414 l97 0 l0 600 l-104 0 Z" /><glyph glyph-name="" unicode="N" d="M497 600 l0 -445 l-333 445 l-98 0 l0 -600 l98 0 l0 446 l332 -446 l98 0 l0 600 l-97 0 Z" /><glyph glyph-name="" unicode="&#x143;" d="M478 800 l-97 0 l-88 -149 l62 0 l123 149 ZM497 600 l0 -445 l-333 445 l-98 0 l0 -600 l98 0 l0 446 l332 -446 l98 0 l0 600 l-97 0 Z" /><glyph glyph-name="" unicode="&#x147;" d="M366 651 l88 149 l-64 0 l-60 -92 l-59 92 l-65 0 l88 -149 l72 0 ZM497 600 l0 -445 l-333 445 l-98 0 l0 -600 l98 0 l0 446 l332 -446 l98 0 l0 600 l-97 0 Z" /><glyph glyph-name="" unicode="&#x145;" d="M497 600 l0 -445 l-333 445 l-98 0 l0 -600 l98 0 l0 446 l332 -446 l98 0 l0 600 l-97 0 ZM224 -194 l53 0 l100 146 l-95 0 l-58 -146 Z" /><glyph glyph-name="" unicode="&#x14a;" d="M497 600 l0 -445 l-333 445 l-98 0 l0 -600 l98 0 l0 446 l332 -446 l0 -71 q-1 -43 -16 -55 q-16 -12 -39 -11 l0 -72 q71 -2 112 28 q40 29 41 104 l0 677 l-97 0 Z" /><glyph glyph-name="" unicode="Ñ" d="M279 721 q7 0 13 -4 q6 -4 12 -14 q13 -20 32 -32 q19 -13 45 -13 q45 1 68 34 q23 33 23 84 l-61 0 q0 -28 -7 -43 q-8 -16 -24 -16 q-10 0 -16 6 q-6 5 -10 12 q-13 19 -31 32 q-19 12 -46 13 q-43 -1 -67 -33 q-24 -33 -24 -85 l61 0 q0 25 8 42 q8 16 24 17 l0 0 ZM497 600 l0 -445 l-333 445 l-98 0 l0 -600 l98 0 l0 446 l332 -446 l98 0 l0 600 l-97 0 Z" /><glyph glyph-name="" unicode="O" d="M351 -8 q131 3 218 90 q87 87 90 218 q-3 131 -90 218 q-87 87 -218 90 q-131 -3 -218 -90 q-87 -87 -90 -218 q3 -131 90 -218 q87 -87 218 -90 l0 0 ZM351 89 q-91 2 -150 61 q-59 59 -61 150 q2 91 61 150 q59 59 150 61 q91 -2 150 -61 q59 -59 61 -150 q-2 -91 -61 -150 q-59 -59 -150 -61 l0 0 Z" /><glyph glyph-name="" unicode="Ó" d="M314 651 l62 0 l123 149 l-97 0 l-88 -149 ZM351 -8 q131 3 218 90 q87 87 90 218 q-3 131 -90 218 q-87 87 -218 90 q-131 -3 -218 -90 q-87 -87 -90 -218 q3 -131 90 -218 q87 -87 218 -90 l0 0 ZM351 89 q-91 2 -150 61 q-59 59 -61 150 q2 91 61 150 q59 59 150 61 q91 -2 150 -61 q59 -59 61 -150 q-2 -91 -61 -150 q-59 -59 -150 -61 l0 0 Z" /><glyph glyph-name="" unicode="&#x1d1;" d="M315 651 l72 0 l88 149 l-64 0 l-60 -92 l-59 92 l-65 0 l88 -149 ZM351 -8 q131 3 218 90 q87 87 90 218 q-3 131 -90 218 q-87 87 -218 90 q-131 -3 -218 -90 q-87 -87 -90 -218 q3 -131 90 -218 q87 -87 218 -90 l0 0 ZM351 89 q-91 2 -150 61 q-59 59 -61 150 q2 91 61 150 q59 59 150 61 q91 -2 150 -61 q59 -59 61 -150 q-2 -91 -61 -150 q-59 -59 -150 -61 l0 0 Z" /><glyph glyph-name="" unicode="Ô" d="M292 651 l59 93 l60 -93 l64 0 l-88 149 l-72 0 l-88 -149 l65 0 ZM351 -8 q131 3 218 90 q87 87 90 218 q-3 131 -90 218 q-87 87 -218 90 q-131 -3 -218 -90 q-87 -87 -90 -218 q3 -131 90 -218 q87 -87 218 -90 l0 0 ZM351 89 q-91 2 -150 61 q-59 59 -61 150 q2 91 61 150 q59 59 150 61 q91 -2 150 -61 q59 -59 61 -150 q-2 -91 -61 -150 q-59 -59 -150 -61 l0 0 Z" /><glyph glyph-name="" unicode="Ö" d="M272 672 q22 1 37 16 q15 14 16 36 q-1 22 -16 37 q-15 14 -37 15 q-22 -1 -36 -15 q-15 -15 -16 -37 q1 -22 16 -36 q14 -15 36 -16 l0 0 ZM429 672 q22 1 37 16 q14 14 15 36 q-1 22 -15 37 q-15 14 -37 15 q-22 -1 -36 -15 q-15 -15 -16 -37 q1 -22 16 -36 q14 -15 36 -16 l0 0 ZM351 -8 q131 3 218 90 q87 87 90 218 q-3 131 -90 218 q-87 87 -218 90 q-131 -3 -218 -90 q-87 -87 -90 -218 q3 -131 90 -218 q87 -87 218 -90 l0 0 ZM351 89 q-91 2 -150 61 q-59 59 -61 150 q2 91 61 150 q59 59 150 61 q91 -2 150 -61 q59 -59 61 -150 q-2 -91 -61 -150 q-59 -59 -150 -61 l0 0 Z" /><glyph glyph-name="" unicode="Ò" d="M388 651 l-88 149 l-97 0 l123 -149 l62 0 ZM351 -8 q131 3 218 90 q87 87 90 218 q-3 131 -90 218 q-87 87 -218 90 q-131 -3 -218 -90 q-87 -87 -90 -218 q3 -131 90 -218 q87 -87 218 -90 l0 0 ZM351 89 q-91 2 -150 61 q-59 59 -61 150 q2 91 61 150 q59 59 150 61 q91 -2 150 -61 q59 -59 61 -150 q-2 -91 -61 -150 q-59 -59 -150 -61 l0 0 Z" /><glyph glyph-name="" unicode="&#x150;" d="M243 651 l61 0 l122 149 l-96 0 l-87 -149 ZM388 651 l61 0 l122 149 l-96 0 l-87 -149 ZM351 -8 q131 3 218 90 q87 87 90 218 q-3 131 -90 218 q-87 87 -218 90 q-131 -3 -218 -90 q-87 -87 -90 -218 q3 -131 90 -218 q87 -87 218 -90 l0 0 ZM351 89 q-91 2 -150 61 q-59 59 -61 150 q2 91 61 150 q59 59 150 61 q91 -2 150 -61 q59 -59 61 -150 q-2 -91 -61 -150 q-59 -59 -150 -61 l0 0 Z" /><glyph glyph-name="" unicode="&#x14c;" d="M237 673 l228 0 l0 62 l-228 0 l0 -62 ZM351 -8 q131 3 218 90 q87 87 90 218 q-3 131 -90 218 q-87 87 -218 90 q-131 -3 -218 -90 q-87 -87 -90 -218 q3 -131 90 -218 q87 -87 218 -90 l0 0 ZM351 89 q-91 2 -150 61 q-59 59 -61 150 q2 91 61 150 q59 59 150 61 q91 -2 150 -61 q59 -59 61 -150 q-2 -91 -61 -150 q-59 -59 -150 -61 l0 0 Z" /><glyph glyph-name="" unicode="Ø" d="M556 530 l52 74 l-63 38 l-49 -70 q-32 17 -69 27 q-37 9 -76 9 q-131 -3 -218 -90 q-87 -87 -90 -218 q1 -69 28 -128 q27 -59 75 -102 l-53 -76 l64 -38 l50 72 q32 -17 69 -27 q36 -9 75 -9 q131 3 218 90 q87 87 90 218 q-1 69 -28 128 q-27 59 -75 102 l0 0 ZM140 300 q2 91 61 150 q59 59 150 61 q24 0 46 -5 q23 -5 43 -14 l-238 -342 q-29 28 -46 66 q-16 39 -16 84 l0 0 ZM351 89 q-24 0 -46 5 q-22 5 -42 14 l238 342 q29 -29 45 -67 q16 -38 16 -83 q-2 -91 -61 -150 q-59 -59 -150 -61 l0 0 Z" /><glyph glyph-name="" unicode="Õ" d="M402 658 q45 1 68 34 q23 33 23 84 l-61 0 q0 -28 -7 -43 q-8 -16 -24 -16 q-10 0 -16 6 q-6 5 -10 12 q-13 19 -31 32 q-19 12 -46 13 q-43 -1 -67 -33 q-24 -33 -24 -85 l61 0 q0 25 8 42 q8 16 24 17 q7 0 13 -4 q6 -4 12 -14 q13 -20 32 -32 q19 -13 45 -13 l0 0 ZM351 -8 q131 3 218 90 q87 87 90 218 q-3 131 -90 218 q-87 87 -218 90 q-131 -3 -218 -90 q-87 -87 -90 -218 q3 -131 90 -218 q87 -87 218 -90 l0 0 ZM351 89 q-91 2 -150 61 q-59 59 -61 150 q2 91 61 150 q59 59 150 61 q91 -2 150 -61 q59 -59 61 -150 q-2 -91 -61 -150 q-59 -59 -150 -61 l0 0 Z" /><glyph glyph-name="" unicode="&#x152;" d="M781 512 l0 88 l-328 0 l0 -10 q-48 18 -102 18 q-131 -3 -218 -90 q-87 -87 -90 -218 q3 -131 90 -218 q87 -87 218 -90 q54 0 102 18 l0 -10 l328 0 l0 88 l-243 0 l0 168 l209 0 l0 88 l-209 0 l0 168 l243 0 ZM351 86 q-91 2 -152 62 q-60 61 -62 152 q2 91 62 152 q61 60 152 62 q28 0 54 -7 q25 -8 48 -20 l0 -374 q-23 -12 -48 -19 q-26 -8 -54 -8 l0 0 Z" /><glyph glyph-name="" unicode="P" d="M301 600 l-235 0 l0 -600 l98 0 l0 255 l137 0 q74 2 123 49 q48 48 50 122 q-2 74 -50 123 q-49 49 -123 51 l0 0 ZM287 340 l-123 0 l0 171 l123 0 q40 0 65 -23 q25 -23 26 -63 q-1 -40 -26 -62 q-25 -23 -65 -23 l0 0 Z" /><glyph glyph-name="" unicode="Þ" d="M305 515 l-139 0 l0 85 l-94 0 l0 -600 l94 0 l0 170 l139 0 q73 2 122 49 q48 48 50 121 q-2 75 -50 124 q-49 49 -122 51 l0 0 ZM299 258 l-133 0 l0 169 l133 0 q38 -1 62 -24 q24 -23 25 -60 q-1 -38 -25 -61 q-24 -23 -62 -24 l0 0 Z" /><glyph glyph-name="" unicode="Q" d="M683 78 l-74 0 l-83 -31 q61 42 97 108 q35 65 36 145 q-3 131 -90 218 q-87 87 -218 90 q-131 -3 -218 -90 q-87 -87 -90 -218 q3 -131 90 -218 q87 -87 218 -90 q18 0 36 2 q17 2 34 6 l262 0 l0 78 ZM140 300 q2 91 61 150 q59 59 150 61 q91 -2 150 -61 q59 -59 61 -150 q-2 -91 -61 -150 q-59 -59 -150 -61 q-91 2 -150 61 q-59 59 -61 150 l0 0 Z" /><glyph glyph-name="" unicode="R" d="M344 261 q57 13 93 57 q36 44 37 106 q-2 75 -50 125 q-49 49 -123 51 l-235 0 l0 -600 l98 0 l0 252 l83 0 l159 -252 l110 0 l-172 261 ZM164 337 l0 172 l125 0 q39 -1 64 -24 q24 -23 25 -62 q-1 -39 -25 -62 q-25 -23 -64 -24 l-125 0 Z" /><glyph glyph-name="" unicode="&#x154;" d="M409 800 l-97 0 l-88 -149 l62 0 l123 149 ZM344 261 q57 13 93 57 q36 44 37 106 q-2 75 -50 125 q-49 49 -123 51 l-235 0 l0 -600 l98 0 l0 252 l83 0 l159 -252 l110 0 l-172 261 ZM164 337 l0 172 l125 0 q39 -1 64 -24 q24 -23 25 -62 q-1 -39 -25 -62 q-25 -23 -64 -24 l-125 0 Z" /><glyph glyph-name="" unicode="&#x158;" d="M297 651 l88 149 l-64 0 l-60 -92 l-59 92 l-65 0 l88 -149 l72 0 ZM344 261 q57 13 93 57 q36 44 37 106 q-2 75 -50 125 q-49 49 -123 51 l-235 0 l0 -600 l98 0 l0 252 l83 0 l159 -252 l110 0 l-172 261 ZM164 337 l0 172 l125 0 q39 -1 64 -24 q24 -23 25 -62 q-1 -39 -25 -62 q-25 -23 -64 -24 l-125 0 Z" /><glyph glyph-name="" unicode="&#x156;" d="M344 261 q57 13 93 57 q36 44 37 106 q-2 75 -50 125 q-49 49 -123 51 l-235 0 l0 -600 l98 0 l0 252 l83 0 l159 -252 l110 0 l-172 261 ZM164 337 l0 172 l125 0 q39 -1 64 -24 q24 -23 25 -62 q-1 -39 -25 -62 q-25 -23 -64 -24 l-125 0 ZM155 -194 l53 0 l100 146 l-95 0 l-58 -146 Z" /><glyph glyph-name="" unicode="S" d="M233 -8 q83 1 139 46 q55 44 57 126 q-18 146 -142 176 q-124 30 -142 108 q1 35 24 52 q23 17 57 17 q30 0 56 -13 q27 -13 47 -39 l69 63 q-29 36 -74 58 q-44 21 -98 22 q-73 0 -125 -43 q-52 -43 -54 -124 q18 -136 142 -165 q124 -30 142 -112 q-1 -37 -27 -57 q-27 -21 -70 -21 q-46 1 -79 23 q-33 23 -49 62 l-84 -51 q27 -57 83 -92 q55 -35 128 -36 l0 0 Z" /><glyph glyph-name="" unicode="&#x15a;" d="M191 651 l62 0 l123 149 l-97 0 l-88 -149 ZM233 -8 q83 1 139 46 q55 44 57 126 q-18 146 -142 176 q-124 30 -142 108 q1 35 24 52 q23 17 57 17 q30 0 56 -13 q27 -13 47 -39 l69 63 q-29 36 -74 58 q-44 21 -98 22 q-73 0 -125 -43 q-52 -43 -54 -124 q18 -136 142 -165 q124 -30 142 -112 q-1 -37 -27 -57 q-27 -21 -70 -21 q-46 1 -79 23 q-33 23 -49 62 l-84 -51 q27 -57 83 -92 q55 -35 128 -36 l0 0 Z" /><glyph glyph-name="" unicode="&#x160;" d="M192 651 l72 0 l88 149 l-64 0 l-60 -92 l-59 92 l-65 0 l88 -149 ZM233 -8 q83 1 139 46 q55 44 57 126 q-18 146 -142 176 q-124 30 -142 108 q1 35 24 52 q23 17 57 17 q30 0 56 -13 q27 -13 47 -39 l69 63 q-29 36 -74 58 q-44 21 -98 22 q-73 0 -125 -43 q-52 -43 -54 -124 q18 -136 142 -165 q124 -30 142 -112 q-1 -37 -27 -57 q-27 -21 -70 -21 q-46 1 -79 23 q-33 23 -49 62 l-84 -51 q27 -57 83 -92 q55 -35 128 -36 l0 0 Z" /><glyph glyph-name="" unicode="&#x15e;" d="M429 164 q-18 146 -142 176 q-124 30 -142 108 q1 35 24 52 q23 17 57 17 q30 0 56 -13 q27 -13 47 -39 l69 63 q-29 36 -74 58 q-44 21 -98 22 q-73 0 -125 -43 q-52 -43 -54 -124 q18 -136 142 -165 q124 -30 142 -112 q-1 -37 -27 -57 q-27 -21 -70 -21 q-46 1 -79 23 q-33 23 -49 62 l-84 -51 q24 -50 70 -84 q47 -34 109 -42 l-36 -66 l38 -23 q30 12 50 5 q19 -8 20 -32 q0 -16 -11 -27 q-10 -11 -26 -11 q-13 0 -27 7 q-14 7 -21 18 l-45 -16 q11 -25 37 -40 q26 -16 56 -17 q37 1 61 25 q23 24 24 61 q-1 38 -28 59 q-26 20 -67 13 l22 42 q78 5 128 50 q51 44 53 122 l0 0 Z" /><glyph glyph-name="" unicode="&#x218;" d="M233 -8 q83 1 139 46 q55 44 57 126 q-18 146 -142 176 q-124 30 -142 108 q1 35 24 52 q23 17 57 17 q30 0 56 -13 q27 -13 47 -39 l69 63 q-29 36 -74 58 q-44 21 -98 22 q-73 0 -125 -43 q-52 -43 -54 -124 q18 -136 142 -165 q124 -30 142 -112 q-1 -37 -27 -57 q-27 -21 -70 -21 q-46 1 -79 23 q-33 23 -49 62 l-84 -51 q27 -57 83 -92 q55 -35 128 -36 l0 0 ZM175 -194 l100 146 l-95 0 l-58 -146 l53 0 Z" /><glyph glyph-name="" unicode="T" d="M417 600 l-415 0 l0 -91 l159 0 l0 -509 l97 0 l0 509 l159 0 l0 91 Z" /><glyph glyph-name="" unicode="&#x166;" d="M417 509 l0 91 l-415 0 l0 -91 l159 0 l0 -176 l-80 0 l0 -66 l80 0 l0 -267 l97 0 l0 267 l78 0 l0 66 l-78 0 l0 176 l159 0 Z" /><glyph glyph-name="" unicode="&#x164;" d="M245 651 l88 149 l-64 0 l-60 -92 l-59 92 l-65 0 l88 -149 l72 0 ZM417 600 l-415 0 l0 -91 l159 0 l0 -509 l97 0 l0 509 l159 0 l0 91 Z" /><glyph glyph-name="" unicode="&#x162;" d="M258 0 l0 509 l159 0 l0 91 l-415 0 l0 -91 l159 0 l0 -509 l24 0 l-39 -72 l38 -23 q30 12 50 5 q19 -8 20 -32 q0 -16 -11 -27 q-10 -11 -26 -11 q-13 0 -27 7 q-14 7 -21 18 l-45 -16 q11 -25 37 -40 q26 -16 56 -17 q37 1 61 25 q23 24 24 61 q-1 38 -28 59 q-26 20 -67 13 l26 50 l25 0 Z" /><glyph glyph-name="" unicode="&#x21a;" d="M417 600 l-415 0 l0 -91 l159 0 l0 -509 l97 0 l0 509 l159 0 l0 91 ZM103 -194 l53 0 l100 146 l-95 0 l-58 -146 Z" /><glyph glyph-name="" unicode="U" d="M300 -8 q104 2 170 58 q66 56 68 145 l0 405 l-98 0 l0 -388 q-1 -57 -40 -92 q-39 -36 -100 -37 q-61 1 -99 37 q-39 35 -40 92 l0 388 l-98 0 l0 -405 q2 -89 68 -145 q65 -56 169 -58 l0 0 Z" /><glyph glyph-name="" unicode="Ú" d="M263 651 l62 0 l123 149 l-97 0 l-88 -149 ZM300 -8 q104 2 170 58 q66 56 68 145 l0 405 l-98 0 l0 -388 q-1 -57 -40 -92 q-39 -36 -100 -37 q-61 1 -99 37 q-39 35 -40 92 l0 388 l-98 0 l0 -405 q2 -89 68 -145 q65 -56 169 -58 l0 0 Z" /><glyph glyph-name="" unicode="&#x1d3;" d="M264 651 l72 0 l88 149 l-64 0 l-60 -92 l-59 92 l-65 0 l88 -149 ZM300 -8 q104 2 170 58 q66 56 68 145 l0 405 l-98 0 l0 -388 q-1 -57 -40 -92 q-39 -36 -100 -37 q-61 1 -99 37 q-39 35 -40 92 l0 388 l-98 0 l0 -405 q2 -89 68 -145 q65 -56 169 -58 l0 0 Z" /><glyph glyph-name="" unicode="Û" d="M241 651 l59 93 l60 -93 l64 0 l-88 149 l-72 0 l-88 -149 l65 0 ZM300 -8 q104 2 170 58 q66 56 68 145 l0 405 l-98 0 l0 -388 q-1 -57 -40 -92 q-39 -36 -100 -37 q-61 1 -99 37 q-39 35 -40 92 l0 388 l-98 0 l0 -405 q2 -89 68 -145 q65 -56 169 -58 l0 0 Z" /><glyph glyph-name="" unicode="Ü" d="M221 672 q22 1 37 16 q15 14 16 36 q-1 22 -16 37 q-15 14 -37 15 q-22 -1 -36 -15 q-15 -15 -16 -37 q1 -22 16 -36 q14 -15 36 -16 l0 0 ZM378 672 q22 1 37 16 q14 14 15 36 q-1 22 -15 37 q-15 14 -37 15 q-22 -1 -36 -15 q-15 -15 -16 -37 q1 -22 16 -36 q14 -15 36 -16 l0 0 ZM300 -8 q104 2 170 58 q66 56 68 145 l0 405 l-98 0 l0 -388 q-1 -57 -40 -92 q-39 -36 -100 -37 q-61 1 -99 37 q-39 35 -40 92 l0 388 l-98 0 l0 -405 q2 -89 68 -145 q65 -56 169 -58 l0 0 Z" /><glyph glyph-name="" unicode="Ù" d="M337 651 l-88 149 l-97 0 l123 -149 l62 0 ZM300 -8 q104 2 170 58 q66 56 68 145 l0 405 l-98 0 l0 -388 q-1 -57 -40 -92 q-39 -36 -100 -37 q-61 1 -99 37 q-39 35 -40 92 l0 388 l-98 0 l0 -405 q2 -89 68 -145 q65 -56 169 -58 l0 0 Z" /><glyph glyph-name="" unicode="&#x170;" d="M192 651 l61 0 l122 149 l-96 0 l-87 -149 ZM337 651 l61 0 l122 149 l-96 0 l-87 -149 ZM300 -8 q104 2 170 58 q66 56 68 145 l0 405 l-98 0 l0 -388 q-1 -57 -40 -92 q-39 -36 -100 -37 q-61 1 -99 37 q-39 35 -40 92 l0 388 l-98 0 l0 -405 q2 -89 68 -145 q65 -56 169 -58 l0 0 Z" /><glyph glyph-name="" unicode="&#x16a;" d="M186 673 l228 0 l0 62 l-228 0 l0 -62 ZM300 -8 q104 2 170 58 q66 56 68 145 l0 405 l-98 0 l0 -388 q-1 -57 -40 -92 q-39 -36 -100 -37 q-61 1 -99 37 q-39 35 -40 92 l0 388 l-98 0 l0 -405 q2 -89 68 -145 q65 -56 169 -58 l0 0 Z" /><glyph glyph-name="" unicode="&#x172;" d="M440 600 l0 -388 q-1 -57 -40 -92 q-39 -36 -100 -37 q-61 1 -99 37 q-39 35 -40 92 l0 388 l-98 0 l0 -405 q2 -89 68 -145 q65 -56 169 -58 l6 0 q-21 -17 -33 -38 q-13 -22 -13 -48 q0 -39 25 -63 q25 -25 70 -28 q33 -1 63 10 q29 11 53 35 l-30 43 q-12 -19 -31 -29 q-19 -11 -40 -11 q-23 0 -36 14 q-13 14 -13 38 q1 32 22 54 q22 22 58 41 q62 24 99 72 q37 49 38 113 l0 405 l-98 0 Z" /><glyph glyph-name="" unicode="&#x16e;" d="M300 635 q38 1 63 27 q25 25 26 63 q-1 38 -26 64 q-25 25 -63 26 q-38 -1 -64 -26 q-26 -26 -27 -64 q1 -38 27 -63 q26 -26 64 -27 l0 0 ZM300 678 q-20 0 -33 13 q-13 13 -13 34 q0 20 13 34 q13 13 33 14 q20 -1 33 -14 q14 -14 14 -34 q0 -21 -14 -34 q-13 -13 -33 -13 l0 0 ZM300 -8 q104 2 170 58 q66 56 68 145 l0 405 l-98 0 l0 -388 q-1 -57 -40 -92 q-39 -36 -100 -37 q-61 1 -99 37 q-39 35 -40 92 l0 388 l-98 0 l0 -405 q2 -89 68 -145 q65 -56 169 -58 l0 0 Z" /><glyph glyph-name="" unicode="V" d="M427 600 l-162 -476 l-163 476 l-109 0 l217 -600 l109 0 l217 600 l-109 0 Z" /><glyph glyph-name="" unicode="W" d="M722 600 l-131 -454 l-129 454 l-111 0 l-128 -452 l-130 452 l-104 0 l177 -600 l109 0 l131 480 l133 -480 l110 0 l175 600 l-102 0 Z" /><glyph glyph-name="" unicode="&#x1e82;" d="M556 800 l-97 0 l-88 -149 l62 0 l123 149 ZM722 600 l-131 -454 l-129 454 l-111 0 l-128 -452 l-130 452 l-104 0 l177 -600 l109 0 l131 480 l133 -480 l110 0 l175 600 l-102 0 Z" /><glyph glyph-name="" unicode="&#x174;" d="M408 744 l60 -93 l64 0 l-88 149 l-72 0 l-88 -149 l65 0 l59 93 ZM722 600 l-131 -454 l-129 454 l-111 0 l-128 -452 l-130 452 l-104 0 l177 -600 l109 0 l131 480 l133 -480 l110 0 l175 600 l-102 0 Z" /><glyph glyph-name="" unicode="&#x1e84;" d="M329 672 q22 1 37 16 q15 14 16 36 q-1 22 -16 37 q-15 14 -37 15 q-22 -1 -36 -15 q-15 -15 -16 -37 q1 -22 16 -36 q14 -15 36 -16 l0 0 ZM486 672 q22 1 37 16 q14 14 15 36 q-1 22 -15 37 q-15 14 -37 15 q-22 -1 -36 -15 q-15 -15 -16 -37 q1 -22 16 -36 q14 -15 36 -16 l0 0 ZM722 600 l-131 -454 l-129 454 l-111 0 l-128 -452 l-130 452 l-104 0 l177 -600 l109 0 l131 480 l133 -480 l110 0 l175 600 l-102 0 Z" /><glyph glyph-name="" unicode="&#x1e80;" d="M445 651 l-88 149 l-97 0 l123 -149 l62 0 ZM722 600 l-131 -454 l-129 454 l-111 0 l-128 -452 l-130 452 l-104 0 l177 -600 l109 0 l131 480 l133 -480 l110 0 l175 600 l-102 0 Z" /><glyph glyph-name="" unicode="X" d="M512 0 l-206 307 l197 293 l-113 0 l-137 -213 l-136 213 l-114 0 l197 -294 l-206 -306 l115 0 l144 226 l144 -226 l115 0 Z" /><glyph glyph-name="" unicode="Y" d="M511 600 l-113 0 l-145 -226 l-144 226 l-115 0 l210 -318 l0 -282 l98 0 l0 284 l209 316 Z" /><glyph glyph-name="" unicode="Ý" d="M401 800 l-97 0 l-88 -149 l62 0 l123 149 ZM511 600 l-113 0 l-145 -226 l-144 226 l-115 0 l210 -318 l0 -282 l98 0 l0 284 l209 316 Z" /><glyph glyph-name="" unicode="&#x176;" d="M253 744 l60 -93 l64 0 l-88 149 l-72 0 l-88 -149 l65 0 l59 93 ZM511 600 l-113 0 l-145 -226 l-144 226 l-115 0 l210 -318 l0 -282 l98 0 l0 284 l209 316 Z" /><glyph glyph-name="" unicode="&#x178;" d="M174 672 q22 1 37 16 q15 14 16 36 q-1 22 -16 37 q-15 14 -37 15 q-22 -1 -36 -15 q-15 -15 -16 -37 q1 -22 16 -36 q14 -15 36 -16 l0 0 ZM331 672 q22 1 37 16 q14 14 15 36 q-1 22 -15 37 q-15 14 -37 15 q-22 -1 -36 -15 q-15 -15 -16 -37 q1 -22 16 -36 q14 -15 36 -16 l0 0 ZM511 600 l-113 0 l-145 -226 l-144 226 l-115 0 l210 -318 l0 -282 l98 0 l0 284 l209 316 Z" /><glyph glyph-name="" unicode="&#x1ef2;" d="M290 651 l-88 149 l-97 0 l123 -149 l62 0 ZM511 600 l-113 0 l-145 -226 l-144 226 l-115 0 l210 -318 l0 -282 l98 0 l0 284 l209 316 Z" /><glyph glyph-name="" unicode="Z" d="M192 91 l289 509 l-426 0 l0 -91 l265 0 l-290 -509 l457 0 l0 91 l-295 0 Z" /><glyph glyph-name="" unicode="&#x179;" d="M414 800 l-97 0 l-88 -149 l62 0 l123 149 ZM192 91 l289 509 l-426 0 l0 -91 l265 0 l-290 -509 l457 0 l0 91 l-295 0 Z" /><glyph glyph-name="" unicode="&#x17d;" d="M302 651 l88 149 l-64 0 l-60 -92 l-59 92 l-65 0 l88 -149 l72 0 ZM192 91 l289 509 l-426 0 l0 -91 l265 0 l-290 -509 l457 0 l0 91 l-295 0 Z" /><glyph glyph-name="" unicode="&#x17b;" d="M266 655 q24 1 40 17 q16 16 17 39 q-1 25 -17 41 q-16 15 -40 16 q-23 -1 -39 -16 q-16 -16 -17 -41 q1 -23 17 -39 q16 -16 39 -17 l0 0 ZM192 91 l289 509 l-426 0 l0 -91 l265 0 l-290 -509 l457 0 l0 91 l-295 0 Z" /><glyph glyph-name="" unicode="a" d="M502 78 q-15 0 -26 9 q-10 10 -11 36 l0 277 l-95 0 l0 -42 q-26 23 -58 37 q-33 13 -71 13 q-87 -2 -144 -60 q-57 -59 -59 -148 q2 -89 59 -147 q57 -59 144 -61 q44 0 81 18 q36 18 62 49 q15 -30 43 -48 q28 -19 65 -19 q18 0 32 8 l0 78 l-22 0 ZM253 80 q-51 1 -85 35 q-34 34 -35 85 q1 51 35 85 q34 34 85 35 q51 -1 85 -35 q34 -34 35 -85 q-1 -51 -35 -85 q-34 -34 -85 -35 l0 0 Z" /><glyph glyph-name="" unicode="á" d="M399 600 l-97 0 l-88 -149 l62 0 l123 149 ZM502 78 q-15 0 -26 9 q-10 10 -11 36 l0 277 l-95 0 l0 -42 q-26 23 -58 37 q-33 13 -71 13 q-87 -2 -144 -60 q-57 -59 -59 -148 q2 -89 59 -147 q57 -59 144 -61 q44 0 81 18 q36 18 62 49 q15 -30 43 -48 q28 -19 65 -19 q18 0 32 8 l0 78 l-22 0 ZM253 80 q-51 1 -85 35 q-34 34 -35 85 q1 51 35 85 q34 34 85 35 q51 -1 85 -35 q34 -34 35 -85 q-1 -51 -35 -85 q-34 -34 -85 -35 l0 0 Z" /><glyph glyph-name="" unicode="&#x103;" d="M250 449 q63 0 100 34 q38 33 39 97 l-55 0 q-1 -31 -23 -53 q-23 -22 -61 -23 q-37 1 -60 23 q-22 22 -23 53 l-55 0 q1 -64 39 -97 q37 -34 99 -34 l0 0 ZM502 78 q-15 0 -26 9 q-10 10 -11 36 l0 277 l-95 0 l0 -42 q-26 23 -58 37 q-33 13 -71 13 q-87 -2 -144 -60 q-57 -59 -59 -148 q2 -89 59 -147 q57 -59 144 -61 q44 0 81 18 q36 18 62 49 q15 -30 43 -48 q28 -19 65 -19 q18 0 32 8 l0 78 l-22 0 ZM253 80 q-51 1 -85 35 q-34 34 -35 85 q1 51 35 85 q34 34 85 35 q51 -1 85 -35 q34 -34 35 -85 q-1 -51 -35 -85 q-34 -34 -85 -35 l0 0 Z" /><glyph glyph-name="" unicode="&#x1ce;" d="M287 451 l88 149 l-64 0 l-60 -92 l-59 92 l-65 0 l88 -149 l72 0 ZM502 78 q-15 0 -26 9 q-10 10 -11 36 l0 277 l-95 0 l0 -42 q-26 23 -58 37 q-33 13 -71 13 q-87 -2 -144 -60 q-57 -59 -59 -148 q2 -89 59 -147 q57 -59 144 -61 q44 0 81 18 q36 18 62 49 q15 -30 43 -48 q28 -19 65 -19 q18 0 32 8 l0 78 l-22 0 ZM253 80 q-51 1 -85 35 q-34 34 -35 85 q1 51 35 85 q34 34 85 35 q51 -1 85 -35 q34 -34 35 -85 q-1 -51 -35 -85 q-34 -34 -85 -35 l0 0 Z" /><glyph glyph-name="" unicode="â" d="M251 544 l60 -93 l64 0 l-88 149 l-72 0 l-88 -149 l65 0 l59 93 ZM502 78 q-15 0 -26 9 q-10 10 -11 36 l0 277 l-95 0 l0 -42 q-26 23 -58 37 q-33 13 -71 13 q-87 -2 -144 -60 q-57 -59 -59 -148 q2 -89 59 -147 q57 -59 144 -61 q44 0 81 18 q36 18 62 49 q15 -30 43 -48 q28 -19 65 -19 q18 0 32 8 l0 78 l-22 0 ZM253 80 q-51 1 -85 35 q-34 34 -35 85 q1 51 35 85 q34 34 85 35 q51 -1 85 -35 q34 -34 35 -85 q-1 -51 -35 -85 q-34 -34 -85 -35 l0 0 Z" /><glyph glyph-name="" unicode="ä" d="M172 472 q22 1 37 16 q15 14 16 36 q-1 22 -16 37 q-15 14 -37 15 q-22 -1 -36 -15 q-15 -15 -16 -37 q1 -22 16 -36 q14 -15 36 -16 l0 0 ZM329 472 q22 1 37 16 q14 14 15 36 q-1 22 -15 37 q-15 14 -37 15 q-22 -1 -36 -15 q-15 -15 -16 -37 q1 -22 16 -36 q14 -15 36 -16 l0 0 ZM502 78 q-15 0 -26 9 q-10 10 -11 36 l0 277 l-95 0 l0 -42 q-26 23 -58 37 q-33 13 -71 13 q-87 -2 -144 -60 q-57 -59 -59 -148 q2 -89 59 -147 q57 -59 144 -61 q44 0 81 18 q36 18 62 49 q15 -30 43 -48 q28 -19 65 -19 q18 0 32 8 l0 78 l-22 0 ZM253 80 q-51 1 -85 35 q-34 34 -35 85 q1 51 35 85 q34 34 85 35 q51 -1 85 -35 q34 -34 35 -85 q-1 -51 -35 -85 q-34 -34 -85 -35 l0 0 Z" /><glyph glyph-name="" unicode="à" d="M288 451 l-88 149 l-97 0 l123 -149 l62 0 ZM502 78 q-15 0 -26 9 q-10 10 -11 36 l0 277 l-95 0 l0 -42 q-26 23 -58 37 q-33 13 -71 13 q-87 -2 -144 -60 q-57 -59 -59 -148 q2 -89 59 -147 q57 -59 144 -61 q44 0 81 18 q36 18 62 49 q15 -30 43 -48 q28 -19 65 -19 q18 0 32 8 l0 78 l-22 0 ZM253 80 q-51 1 -85 35 q-34 34 -35 85 q1 51 35 85 q34 34 85 35 q51 -1 85 -35 q34 -34 35 -85 q-1 -51 -35 -85 q-34 -34 -85 -35 l0 0 Z" /><glyph glyph-name="" unicode="&#x101;" d="M365 535 l-228 0 l0 -62 l228 0 l0 62 ZM502 78 q-15 0 -26 9 q-10 10 -11 36 l0 277 l-95 0 l0 -42 q-26 23 -58 37 q-33 13 -71 13 q-87 -2 -144 -60 q-57 -59 -59 -148 q2 -89 59 -147 q57 -59 144 -61 q44 0 81 18 q36 18 62 49 q15 -30 43 -48 q28 -19 65 -19 q18 0 32 8 l0 78 l-22 0 ZM253 80 q-51 1 -85 35 q-34 34 -35 85 q1 51 35 85 q34 34 85 35 q51 -1 85 -35 q34 -34 35 -85 q-1 -51 -35 -85 q-34 -34 -85 -35 l0 0 Z" /><glyph glyph-name="" unicode="&#x105;" d="M541 -119 q-12 -19 -31 -29 q-19 -11 -40 -11 q-23 0 -36 14 q-13 14 -13 38 q1 36 29 60 q27 24 71 45 l3 2 l0 78 l-22 0 q-15 0 -26 9 q-10 10 -11 36 l0 277 l-95 0 l0 -42 q-26 23 -58 37 q-33 13 -71 13 q-87 -2 -144 -60 q-57 -59 -59 -148 q2 -89 59 -147 q57 -59 144 -61 q44 0 81 18 q36 18 62 49 q11 -21 27 -36 q17 -16 39 -24 q-40 -21 -64 -48 q-25 -28 -26 -67 q0 -39 25 -63 q25 -25 70 -28 q33 -1 63 10 q29 11 53 35 l-30 43 ZM253 80 q-51 1 -85 35 q-34 34 -35 85 q1 51 35 85 q34 34 85 35 q51 -1 85 -35 q34 -34 35 -85 q-1 -51 -35 -85 q-34 -34 -85 -35 l0 0 Z" /><glyph glyph-name="" unicode="å" d="M251 435 q38 1 63 27 q25 25 26 63 q-1 38 -26 64 q-25 25 -63 26 q-38 -1 -64 -26 q-26 -26 -27 -64 q1 -38 27 -63 q26 -26 64 -27 l0 0 ZM251 573 q20 -1 33 -14 q14 -14 14 -34 q0 -21 -14 -34 q-13 -13 -33 -13 q-20 0 -33 13 q-13 13 -13 34 q0 20 13 34 q13 13 33 14 l0 0 ZM502 78 q-15 0 -26 9 q-10 10 -11 36 l0 277 l-95 0 l0 -42 q-26 23 -58 37 q-33 13 -71 13 q-87 -2 -144 -60 q-57 -59 -59 -148 q2 -89 59 -147 q57 -59 144 -61 q44 0 81 18 q36 18 62 49 q15 -30 43 -48 q28 -19 65 -19 q18 0 32 8 l0 78 l-22 0 ZM253 80 q-51 1 -85 35 q-34 34 -35 85 q1 51 35 85 q34 34 85 35 q51 -1 85 -35 q34 -34 35 -85 q-1 -51 -35 -85 q-34 -34 -85 -35 l0 0 Z" /><glyph glyph-name="" unicode="ã" d="M200 521 q7 0 13 -4 q6 -4 12 -14 q13 -20 32 -32 q19 -13 45 -13 q45 1 68 34 q23 33 23 84 l-61 0 q0 -28 -7 -43 q-8 -16 -24 -16 q-10 0 -16 6 q-6 5 -10 12 q-13 19 -31 32 q-19 12 -46 13 q-43 -1 -67 -33 q-24 -33 -24 -85 l61 0 q0 25 8 42 q8 16 24 17 l0 0 ZM502 78 q-15 0 -26 9 q-10 10 -11 36 l0 277 l-95 0 l0 -42 q-26 23 -58 37 q-33 13 -71 13 q-87 -2 -144 -60 q-57 -59 -59 -148 q2 -89 59 -147 q57 -59 144 -61 q44 0 81 18 q36 18 62 49 q15 -30 43 -48 q28 -19 65 -19 q18 0 32 8 l0 78 l-22 0 ZM253 80 q-51 1 -85 35 q-34 34 -35 85 q1 51 35 85 q34 34 85 35 q51 -1 85 -35 q34 -34 35 -85 q-1 -51 -35 -85 q-34 -34 -85 -35 l0 0 Z" /><glyph glyph-name="" unicode="æ" d="M731 202 q-3 92 -61 148 q-58 56 -150 58 q-46 0 -85 -16 q-39 -15 -68 -43 q-23 28 -59 43 q-37 16 -84 16 q-63 -1 -108 -26 q-44 -26 -60 -70 l87 -26 q5 23 27 37 q22 13 53 13 q36 -1 58 -21 q21 -21 22 -55 l0 -17 l-109 0 q-72 0 -114 -33 q-41 -33 -42 -93 q1 -57 40 -91 q38 -33 106 -34 q45 0 89 19 q44 19 81 54 q29 -34 72 -53 q42 -20 95 -20 q78 1 132 41 q53 41 71 107 l-95 0 q-13 -32 -41 -50 q-28 -19 -67 -19 q-51 1 -83 32 q-32 31 -36 82 l328 0 l1 17 ZM521 328 q39 0 66 -20 q27 -20 40 -55 l-217 0 q14 34 42 54 q28 21 69 21 l0 0 ZM199 66 q-30 0 -47 14 q-18 14 -18 39 q0 27 20 42 q20 14 55 14 l98 0 q3 -22 9 -43 q-24 -30 -55 -48 q-31 -18 -62 -18 l0 0 Z" /><glyph glyph-name="" unicode="b" d="M290 408 q-38 0 -71 -13 q-32 -14 -58 -37 l0 354 l-95 0 l0 -712 l95 0 l0 42 q26 -23 58 -37 q33 -13 71 -13 q87 2 144 61 q57 58 59 147 q-2 89 -59 148 q-57 58 -144 60 l0 0 ZM278 80 q-51 1 -85 35 q-34 34 -35 85 q1 51 35 85 q34 34 85 35 q51 -1 85 -35 q34 -34 35 -85 q-1 -51 -35 -85 q-34 -34 -85 -35 l0 0 Z" /><glyph glyph-name="" unicode="c" d="M253 -8 q81 1 136 44 q55 43 72 113 l-99 0 q-15 -31 -43 -50 q-29 -19 -66 -19 q-51 1 -85 35 q-34 33 -35 85 q1 52 35 86 q34 33 85 34 q37 0 66 -19 q28 -19 43 -50 l99 0 q-17 70 -72 113 q-55 43 -136 44 q-95 -2 -154 -60 q-59 -58 -61 -148 q2 -90 61 -148 q59 -58 154 -60 l0 0 Z" /><glyph glyph-name="" unicode="&#x107;" d="M208 453 l62 0 l123 149 l-97 0 l-88 -149 ZM253 -8 q81 1 136 44 q55 43 72 113 l-99 0 q-15 -31 -43 -50 q-29 -19 -66 -19 q-51 1 -85 35 q-34 33 -35 85 q1 52 35 86 q34 33 85 34 q37 0 66 -19 q28 -19 43 -50 l99 0 q-17 70 -72 113 q-55 43 -136 44 q-95 -2 -154 -60 q-59 -58 -61 -148 q2 -90 61 -148 q59 -58 154 -60 l0 0 Z" /><glyph glyph-name="" unicode="&#x10d;" d="M209 453 l72 0 l88 149 l-64 0 l-60 -92 l-59 92 l-65 0 l88 -149 ZM253 -8 q81 1 136 44 q55 43 72 113 l-99 0 q-15 -31 -43 -50 q-29 -19 -66 -19 q-51 1 -85 35 q-34 33 -35 85 q1 52 35 86 q34 33 85 34 q37 0 66 -19 q28 -19 43 -50 l99 0 q-17 70 -72 113 q-55 43 -136 44 q-95 -2 -154 -60 q-59 -58 -61 -148 q2 -90 61 -148 q59 -58 154 -60 l0 0 Z" /><glyph glyph-name="" unicode="ç" d="M253 80 q-51 1 -85 35 q-34 33 -35 85 q1 52 35 86 q34 33 85 34 q37 0 66 -19 q28 -19 43 -50 l99 0 q-17 70 -72 113 q-55 43 -136 44 q-95 -2 -154 -60 q-59 -58 -61 -148 q1 -82 52 -138 q50 -57 133 -68 l-36 -66 l38 -23 q30 12 50 5 q19 -8 20 -32 q0 -16 -11 -27 q-10 -11 -26 -11 q-13 0 -27 7 q-14 7 -21 18 l-45 -16 q11 -25 37 -40 q26 -16 56 -17 q37 1 61 25 q23 24 24 61 q-1 38 -28 59 q-26 20 -67 13 l22 43 q74 6 124 48 q50 42 67 108 l-99 0 q-15 -31 -43 -50 q-29 -19 -66 -19 l0 0 Z" /><glyph glyph-name="" unicode="&#x10b;" d="M245 457 q24 1 40 17 q16 16 17 39 q-1 25 -17 41 q-16 15 -40 16 q-23 -1 -39 -16 q-16 -16 -17 -41 q1 -23 17 -39 q16 -16 39 -17 l0 0 ZM253 -8 q81 1 136 44 q55 43 72 113 l-99 0 q-15 -31 -43 -50 q-29 -19 -66 -19 q-51 1 -85 35 q-34 33 -35 85 q1 52 35 86 q34 33 85 34 q37 0 66 -19 q28 -19 43 -50 l99 0 q-17 70 -72 113 q-55 43 -136 44 q-95 -2 -154 -60 q-59 -58 -61 -148 q2 -90 61 -148 q59 -58 154 -60 l0 0 Z" /><glyph glyph-name="" unicode="d" d="M370 712 l0 -354 q-26 23 -58 37 q-33 13 -71 13 q-87 -2 -144 -60 q-57 -59 -59 -148 q2 -89 59 -147 q57 -59 144 -61 q38 0 71 13 q32 14 58 37 l0 -42 l95 0 l0 712 l-95 0 ZM253 80 q-51 1 -85 35 q-34 34 -35 85 q1 51 35 85 q34 34 85 35 q51 -1 85 -35 q34 -34 35 -85 q-1 -51 -35 -85 q-34 -34 -85 -35 l0 0 Z" /><glyph glyph-name="" unicode="ð" d="M323 557 l35 45 l-44 33 l-38 -48 q-31 17 -65 25 q-35 9 -72 9 l-19 -76 q26 0 53 -5 q26 -6 52 -17 l-36 -46 l44 -35 l40 51 q23 -19 42 -44 q19 -25 33 -59 q-20 8 -43 13 q-23 5 -48 5 q-94 -2 -155 -60 q-62 -59 -64 -148 q2 -89 64 -147 q61 -59 155 -61 q94 2 156 61 q62 58 64 147 q-1 118 -42 210 q-41 92 -112 147 l0 0 ZM257 79 q-51 1 -85 35 q-34 34 -35 86 q1 52 35 86 q34 34 85 35 q52 -1 86 -35 q34 -34 35 -86 q-1 -52 -35 -86 q-34 -34 -86 -35 l0 0 Z" /><glyph glyph-name="" unicode="&#x10f;" d="M370 358 q-26 23 -58 37 q-33 13 -71 13 q-87 -2 -144 -60 q-57 -59 -59 -148 q2 -89 59 -147 q57 -59 144 -61 q38 0 71 13 q32 14 58 37 l0 -42 l95 0 l0 712 l-95 0 l0 -354 ZM579 712 l-67 -241 l56 0 l100 241 l-89 0 ZM253 80 q-51 1 -85 35 q-34 34 -35 85 q1 51 35 85 q34 34 85 35 q51 -1 85 -35 q34 -34 35 -85 q-1 -51 -35 -85 q-34 -34 -85 -35 l0 0 Z" /><glyph glyph-name="" unicode="&#x111;" d="M516 571 l-51 0 l0 141 l-95 0 l0 -141 l-109 0 l0 -66 l109 0 l0 -147 q-26 23 -58 37 q-33 13 -71 13 q-87 -2 -144 -60 q-57 -59 -59 -148 q2 -89 59 -147 q57 -59 144 -61 q38 0 71 13 q32 14 58 37 l0 -42 l95 0 l0 505 l51 0 l0 66 ZM253 80 q-51 1 -85 35 q-34 34 -35 85 q1 51 35 85 q34 34 85 35 q51 -1 85 -35 q34 -34 35 -85 q-1 -51 -35 -85 q-34 -34 -85 -35 l0 0 Z" /><glyph glyph-name="" unicode="e" d="M463 202 q-3 92 -61 148 q-58 56 -150 58 q-93 -2 -153 -59 q-59 -57 -61 -149 q2 -92 61 -149 q59 -57 154 -59 q78 1 132 41 q53 41 71 107 l-95 0 q-13 -32 -41 -50 q-28 -19 -67 -19 q-51 1 -83 32 q-32 31 -36 82 l328 0 l1 17 ZM253 328 q39 0 66 -20 q27 -20 40 -55 l-217 0 q14 34 42 54 q28 21 69 21 l0 0 Z" /><glyph glyph-name="" unicode="é" d="M404 602 l-97 0 l-88 -149 l62 0 l123 149 ZM463 202 q-3 92 -61 148 q-58 56 -150 58 q-93 -2 -153 -59 q-59 -57 -61 -149 q2 -92 61 -149 q59 -57 154 -59 q78 1 132 41 q53 41 71 107 l-95 0 q-13 -32 -41 -50 q-28 -19 -67 -19 q-51 1 -83 32 q-32 31 -36 82 l328 0 l1 17 ZM253 328 q39 0 66 -20 q27 -20 40 -55 l-217 0 q14 34 42 54 q28 21 69 21 l0 0 Z" /><glyph glyph-name="" unicode="&#x11b;" d="M292 453 l88 149 l-64 0 l-60 -92 l-59 92 l-65 0 l88 -149 l72 0 ZM463 202 q-3 92 -61 148 q-58 56 -150 58 q-93 -2 -153 -59 q-59 -57 -61 -149 q2 -92 61 -149 q59 -57 154 -59 q78 1 132 41 q53 41 71 107 l-95 0 q-13 -32 -41 -50 q-28 -19 -67 -19 q-51 1 -83 32 q-32 31 -36 82 l328 0 l1 17 ZM253 328 q39 0 66 -20 q27 -20 40 -55 l-217 0 q14 34 42 54 q28 21 69 21 l0 0 Z" /><glyph glyph-name="" unicode="ê" d="M256 546 l60 -93 l64 0 l-88 149 l-72 0 l-88 -149 l65 0 l59 93 ZM463 202 q-3 92 -61 148 q-58 56 -150 58 q-93 -2 -153 -59 q-59 -57 -61 -149 q2 -92 61 -149 q59 -57 154 -59 q78 1 132 41 q53 41 71 107 l-95 0 q-13 -32 -41 -50 q-28 -19 -67 -19 q-51 1 -83 32 q-32 31 -36 82 l328 0 l1 17 ZM253 328 q39 0 66 -20 q27 -20 40 -55 l-217 0 q14 34 42 54 q28 21 69 21 l0 0 Z" /><glyph glyph-name="" unicode="ë" d="M177 474 q22 1 37 16 q15 14 16 36 q-1 22 -16 37 q-15 14 -37 15 q-22 -1 -36 -15 q-15 -15 -16 -37 q1 -22 16 -36 q14 -15 36 -16 l0 0 ZM334 474 q22 1 37 16 q14 14 15 36 q-1 22 -15 37 q-15 14 -37 15 q-22 -1 -36 -15 q-15 -15 -16 -37 q1 -22 16 -36 q14 -15 36 -16 l0 0 ZM463 202 q-3 92 -61 148 q-58 56 -150 58 q-93 -2 -153 -59 q-59 -57 -61 -149 q2 -92 61 -149 q59 -57 154 -59 q78 1 132 41 q53 41 71 107 l-95 0 q-13 -32 -41 -50 q-28 -19 -67 -19 q-51 1 -83 32 q-32 31 -36 82 l328 0 l1 17 ZM253 328 q39 0 66 -20 q27 -20 40 -55 l-217 0 q14 34 42 54 q28 21 69 21 l0 0 Z" /><glyph glyph-name="" unicode="&#x117;" d="M256 457 q24 1 40 17 q16 16 17 39 q-1 25 -17 41 q-16 15 -40 16 q-23 -1 -39 -16 q-16 -16 -17 -41 q1 -23 17 -39 q16 -16 39 -17 l0 0 ZM463 202 q-3 92 -61 148 q-58 56 -150 58 q-93 -2 -153 -59 q-59 -57 -61 -149 q2 -92 61 -149 q59 -57 154 -59 q78 1 132 41 q53 41 71 107 l-95 0 q-13 -32 -41 -50 q-28 -19 -67 -19 q-51 1 -83 32 q-32 31 -36 82 l328 0 l1 17 ZM253 328 q39 0 66 -20 q27 -20 40 -55 l-217 0 q14 34 42 54 q28 21 69 21 l0 0 Z" /><glyph glyph-name="" unicode="è" d="M293 453 l-88 149 l-97 0 l123 -149 l62 0 ZM463 202 q-3 92 -61 148 q-58 56 -150 58 q-93 -2 -153 -59 q-59 -57 -61 -149 q2 -92 61 -149 q59 -57 154 -59 q78 1 132 41 q53 41 71 107 l-95 0 q-13 -32 -41 -50 q-28 -19 -67 -19 q-51 1 -83 32 q-32 31 -36 82 l328 0 l1 17 ZM253 328 q39 0 66 -20 q27 -20 40 -55 l-217 0 q14 34 42 54 q28 21 69 21 l0 0 Z" /><glyph glyph-name="" unicode="&#x113;" d="M370 537 l-228 0 l0 -62 l228 0 l0 62 ZM463 202 q-3 92 -61 148 q-58 56 -150 58 q-93 -2 -153 -59 q-59 -57 -61 -149 q2 -92 61 -149 q59 -57 154 -59 q78 1 132 41 q53 41 71 107 l-95 0 q-13 -32 -41 -50 q-28 -19 -67 -19 q-51 1 -83 32 q-32 31 -36 82 l328 0 l1 17 ZM253 328 q39 0 66 -20 q27 -20 40 -55 l-217 0 q14 34 42 54 q28 21 69 21 l0 0 Z" /><glyph glyph-name="" unicode="&#x119;" d="M463 202 q-3 92 -61 148 q-58 56 -150 58 q-93 -2 -153 -59 q-59 -57 -61 -149 q2 -89 58 -146 q56 -57 146 -62 q-24 -18 -38 -40 q-14 -23 -14 -51 q0 -39 25 -63 q25 -25 70 -28 q33 -1 63 10 q29 11 53 35 l-30 43 q-12 -19 -31 -29 q-19 -11 -40 -11 q-23 0 -36 14 q-13 14 -13 38 q1 32 23 54 q22 22 58 41 q47 18 79 53 q32 34 45 82 l-95 0 q-13 -32 -41 -50 q-28 -19 -67 -19 q-51 1 -83 32 q-32 31 -36 82 l328 0 l1 17 ZM253 328 q39 0 66 -20 q27 -20 40 -55 l-217 0 q14 34 42 54 q28 21 69 21 l0 0 Z" /><glyph glyph-name="" unicode="f" d="M283 400 l-101 0 l0 169 q1 27 15 42 q15 15 37 15 l47 0 l0 74 q-8 5 -24 9 q-16 3 -34 3 q-57 -1 -96 -38 q-38 -37 -40 -93 l0 -181 l-67 0 l0 -80 l67 0 l0 -320 l95 0 l0 320 l101 0 l0 80 Z" /><glyph glyph-name="" unicode="g" d="M375 400 l0 -44 q-26 24 -61 38 q-34 14 -73 14 q-87 -2 -144 -60 q-57 -59 -59 -148 q2 -89 59 -147 q57 -59 144 -61 q40 0 74 14 q35 14 61 39 l0 -69 q-1 -58 -35 -94 q-35 -36 -90 -37 q-43 1 -73 23 q-31 23 -44 61 l-87 -36 q23 -62 77 -98 q53 -36 127 -37 q99 2 159 62 q59 60 61 159 l0 421 l-96 0 ZM256 80 q-51 1 -85 35 q-34 34 -35 85 q1 51 35 85 q34 34 85 35 q52 -1 86 -35 q34 -34 35 -85 q-1 -51 -35 -85 q-34 -34 -86 -35 l0 0 Z" /><glyph glyph-name="" unicode="&#x11f;" d="M251 449 q63 0 100 34 q38 33 39 97 l-55 0 q-1 -31 -23 -53 q-23 -22 -61 -23 q-37 1 -60 23 q-22 22 -23 53 l-55 0 q1 -64 39 -97 q37 -34 99 -34 l0 0 ZM375 400 l0 -44 q-26 24 -61 38 q-34 14 -73 14 q-87 -2 -144 -60 q-57 -59 -59 -148 q2 -89 59 -147 q57 -59 144 -61 q40 0 74 14 q35 14 61 39 l0 -69 q-1 -58 -35 -94 q-35 -36 -90 -37 q-43 1 -73 23 q-31 23 -44 61 l-87 -36 q23 -62 77 -98 q53 -36 127 -37 q99 2 159 62 q59 60 61 159 l0 421 l-96 0 ZM256 80 q-51 1 -85 35 q-34 34 -35 85 q1 51 35 85 q34 34 85 35 q52 -1 86 -35 q34 -34 35 -85 q-1 -51 -35 -85 q-34 -34 -86 -35 l0 0 Z" /><glyph glyph-name="" unicode="&#x123;" d="M363 601 l-53 0 l-100 -146 l95 0 l58 146 ZM375 400 l0 -44 q-26 24 -61 38 q-34 14 -73 14 q-87 -2 -144 -60 q-57 -59 -59 -148 q2 -89 59 -147 q57 -59 144 -61 q40 0 74 14 q35 14 61 39 l0 -69 q-1 -58 -35 -94 q-35 -36 -90 -37 q-43 1 -73 23 q-31 23 -44 61 l-87 -36 q23 -62 77 -98 q53 -36 127 -37 q99 2 159 62 q59 60 61 159 l0 421 l-96 0 ZM256 80 q-51 1 -85 35 q-34 34 -35 85 q1 51 35 85 q34 34 85 35 q52 -1 86 -35 q34 -34 35 -85 q-1 -51 -35 -85 q-34 -34 -86 -35 l0 0 Z" /><glyph glyph-name="" unicode="&#x121;" d="M252 455 q24 1 40 17 q16 16 17 39 q-1 25 -17 41 q-16 15 -40 16 q-23 -1 -39 -16 q-16 -16 -17 -41 q1 -23 17 -39 q16 -16 39 -17 l0 0 ZM375 400 l0 -44 q-26 24 -61 38 q-34 14 -73 14 q-87 -2 -144 -60 q-57 -59 -59 -148 q2 -89 59 -147 q57 -59 144 -61 q40 0 74 14 q35 14 61 39 l0 -69 q-1 -58 -35 -94 q-35 -36 -90 -37 q-43 1 -73 23 q-31 23 -44 61 l-87 -36 q23 -62 77 -98 q53 -36 127 -37 q99 2 159 62 q59 60 61 159 l0 421 l-96 0 ZM256 80 q-51 1 -85 35 q-34 34 -35 85 q1 51 35 85 q34 34 85 35 q52 -1 86 -35 q34 -34 35 -85 q-1 -51 -35 -85 q-34 -34 -86 -35 l0 0 Z" /><glyph glyph-name="" unicode="h" d="M259 408 q-28 0 -53 -10 q-25 -10 -45 -27 l0 341 l-95 0 l0 -712 l95 0 l0 241 q1 33 22 56 q22 22 55 23 q32 -1 53 -22 q21 -21 22 -53 l0 -245 l95 0 l0 254 q-2 67 -43 110 q-42 43 -106 44 l0 0 Z" /><glyph glyph-name="" unicode="&#x127;" d="M259 408 q-28 0 -53 -10 q-25 -10 -45 -27 l0 140 l107 0 l0 66 l-107 0 l0 135 l-95 0 l0 -135 l-53 0 l0 -66 l53 0 l0 -511 l95 0 l0 241 q1 33 22 56 q22 22 55 23 q32 -1 53 -22 q21 -21 22 -53 l0 -245 l95 0 l0 254 q-2 67 -43 110 q-42 43 -106 44 l0 0 Z" /><glyph glyph-name="" unicode="i" d="M118 471 q24 1 40 17 q16 16 17 39 q-1 25 -17 41 q-16 15 -40 16 q-24 -1 -40 -16 q-16 -16 -17 -41 q1 -23 17 -39 q16 -16 40 -17 l0 0 ZM71 0 l94 0 l0 400 l-94 0 l0 -400 Z" /><glyph glyph-name="" unicode="&#x131;" d="M71 0 l95 0 l0 400 l-95 0 l0 -400 Z" /><glyph glyph-name="" unicode="í" d="M82 451 l62 0 l123 149 l-97 0 l-88 -149 ZM71 0 l95 0 l0 400 l-95 0 l0 -400 Z" /><glyph glyph-name="" unicode="&#x1d0;" d="M83 451 l72 0 l88 149 l-64 0 l-60 -92 l-59 92 l-65 0 l88 -149 ZM71 0 l95 0 l0 400 l-95 0 l0 -400 Z" /><glyph glyph-name="" unicode="î" d="M60 451 l59 93 l60 -93 l64 0 l-88 149 l-72 0 l-88 -149 l65 0 ZM71 0 l95 0 l0 400 l-95 0 l0 -400 Z" /><glyph glyph-name="" unicode="ï" d="M40 472 q22 1 37 16 q15 14 16 36 q-1 22 -16 37 q-15 14 -37 15 q-22 -1 -36 -15 q-15 -15 -16 -37 q1 -22 16 -36 q14 -15 36 -16 l0 0 ZM197 472 q22 1 37 16 q14 14 15 36 q-1 22 -15 37 q-15 14 -37 15 q-22 -1 -36 -15 q-15 -15 -16 -37 q1 -22 16 -36 q14 -15 36 -16 l0 0 ZM71 0 l95 0 l0 400 l-95 0 l0 -400 Z" /><glyph glyph-name="" unicode="ì" d="M156 451 l-88 149 l-97 0 l123 -149 l62 0 ZM71 0 l95 0 l0 400 l-95 0 l0 -400 Z" /><glyph glyph-name="" unicode="&#x12b;" d="M5 473 l228 0 l0 62 l-228 0 l0 -62 ZM71 0 l95 0 l0 400 l-95 0 l0 -400 Z" /><glyph glyph-name="" unicode="&#x12f;" d="M119 455 q24 1 40 17 q16 16 17 39 q-1 25 -17 41 q-16 15 -40 16 q-23 -1 -39 -16 q-16 -16 -17 -41 q1 -23 17 -39 q16 -16 39 -17 l0 0 ZM174 -119 q-12 -19 -31 -29 q-19 -11 -40 -11 q-23 0 -36 14 q-13 14 -13 38 q1 37 30 61 q29 24 73 46 l9 0 l0 400 l-95 0 l0 -400 l13 0 q-40 -21 -65 -49 q-25 -28 -26 -67 q0 -39 25 -63 q25 -25 70 -28 q33 -1 63 10 q29 11 53 35 l-30 43 Z" /><glyph glyph-name="" unicode="j" d="M118 471 q24 1 40 17 q16 16 17 39 q-1 25 -17 41 q-16 15 -40 16 q-24 -1 -40 -16 q-16 -16 -17 -41 q1 -23 17 -39 q16 -16 40 -17 l0 0 ZM30 -240 q56 1 95 38 q38 37 40 94 l0 508 l-94 0 l0 -497 q-1 -27 -16 -42 q-15 -15 -37 -15 l-47 0 l0 -73 q9 -5 25 -9 q16 -4 34 -4 l0 0 Z" /><glyph glyph-name="" unicode="&#x237;" d="M26 -240 q56 1 95 38 q38 37 40 94 l0 508 l-94 0 l0 -497 q-1 -27 -16 -42 q-15 -15 -37 -15 l-47 0 l0 -73 q9 -5 25 -9 q16 -4 34 -4 l0 0 Z" /><glyph glyph-name="" unicode="k" d="M461 0 l-196 220 l180 180 l-118 0 l-161 -160 l0 472 l-94 0 l0 -712 l94 0 l0 205 l170 -205 l125 0 Z" /><glyph glyph-name="" unicode="&#x137;" d="M265 220 l180 180 l-118 0 l-161 -160 l0 472 l-94 0 l0 -712 l94 0 l0 205 l170 -205 l125 0 l-196 220 ZM131 -194 l53 0 l100 146 l-95 0 l-58 -146 Z" /><glyph glyph-name="" unicode="l" d="M66 0 l95 0 l0 712 l-95 0 l0 -712 Z" /><glyph glyph-name="" unicode="&#x13a;" d="M76 763 l62 0 l123 149 l-97 0 l-88 -149 ZM66 0 l95 0 l0 712 l-95 0 l0 -712 Z" /><glyph glyph-name="" unicode="&#x13e;" d="M66 0 l95 0 l0 712 l-95 0 l0 -712 ZM260 471 l100 241 l-89 0 l-67 -241 l56 0 Z" /><glyph glyph-name="" unicode="&#x13c;" d="M66 0 l95 0 l0 712 l-95 0 l0 -712 ZM60 -194 l100 146 l-95 0 l-58 -146 l53 0 Z" /><glyph glyph-name="" unicode="&#x140;" d="M66 0 l95 0 l0 712 l-95 0 l0 -712 ZM235 248 q16 0 28 12 q12 11 13 29 q-1 17 -13 29 q-12 12 -28 12 q-17 0 -29 -12 q-11 -12 -12 -29 q1 -18 12 -29 q12 -12 29 -12 l0 0 Z" /><glyph glyph-name="" unicode="&#x142;" d="M257 462 l-44 37 l-52 -55 l0 268 l-95 0 l0 -368 l-97 -102 l42 -38 l55 58 l0 -262 l95 0 l0 361 l96 101 Z" /><glyph glyph-name="" unicode="m" d="M493 408 q-39 0 -70 -17 q-31 -16 -51 -46 q-20 29 -49 46 q-29 17 -63 17 q-30 0 -55 -13 q-25 -13 -44 -36 l0 41 l-95 0 l0 -400 l95 0 l0 244 q0 30 19 53 q19 22 52 23 q31 -1 51 -22 q20 -22 21 -54 l0 -244 l95 0 l0 244 q0 30 19 53 q19 22 52 23 q31 -1 51 -22 q20 -22 21 -54 l0 -244 l95 0 l0 254 q-1 67 -40 110 q-39 43 -104 44 l0 0 Z" /><glyph glyph-name="" unicode="n" d="M264 408 q-30 0 -56 -12 q-27 -12 -47 -34 l0 38 l-95 0 l0 -400 l95 0 l0 244 q1 33 23 54 q21 21 55 22 q34 -1 55 -22 q21 -21 22 -54 l0 -244 l94 0 l0 254 q-2 67 -44 110 q-42 43 -102 44 l0 0 Z" /><glyph glyph-name="" unicode="&#x144;" d="M387 600 l-97 0 l-88 -149 l62 0 l123 149 ZM264 408 q-30 0 -56 -12 q-27 -12 -47 -34 l0 38 l-95 0 l0 -400 l95 0 l0 244 q1 33 23 54 q21 21 55 22 q34 -1 55 -22 q21 -21 22 -54 l0 -244 l94 0 l0 254 q-2 67 -44 110 q-42 43 -102 44 l0 0 Z" /><glyph glyph-name="" unicode="&#x148;" d="M275 451 l88 149 l-64 0 l-60 -92 l-59 92 l-65 0 l88 -149 l72 0 ZM264 408 q-30 0 -56 -12 q-27 -12 -47 -34 l0 38 l-95 0 l0 -400 l95 0 l0 244 q1 33 23 54 q21 21 55 22 q34 -1 55 -22 q21 -21 22 -54 l0 -244 l94 0 l0 254 q-2 67 -44 110 q-42 43 -102 44 l0 0 Z" /><glyph glyph-name="" unicode="&#x146;" d="M264 408 q-30 0 -56 -12 q-27 -12 -47 -34 l0 38 l-95 0 l0 -400 l95 0 l0 244 q1 33 23 54 q21 21 55 22 q34 -1 55 -22 q21 -21 22 -54 l0 -244 l94 0 l0 254 q-2 67 -44 110 q-42 43 -102 44 l0 0 ZM133 -194 l53 0 l100 146 l-95 0 l-58 -146 Z" /><glyph glyph-name="" unicode="&#x14b;" d="M264 408 q-30 0 -56 -12 q-27 -12 -47 -34 l0 38 l-95 0 l0 -400 l95 0 l0 244 q1 33 23 54 q21 21 55 22 q33 -1 55 -22 q21 -21 22 -54 l0 -338 q-1 -43 -16 -55 q-16 -12 -39 -11 l0 -59 q71 -2 110 28 q39 29 39 104 l0 341 q-2 67 -44 110 q-42 43 -102 44 l0 0 Z" /><glyph glyph-name="" unicode="ñ" d="M188 521 q7 0 13 -4 q6 -4 12 -14 q13 -20 32 -32 q19 -13 45 -13 q45 1 68 34 q23 33 23 84 l-61 0 q0 -28 -7 -43 q-8 -16 -24 -16 q-10 0 -16 6 q-6 5 -10 12 q-13 19 -31 32 q-19 12 -46 13 q-43 -1 -67 -33 q-24 -33 -24 -85 l61 0 q0 25 8 42 q8 16 24 17 l0 0 ZM264 408 q-30 0 -56 -12 q-27 -12 -47 -34 l0 38 l-95 0 l0 -400 l95 0 l0 244 q1 33 23 54 q21 21 55 22 q34 -1 55 -22 q21 -21 22 -54 l0 -244 l94 0 l0 254 q-2 67 -44 110 q-42 43 -102 44 l0 0 Z" /><glyph glyph-name="" unicode="o" d="M253 -8 q95 2 154 60 q59 58 61 148 q-2 90 -61 148 q-59 58 -154 60 q-95 -2 -154 -60 q-59 -58 -61 -148 q2 -90 61 -148 q59 -58 154 -60 l0 0 ZM253 80 q-52 1 -85 35 q-34 34 -35 85 q1 51 35 85 q33 34 85 35 q51 -1 85 -35 q34 -34 35 -85 q-1 -51 -35 -85 q-34 -34 -85 -35 l0 0 Z" /><glyph glyph-name="" unicode="ó" d="M216 451 l62 0 l123 149 l-97 0 l-88 -149 ZM253 -8 q95 2 154 60 q59 58 61 148 q-2 90 -61 148 q-59 58 -154 60 q-95 -2 -154 -60 q-59 -58 -61 -148 q2 -90 61 -148 q59 -58 154 -60 l0 0 ZM253 80 q-52 1 -85 35 q-34 34 -35 85 q1 51 35 85 q33 34 85 35 q51 -1 85 -35 q34 -34 35 -85 q-1 -51 -35 -85 q-34 -34 -85 -35 l0 0 Z" /><glyph glyph-name="" unicode="&#x1d2;" d="M217 451 l72 0 l88 149 l-64 0 l-60 -92 l-59 92 l-65 0 l88 -149 ZM253 -8 q95 2 154 60 q59 58 61 148 q-2 90 -61 148 q-59 58 -154 60 q-95 -2 -154 -60 q-59 -58 -61 -148 q2 -90 61 -148 q59 -58 154 -60 l0 0 ZM253 80 q-52 1 -85 35 q-34 34 -35 85 q1 51 35 85 q33 34 85 35 q51 -1 85 -35 q34 -34 35 -85 q-1 -51 -35 -85 q-34 -34 -85 -35 l0 0 Z" /><glyph glyph-name="" unicode="ô" d="M194 451 l59 93 l60 -93 l64 0 l-88 149 l-72 0 l-88 -149 l65 0 ZM253 -8 q95 2 154 60 q59 58 61 148 q-2 90 -61 148 q-59 58 -154 60 q-95 -2 -154 -60 q-59 -58 -61 -148 q2 -90 61 -148 q59 -58 154 -60 l0 0 ZM253 80 q-52 1 -85 35 q-34 34 -35 85 q1 51 35 85 q33 34 85 35 q51 -1 85 -35 q34 -34 35 -85 q-1 -51 -35 -85 q-34 -34 -85 -35 l0 0 Z" /><glyph glyph-name="" unicode="ö" d="M174 472 q22 1 37 16 q15 14 16 36 q-1 22 -16 37 q-15 14 -37 15 q-22 -1 -36 -15 q-15 -15 -16 -37 q1 -22 16 -36 q14 -15 36 -16 l0 0 ZM331 472 q22 1 37 16 q14 14 15 36 q-1 22 -15 37 q-15 14 -37 15 q-22 -1 -36 -15 q-15 -15 -16 -37 q1 -22 16 -36 q14 -15 36 -16 l0 0 ZM253 -8 q95 2 154 60 q59 58 61 148 q-2 90 -61 148 q-59 58 -154 60 q-95 -2 -154 -60 q-59 -58 -61 -148 q2 -90 61 -148 q59 -58 154 -60 l0 0 ZM253 80 q-52 1 -85 35 q-34 34 -35 85 q1 51 35 85 q33 34 85 35 q51 -1 85 -35 q34 -34 35 -85 q-1 -51 -35 -85 q-34 -34 -85 -35 l0 0 Z" /><glyph glyph-name="" unicode="ò" d="M290 451 l-88 149 l-97 0 l123 -149 l62 0 ZM253 -8 q95 2 154 60 q59 58 61 148 q-2 90 -61 148 q-59 58 -154 60 q-95 -2 -154 -60 q-59 -58 -61 -148 q2 -90 61 -148 q59 -58 154 -60 l0 0 ZM253 80 q-52 1 -85 35 q-34 34 -35 85 q1 51 35 85 q33 34 85 35 q51 -1 85 -35 q34 -34 35 -85 q-1 -51 -35 -85 q-34 -34 -85 -35 l0 0 Z" /><glyph glyph-name="" unicode="&#x151;" d="M145 451 l61 0 l122 149 l-96 0 l-87 -149 ZM290 451 l61 0 l122 149 l-96 0 l-87 -149 ZM253 -8 q95 2 154 60 q59 58 61 148 q-2 90 -61 148 q-59 58 -154 60 q-95 -2 -154 -60 q-59 -58 -61 -148 q2 -90 61 -148 q59 -58 154 -60 l0 0 ZM253 80 q-52 1 -85 35 q-34 34 -35 85 q1 51 35 85 q33 34 85 35 q51 -1 85 -35 q34 -34 35 -85 q-1 -51 -35 -85 q-34 -34 -85 -35 l0 0 Z" /><glyph glyph-name="" unicode="&#x14d;" d="M139 473 l228 0 l0 62 l-228 0 l0 -62 ZM253 -8 q95 2 154 60 q59 58 61 148 q-2 90 -61 148 q-59 58 -154 60 q-95 -2 -154 -60 q-59 -58 -61 -148 q2 -90 61 -148 q59 -58 154 -60 l0 0 ZM253 80 q-52 1 -85 35 q-34 34 -35 85 q1 51 35 85 q33 34 85 35 q51 -1 85 -35 q34 -34 35 -85 q-1 -51 -35 -85 q-34 -34 -85 -35 l0 0 Z" /><glyph glyph-name="" unicode="ø" d="M394 360 l32 46 l-42 25 l-31 -45 q-22 11 -47 16 q-25 6 -53 6 q-95 -2 -154 -60 q-59 -58 -61 -148 q0 -49 20 -90 q19 -40 54 -69 l-33 -47 l43 -26 l32 46 q22 -11 47 -16 q25 -6 52 -6 q95 2 154 60 q59 58 61 148 q0 49 -20 90 q-19 41 -54 70 l0 0 ZM133 200 q1 51 35 85 q33 34 85 35 q26 0 47 -9 l-135 -194 q-15 17 -23 38 q-9 21 -9 45 l0 0 ZM253 80 q-26 0 -47 9 l134 194 q16 -17 24 -38 q9 -21 9 -45 q-1 -51 -35 -85 q-34 -34 -85 -35 l0 0 Z" /><glyph glyph-name="" unicode="õ" d="M304 458 q45 1 68 34 q23 33 23 84 l-61 0 q0 -28 -7 -43 q-8 -16 -24 -16 q-10 0 -16 6 q-6 5 -10 12 q-13 19 -31 32 q-19 12 -46 13 q-43 -1 -67 -33 q-24 -33 -24 -85 l61 0 q0 25 8 42 q8 16 24 17 q7 0 13 -4 q6 -4 12 -14 q13 -20 32 -32 q19 -13 45 -13 l0 0 ZM253 -8 q95 2 154 60 q59 58 61 148 q-2 90 -61 148 q-59 58 -154 60 q-95 -2 -154 -60 q-59 -58 -61 -148 q2 -90 61 -148 q59 -58 154 -60 l0 0 ZM253 80 q-52 1 -85 35 q-34 34 -35 85 q1 51 35 85 q33 34 85 35 q51 -1 85 -35 q34 -34 35 -85 q-1 -51 -35 -85 q-34 -34 -85 -35 l0 0 Z" /><glyph glyph-name="" unicode="&#x153;" d="M800 202 q-3 92 -61 148 q-58 56 -150 58 q-53 0 -96 -20 q-42 -20 -72 -55 q-29 35 -72 55 q-43 20 -96 20 q-95 -2 -154 -60 q-59 -58 -61 -148 q2 -90 61 -148 q59 -58 154 -60 q53 0 96 20 q42 20 72 55 q29 -35 72 -55 q43 -20 97 -20 q78 1 132 41 q53 41 71 107 l-95 0 q-13 -32 -41 -50 q-28 -19 -67 -19 q-51 1 -83 32 q-32 31 -36 82 l328 0 l1 17 ZM590 328 q39 0 66 -20 q27 -20 40 -55 l-217 0 q14 34 42 54 q28 21 69 21 l0 0 ZM253 80 q-52 1 -85 35 q-34 34 -35 85 q1 51 35 85 q33 34 85 35 q51 -1 85 -35 q34 -34 35 -85 q-1 -51 -35 -85 q-34 -34 -85 -35 l0 0 Z" /><glyph glyph-name="" unicode="p" d="M290 408 q-38 0 -71 -13 q-32 -14 -58 -37 l0 42 l-95 0 l0 -640 l95 0 l0 282 q26 -23 58 -37 q33 -13 71 -13 q87 2 144 61 q57 58 59 147 q-2 89 -59 148 q-57 58 -144 60 l0 0 ZM278 80 q-51 1 -85 35 q-34 34 -35 85 q1 51 35 85 q34 34 85 35 q51 -1 85 -35 q34 -34 35 -85 q-1 -51 -35 -85 q-34 -34 -85 -35 l0 0 Z" /><glyph glyph-name="" unicode="þ" d="M295 408 q-38 0 -71 -13 q-32 -14 -58 -37 l0 282 l-94 0 l0 -880 l94 0 l0 282 q26 -23 58 -37 q33 -13 71 -13 q87 2 144 61 q57 58 59 147 q-2 89 -59 148 q-57 58 -144 60 l0 0 ZM286 80 q-51 1 -85 35 q-34 34 -35 85 q1 51 35 85 q34 34 85 35 q51 -1 85 -35 q34 -34 35 -85 q-1 -51 -35 -85 q-34 -34 -85 -35 l0 0 Z" /><glyph glyph-name="" unicode="q" d="M518 -154 q-23 0 -38 15 q-14 15 -15 42 l0 497 l-95 0 l0 -42 q-26 23 -58 37 q-33 13 -71 13 q-87 -2 -144 -60 q-57 -59 -59 -148 q2 -89 59 -147 q57 -59 144 -61 q38 0 71 13 q32 14 58 37 l0 -150 q2 -57 41 -94 q39 -37 95 -38 q14 0 26 2 q13 2 23 6 l0 78 l-37 0 ZM253 80 q-51 1 -85 35 q-34 34 -35 85 q1 51 35 85 q34 34 85 35 q51 -1 85 -35 q34 -34 35 -85 q-1 -51 -35 -85 q-34 -34 -85 -35 l0 0 Z" /><glyph glyph-name="" unicode="r" d="M284 408 q-39 0 -70 -17 q-32 -16 -53 -46 l0 55 l-95 0 l0 -400 l95 0 l0 203 q1 53 35 85 q33 31 86 32 q10 0 18 -1 q9 -1 16 -3 l0 89 q-15 3 -32 3 l0 0 Z" /><glyph glyph-name="" unicode="&#x155;" d="M326 600 l-97 0 l-88 -149 l62 0 l123 149 ZM161 345 l0 55 l-95 0 l0 -400 l95 0 l0 203 q1 53 35 85 q33 31 86 32 q10 0 18 -1 q9 -1 16 -3 l0 89 q-15 3 -32 3 q-39 0 -70 -17 q-32 -16 -53 -46 l0 0 Z" /><glyph glyph-name="" unicode="&#x159;" d="M214 451 l88 149 l-64 0 l-60 -92 l-59 92 l-65 0 l88 -149 l72 0 ZM284 408 q-39 0 -70 -17 q-32 -16 -53 -46 l0 55 l-95 0 l0 -400 l95 0 l0 203 q1 53 35 85 q33 31 86 32 q10 0 18 -1 q9 -1 16 -3 l0 89 q-15 3 -32 3 l0 0 Z" /><glyph glyph-name="" unicode="&#x157;" d="M284 408 q-39 0 -70 -17 q-32 -16 -53 -46 l0 55 l-95 0 l0 -400 l95 0 l0 203 q1 53 35 85 q33 31 86 32 q10 0 18 -1 q9 -1 16 -3 l0 89 q-15 3 -32 3 l0 0 ZM7 -194 l53 0 l100 146 l-95 0 l-58 -146 Z" /><glyph glyph-name="" unicode="s" d="M179 -8 q61 1 99 35 q37 33 38 88 q-2 56 -39 84 q-36 29 -79 44 q-29 11 -44 21 q-14 10 -14 28 q0 17 11 27 q12 9 32 9 q20 0 36 -8 q15 -8 24 -22 l60 49 q-17 26 -51 43 q-34 17 -75 18 q-57 -1 -94 -34 q-36 -33 -37 -87 q2 -52 37 -80 q35 -28 82 -43 q31 -12 46 -23 q15 -11 15 -28 q0 -19 -14 -29 q-14 -10 -36 -10 q-22 0 -43 11 q-20 11 -30 34 l-77 -35 q16 -42 59 -67 q42 -24 94 -25 l0 0 Z" /><glyph glyph-name="" unicode="&#x15b;" d="M144 451 l62 0 l123 149 l-97 0 l-88 -149 ZM179 -8 q61 1 99 35 q37 33 38 88 q-2 56 -39 84 q-36 29 -79 44 q-29 11 -44 21 q-14 10 -14 28 q0 17 11 27 q12 9 32 9 q20 0 36 -8 q15 -8 24 -22 l60 49 q-17 26 -51 43 q-34 17 -75 18 q-57 -1 -94 -34 q-36 -33 -37 -87 q2 -52 37 -80 q35 -28 82 -43 q31 -12 46 -23 q15 -11 15 -28 q0 -19 -14 -29 q-14 -10 -36 -10 q-22 0 -43 11 q-20 11 -30 34 l-77 -35 q16 -42 59 -67 q42 -24 94 -25 l0 0 Z" /><glyph glyph-name="" unicode="&#x161;" d="M145 451 l72 0 l88 149 l-64 0 l-60 -92 l-59 92 l-65 0 l88 -149 ZM179 -8 q61 1 99 35 q37 33 38 88 q-2 56 -39 84 q-36 29 -79 44 q-29 11 -44 21 q-14 10 -14 28 q0 17 11 27 q12 9 32 9 q20 0 36 -8 q15 -8 24 -22 l60 49 q-17 26 -51 43 q-34 17 -75 18 q-57 -1 -94 -34 q-36 -33 -37 -87 q2 -52 37 -80 q35 -28 82 -43 q31 -12 46 -23 q15 -11 15 -28 q0 -19 -14 -29 q-14 -10 -36 -10 q-22 0 -43 11 q-20 11 -30 34 l-77 -35 q16 -42 59 -67 q42 -24 94 -25 l0 0 Z" /><glyph glyph-name="" unicode="&#x15f;" d="M316 115 q-2 56 -39 84 q-36 29 -79 44 q-29 11 -44 21 q-14 10 -14 28 q0 17 11 27 q12 9 32 9 q20 0 36 -8 q15 -8 24 -22 l60 49 q-17 26 -51 43 q-34 17 -75 18 q-57 -1 -94 -34 q-36 -33 -37 -87 q2 -52 37 -80 q35 -28 82 -43 q31 -12 46 -23 q15 -11 15 -28 q0 -19 -14 -29 q-14 -10 -36 -10 q-22 0 -43 11 q-20 11 -30 34 l-77 -35 q13 -36 48 -60 q34 -24 78 -30 l-36 -66 l38 -23 q30 12 50 5 q19 -8 20 -32 q0 -16 -11 -27 q-10 -11 -26 -11 q-13 0 -27 7 q-14 7 -21 18 l-45 -16 q11 -25 37 -40 q26 -16 56 -17 q37 1 61 25 q23 24 24 61 q-1 38 -28 59 q-26 20 -67 13 l22 43 q53 7 85 39 q31 33 32 83 l0 0 Z" /><glyph glyph-name="" unicode="&#x219;" d="M179 -8 q61 1 99 35 q37 33 38 88 q-2 56 -39 84 q-36 29 -79 44 q-29 11 -44 21 q-14 10 -14 28 q0 17 11 27 q12 9 32 9 q20 0 36 -8 q15 -8 24 -22 l60 49 q-17 26 -51 43 q-34 17 -75 18 q-57 -1 -94 -34 q-36 -33 -37 -87 q2 -52 37 -80 q35 -28 82 -43 q31 -12 46 -23 q15 -11 15 -28 q0 -19 -14 -29 q-14 -10 -36 -10 q-22 0 -43 11 q-20 11 -30 34 l-77 -35 q16 -42 59 -67 q42 -24 94 -25 l0 0 ZM126 -194 l100 146 l-95 0 l-58 -146 l53 0 Z" /><glyph glyph-name="" unicode="ß" d="M412 311 q25 23 39 55 q14 31 14 67 q-2 73 -54 120 q-52 46 -137 47 q-88 -1 -144 -51 q-56 -49 -58 -129 l0 -420 l94 0 l0 420 q1 43 31 70 q31 26 78 27 q45 -1 73 -24 q27 -24 28 -62 q-1 -39 -27 -65 q-27 -26 -67 -27 l-15 0 l0 -78 l38 0 q42 -1 70 -27 q28 -27 29 -67 q-1 -38 -25 -57 q-25 -20 -58 -21 l-89 0 l0 -89 l106 0 q70 -1 115 44 q44 45 46 117 q0 48 -24 87 q-23 39 -63 63 l0 0 Z" /><glyph glyph-name="" unicode="t" d="M278 320 l0 80 l-101 0 l0 164 l-95 0 l0 -164 l-66 0 l0 -80 l66 0 l0 -196 q2 -57 41 -94 q39 -37 95 -38 q18 0 34 4 q16 4 24 9 l0 73 l-46 0 q-23 0 -38 15 q-14 15 -15 42 l0 185 l101 0 Z" /><glyph glyph-name="" unicode="&#x167;" d="M278 320 l0 80 l-101 0 l0 164 l-95 0 l0 -164 l-66 0 l0 -80 l66 0 l0 -87 l-64 0 l0 -66 l64 0 l0 -43 q2 -57 41 -94 q39 -37 95 -38 q18 0 34 4 q16 4 24 9 l0 73 l-46 0 q-23 0 -38 15 q-14 15 -15 42 l0 32 l96 0 l0 66 l-96 0 l0 87 l101 0 Z" /><glyph glyph-name="" unicode="&#x165;" d="M306 672 l-67 -241 l56 0 l100 241 l-89 0 ZM177 564 l-95 0 l0 -164 l-66 0 l0 -80 l66 0 l0 -196 q2 -57 41 -94 q39 -37 95 -38 q18 0 34 4 q16 4 24 9 l0 73 l-46 0 q-23 0 -38 15 q-14 15 -15 42 l0 185 l101 0 l0 80 l-101 0 l0 164 Z" /><glyph glyph-name="" unicode="&#x163;" d="M216 -50 l23 43 q12 2 22 5 q10 3 15 7 l0 73 l-46 0 q-23 0 -38 15 q-14 15 -15 42 l0 185 l101 0 l0 80 l-101 0 l0 164 l-95 0 l0 -164 l-66 0 l0 -80 l66 0 l0 -196 q1 -50 32 -84 q30 -35 77 -45 l-36 -67 l38 -23 q30 12 50 5 q19 -8 20 -32 q0 -16 -11 -27 q-10 -11 -26 -11 q-13 0 -27 7 q-14 7 -21 18 l-45 -16 q11 -25 37 -40 q26 -16 56 -17 q37 1 61 25 q23 24 24 61 q-1 38 -28 59 q-26 20 -67 13 l0 0 Z" /><glyph glyph-name="" unicode="&#x21b;" d="M278 320 l0 80 l-101 0 l0 164 l-95 0 l0 -164 l-66 0 l0 -80 l66 0 l0 -196 q2 -57 41 -94 q39 -37 95 -38 q18 0 34 4 q16 4 24 9 l0 73 l-46 0 q-23 0 -38 15 q-14 15 -15 42 l0 185 l101 0 ZM112 -194 l53 0 l100 146 l-95 0 l-58 -146 Z" /><glyph glyph-name="" unicode="u" d="M223 -8 q79 1 123 42 q44 41 45 114 l0 252 l-94 0 l0 -240 q-1 -37 -21 -58 q-20 -22 -53 -22 q-33 0 -53 22 q-20 21 -21 58 l0 240 l-94 0 l0 -252 q1 -73 45 -114 q44 -41 123 -42 l0 0 Z" /><glyph glyph-name="" unicode="ú" d="M189 451 l62 0 l123 149 l-97 0 l-88 -149 ZM223 -8 q79 1 123 42 q44 41 45 114 l0 252 l-94 0 l0 -240 q-1 -37 -21 -58 q-20 -22 -53 -22 q-33 0 -53 22 q-20 21 -21 58 l0 240 l-94 0 l0 -252 q1 -73 45 -114 q44 -41 123 -42 l0 0 Z" /><glyph glyph-name="" unicode="&#x1d4;" d="M190 451 l72 0 l88 149 l-64 0 l-60 -92 l-59 92 l-65 0 l88 -149 ZM223 -8 q79 1 123 42 q44 41 45 114 l0 252 l-94 0 l0 -240 q-1 -37 -21 -58 q-20 -22 -53 -22 q-33 0 -53 22 q-20 21 -21 58 l0 240 l-94 0 l0 -252 q1 -73 45 -114 q44 -41 123 -42 l0 0 Z" /><glyph glyph-name="" unicode="û" d="M167 451 l59 93 l60 -93 l64 0 l-88 149 l-72 0 l-88 -149 l65 0 ZM223 -8 q79 1 123 42 q44 41 45 114 l0 252 l-94 0 l0 -240 q-1 -37 -21 -58 q-20 -22 -53 -22 q-33 0 -53 22 q-20 21 -21 58 l0 240 l-94 0 l0 -252 q1 -73 45 -114 q44 -41 123 -42 l0 0 Z" /><glyph glyph-name="" unicode="ü" d="M147 472 q22 1 37 16 q15 14 16 36 q-1 22 -16 37 q-15 14 -37 15 q-22 -1 -36 -15 q-15 -15 -16 -37 q1 -22 16 -36 q14 -15 36 -16 l0 0 ZM304 472 q22 1 37 16 q14 14 15 36 q-1 22 -15 37 q-15 14 -37 15 q-22 -1 -36 -15 q-15 -15 -16 -37 q1 -22 16 -36 q14 -15 36 -16 l0 0 ZM223 -8 q79 1 123 42 q44 41 45 114 l0 252 l-94 0 l0 -240 q-1 -37 -21 -58 q-20 -22 -53 -22 q-33 0 -53 22 q-20 21 -21 58 l0 240 l-94 0 l0 -252 q1 -73 45 -114 q44 -41 123 -42 l0 0 Z" /><glyph glyph-name="" unicode="ù" d="M263 451 l-88 149 l-97 0 l123 -149 l62 0 ZM223 -8 q79 1 123 42 q44 41 45 114 l0 252 l-94 0 l0 -240 q-1 -37 -21 -58 q-20 -22 -53 -22 q-33 0 -53 22 q-20 21 -21 58 l0 240 l-94 0 l0 -252 q1 -73 45 -114 q44 -41 123 -42 l0 0 Z" /><glyph glyph-name="" unicode="&#x171;" d="M118 451 l61 0 l122 149 l-96 0 l-87 -149 ZM263 451 l61 0 l122 149 l-96 0 l-87 -149 ZM223 -8 q79 1 123 42 q44 41 45 114 l0 252 l-94 0 l0 -240 q-1 -37 -21 -58 q-20 -22 -53 -22 q-33 0 -53 22 q-20 21 -21 58 l0 240 l-94 0 l0 -252 q1 -73 45 -114 q44 -41 123 -42 l0 0 Z" /><glyph glyph-name="" unicode="&#x16b;" d="M112 473 l228 0 l0 62 l-228 0 l0 -62 ZM223 -8 q79 1 123 42 q44 41 45 114 l0 252 l-94 0 l0 -240 q-1 -37 -21 -58 q-20 -22 -53 -22 q-33 0 -53 22 q-20 21 -21 58 l0 240 l-94 0 l0 -252 q1 -73 45 -114 q44 -41 123 -42 l0 0 Z" /><glyph glyph-name="" unicode="&#x173;" d="M293 3 q47 16 72 53 q26 38 26 92 l0 252 l-94 0 l0 -240 q-1 -37 -21 -58 q-20 -22 -53 -22 q-33 0 -53 22 q-20 21 -21 58 l0 240 l-94 0 l0 -252 q1 -70 42 -111 q41 -41 115 -45 q-19 -16 -30 -37 q-11 -20 -11 -45 q0 -39 25 -63 q25 -25 70 -28 q33 -1 63 10 q29 11 53 35 l-30 43 q-12 -19 -31 -29 q-19 -11 -40 -11 q-23 0 -36 14 q-13 14 -13 38 q0 27 17 47 q17 20 44 37 l0 0 Z" /><glyph glyph-name="" unicode="&#x16f;" d="M226 435 q38 1 63 27 q25 25 26 63 q-1 38 -26 64 q-25 25 -63 26 q-38 -1 -64 -26 q-26 -26 -27 -64 q1 -38 27 -63 q26 -26 64 -27 l0 0 ZM226 478 q-20 0 -33 13 q-13 13 -13 34 q0 20 13 34 q13 13 33 14 q20 -1 33 -14 q14 -14 14 -34 q0 -21 -14 -34 q-13 -13 -33 -13 l0 0 ZM223 -8 q79 1 123 42 q44 41 45 114 l0 252 l-94 0 l0 -240 q-1 -37 -21 -58 q-20 -22 -53 -22 q-33 0 -53 22 q-20 21 -21 58 l0 240 l-94 0 l0 -252 q1 -73 45 -114 q44 -41 123 -42 l0 0 Z" /><glyph glyph-name="" unicode="v" d="M312 400 l-105 -297 l-104 297 l-101 0 l160 -400 l90 0 l161 400 l-101 0 Z" /><glyph glyph-name="" unicode="w" d="M555 400 l-86 -297 l-97 297 l-80 0 l-97 -295 l-86 295 l-107 0 l138 -400 l101 0 l91 271 l90 -271 l102 0 l136 400 l-105 0 Z" /><glyph glyph-name="" unicode="&#x1e83;" d="M480 600 l-97 0 l-88 -149 l62 0 l123 149 ZM555 400 l-86 -297 l-97 297 l-80 0 l-97 -295 l-86 295 l-107 0 l138 -400 l101 0 l91 271 l90 -271 l102 0 l136 400 l-105 0 Z" /><glyph glyph-name="" unicode="&#x175;" d="M332 544 l60 -93 l64 0 l-88 149 l-72 0 l-88 -149 l65 0 l59 93 ZM555 400 l-86 -297 l-97 297 l-80 0 l-97 -295 l-86 295 l-107 0 l138 -400 l101 0 l91 271 l90 -271 l102 0 l136 400 l-105 0 Z" /><glyph glyph-name="" unicode="&#x1e85;" d="M253 472 q22 1 37 16 q15 14 16 36 q-1 22 -16 37 q-15 14 -37 15 q-22 -1 -36 -15 q-15 -15 -16 -37 q1 -22 16 -36 q14 -15 36 -16 l0 0 ZM410 472 q22 1 37 16 q14 14 15 36 q-1 22 -15 37 q-15 14 -37 15 q-22 -1 -36 -15 q-15 -15 -16 -37 q1 -22 16 -36 q14 -15 36 -16 l0 0 ZM555 400 l-86 -297 l-97 297 l-80 0 l-97 -295 l-86 295 l-107 0 l138 -400 l101 0 l91 271 l90 -271 l102 0 l136 400 l-105 0 Z" /><glyph glyph-name="" unicode="&#x1e81;" d="M369 451 l-88 149 l-97 0 l123 -149 l62 0 ZM555 400 l-86 -297 l-97 297 l-80 0 l-97 -295 l-86 295 l-107 0 l138 -400 l101 0 l91 271 l90 -271 l102 0 l136 400 l-105 0 Z" /><glyph glyph-name="" unicode="x" d="M451 400 l-113 0 l-111 -133 l-112 133 l-113 0 l168 -200 l-168 -200 l114 0 l111 132 l110 -132 l114 0 l-168 200 l168 200 Z" /><glyph glyph-name="" unicode="y" d="M327 400 l-110 -296 l-114 296 l-101 0 l165 -407 l-95 -233 l100 0 l257 640 l-102 0 Z" /><glyph glyph-name="" unicode="ý" d="M363 600 l-97 0 l-88 -149 l62 0 l123 149 ZM327 400 l-110 -296 l-114 296 l-101 0 l165 -407 l-95 -233 l100 0 l257 640 l-102 0 Z" /><glyph glyph-name="" unicode="&#x177;" d="M215 544 l60 -93 l64 0 l-88 149 l-72 0 l-88 -149 l65 0 l59 93 ZM327 400 l-110 -296 l-114 296 l-101 0 l165 -407 l-95 -233 l100 0 l257 640 l-102 0 Z" /><glyph glyph-name="" unicode="ÿ" d="M136 472 q22 1 37 16 q15 14 16 36 q-1 22 -16 37 q-15 14 -37 15 q-22 -1 -36 -15 q-15 -15 -16 -37 q1 -22 16 -36 q14 -15 36 -16 l0 0 ZM293 472 q22 1 37 16 q14 14 15 36 q-1 22 -15 37 q-15 14 -37 15 q-22 -1 -36 -15 q-15 -15 -16 -37 q1 -22 16 -36 q14 -15 36 -16 l0 0 ZM327 400 l-110 -296 l-114 296 l-101 0 l165 -407 l-95 -233 l100 0 l257 640 l-102 0 Z" /><glyph glyph-name="" unicode="&#x1ef3;" d="M252 451 l-88 149 l-97 0 l123 -149 l62 0 ZM327 400 l-110 -296 l-114 296 l-101 0 l165 -407 l-95 -233 l100 0 l257 640 l-102 0 Z" /><glyph glyph-name="" unicode="z" d="M378 400 l-333 0 l0 -84 l180 0 l-198 -316 l347 0 l0 84 l-195 0 l199 316 Z" /><glyph glyph-name="" unicode="&#x17a;" d="M359 600 l-97 0 l-88 -149 l62 0 l123 149 ZM378 400 l-333 0 l0 -84 l180 0 l-198 -316 l347 0 l0 84 l-195 0 l199 316 Z" /><glyph glyph-name="" unicode="&#x17e;" d="M247 451 l88 149 l-64 0 l-60 -92 l-59 92 l-65 0 l88 -149 l72 0 ZM378 400 l-333 0 l0 -84 l180 0 l-198 -316 l347 0 l0 84 l-195 0 l199 316 Z" /><glyph glyph-name="" unicode="&#x17c;" d="M211 455 q24 1 40 17 q16 16 17 39 q-1 25 -17 41 q-16 15 -40 16 q-23 -1 -39 -16 q-16 -16 -17 -41 q1 -23 17 -39 q16 -16 39 -17 l0 0 ZM378 400 l-333 0 l0 -84 l180 0 l-198 -316 l347 0 l0 84 l-195 0 l199 316 Z" /><glyph glyph-name="" unicode="&#xfb01;" d="M182 569 q1 27 15 42 q15 15 37 15 l47 0 l0 74 q-8 5 -24 9 q-16 3 -34 3 q-57 -1 -96 -38 q-38 -37 -40 -93 l0 -181 l-67 0 l0 -80 l67 0 l0 -320 l95 0 l0 320 l101 0 l0 80 l-101 0 l0 169 ZM405 471 q24 1 40 17 q16 16 17 39 q-1 25 -17 41 q-16 15 -40 16 q-24 -1 -40 -16 q-16 -16 -17 -41 q1 -23 17 -39 q16 -16 40 -17 l0 0 ZM358 0 l94 0 l0 400 l-94 0 l0 -400 Z" /><glyph glyph-name="" unicode="&#xfb02;" d="M182 569 q1 27 15 42 q15 15 37 15 l47 0 l0 74 q-8 5 -24 9 q-16 3 -34 3 q-57 -1 -96 -38 q-38 -37 -40 -93 l0 -181 l-67 0 l0 -80 l67 0 l0 -320 l95 0 l0 320 l101 0 l0 80 l-101 0 l0 169 ZM353 712 l0 -712 l95 0 l0 712 l-95 0 Z" /><glyph glyph-name="" unicode="ª" d="M241 600 l0 -45 q-15 23 -39 37 q-24 13 -54 13 q-51 -1 -85 -37 q-34 -35 -35 -88 q1 -54 35 -89 q34 -35 85 -36 q30 0 54 13 q24 13 39 36 l0 -44 l48 0 l0 240 l-48 0 ZM157 396 q-35 1 -58 25 q-23 24 -24 59 q1 35 24 58 q23 24 58 25 q36 -1 60 -25 q23 -23 24 -58 q-1 -35 -24 -59 q-24 -24 -60 -25 l0 0 Z" /><glyph glyph-name="" unicode="º" d="M157 355 q56 1 93 36 q38 35 39 89 q-1 53 -39 88 q-37 36 -93 37 q-55 -1 -91 -37 q-37 -35 -38 -88 q1 -54 38 -89 q36 -35 91 -36 l0 0 ZM157 396 q-35 1 -58 25 q-23 24 -24 59 q1 35 24 58 q23 24 58 25 q36 -1 60 -25 q23 -23 24 -58 q-1 -35 -24 -59 q-24 -24 -60 -25 l0 0 Z" /><glyph glyph-name="" unicode="&#x394;" d="M365 600 l-110 0 l-241 -600 l591 0 l-240 600 ZM153 85 l157 405 l156 -405 l-313 0 Z" /><glyph glyph-name="" unicode="&#x3a9;" d="M48 0 l248 0 l0 56 q-54 27 -93 92 q-40 64 -42 155 q1 98 54 159 q53 61 142 63 q91 -3 140 -67 q49 -64 49 -154 q-2 -93 -40 -155 q-39 -63 -95 -93 l0 -56 l248 0 l0 76 l-117 0 l0 4 q42 36 72 100 q31 63 32 141 q-1 113 -77 195 q-75 82 -213 86 q-133 -3 -213 -81 q-80 -79 -82 -201 q2 -81 32 -143 q31 -62 70 -97 l0 -4 l-115 0 l0 -76 Z" /><glyph glyph-name="" unicode="&#x3bc;" d="M342 400 l0 -236 q-1 -38 -28 -63 q-26 -25 -67 -26 q-38 1 -63 26 q-25 25 -26 63 l0 236 l-94 0 l0 -600 l70 0 l0 218 q19 -12 40 -19 q22 -7 46 -7 q37 0 68 16 q31 16 54 43 l0 -51 l94 0 l0 400 l-94 0 Z" /><glyph glyph-name="" unicode="&#x3c0;" d="M62 0 l86 0 q27 65 45 175 q18 111 22 195 l162 -1 l0 -245 q0 -46 3 -78 q4 -32 12 -46 l86 0 q-5 20 -9 52 q-3 32 -3 80 l0 237 l75 0 l7 70 l-394 0 q-57 0 -91 -7 q-35 -7 -52 -19 l10 -55 q16 6 41 9 q25 2 65 2 q-4 -87 -22 -192 q-18 -105 -43 -177 l0 0 Z" /><glyph glyph-name="" unicode="0" d="M276 -8 q108 2 164 87 q56 84 56 221 q0 137 -56 221 q-56 85 -164 87 q-109 -2 -164 -87 q-56 -84 -56 -221 q0 -137 56 -221 q55 -85 164 -87 l0 0 ZM276 81 q-65 2 -95 61 q-29 59 -29 158 q0 99 29 158 q30 60 95 61 q65 -1 95 -61 q29 -59 29 -158 q0 -99 -29 -158 q-30 -59 -95 -61 l0 0 Z" /><glyph glyph-name="" unicode="1" d="M128 0 l96 0 l0 600 l-192 0 l0 -89 l96 0 l0 -511 Z" /><glyph glyph-name="" unicode="2" d="M190 89 l121 142 q63 73 87 117 q25 43 23 93 q-3 76 -53 121 q-51 45 -128 47 q-83 -1 -137 -51 q-55 -49 -53 -133 l97 0 q-2 45 23 70 q26 24 65 24 q36 0 62 -21 q26 -21 27 -68 q2 -24 -14 -53 q-16 -29 -68 -89 l-243 -288 l437 0 l0 89 l-246 0 Z" /><glyph glyph-name="" unicode="3" d="M238 356 l192 244 l-382 0 l0 -89 l210 0 l-179 -233 l162 0 q42 -1 70 -25 q27 -25 28 -68 q-1 -44 -28 -72 q-27 -28 -71 -29 q-39 1 -67 24 q-27 23 -28 59 l-97 -1 q2 -75 56 -123 q54 -49 135 -51 q85 2 139 56 q54 53 56 133 q-2 84 -57 130 q-55 47 -139 45 l0 0 Z" /><glyph glyph-name="" unicode="4" d="M457 216 l-56 0 l0 384 l-121 0 l-262 -474 l287 0 l0 -126 l96 0 l0 126 l56 0 l0 90 ZM149 216 l156 290 l0 -290 l-156 0 Z" /><glyph glyph-name="" unicode="5" d="M268 402 q-34 0 -62 -10 q-28 -10 -51 -28 l17 145 l248 0 l0 89 l-327 0 l-30 -283 l78 -48 q20 21 47 34 q27 12 57 12 q50 -1 82 -32 q33 -32 34 -84 q0 -49 -34 -81 q-33 -32 -94 -33 q-43 -1 -89 17 q-45 19 -83 68 l-14 0 l-9 -99 q33 -35 87 -56 q55 -20 113 -21 q100 2 159 59 q59 58 60 150 q-1 88 -53 144 q-51 55 -136 57 l0 0 Z" /><glyph glyph-name="" unicode="6" d="M482 205 q-4 86 -62 140 q-57 54 -132 61 q-18 0 -34 -3 l159 197 l-114 0 l-201 -266 q-22 -30 -36 -65 q-14 -34 -13 -74 q4 -88 66 -145 q63 -57 155 -57 q90 4 151 63 q60 59 61 149 l0 0 ZM270 79 q-56 -1 -90 31 q-34 32 -37 85 q-1 55 31 91 q32 36 87 39 q55 1 90 -33 q35 -33 37 -88 q1 -52 -31 -87 q-32 -35 -87 -38 l0 0 Z" /><glyph glyph-name="" unicode="7" d="M34 600 l0 -89 l295 0 l-287 -511 l108 0 l291 532 l0 68 l-407 0 Z" /><glyph glyph-name="" unicode="8" d="M345 334 q28 20 44 51 q16 30 16 68 q-1 67 -47 111 q-46 43 -119 44 q-73 -1 -119 -44 q-47 -44 -48 -111 q0 -38 16 -68 q16 -31 44 -51 q-44 -24 -69 -64 q-25 -41 -26 -93 q2 -80 57 -131 q56 -52 144 -54 q89 2 145 54 q56 51 58 131 q0 52 -26 93 q-25 40 -70 64 l0 0 ZM239 526 q35 -1 58 -24 q23 -23 24 -59 q-1 -36 -24 -59 q-23 -23 -58 -24 q-36 1 -59 24 q-23 23 -24 59 q1 36 24 59 q23 23 59 24 l0 0 ZM238 76 q-45 1 -75 32 q-29 31 -30 77 q1 46 30 75 q30 29 75 30 q46 -1 76 -30 q29 -29 30 -75 q-1 -46 -30 -77 q-30 -31 -76 -32 l0 0 Z" /><glyph glyph-name="" unicode="9" d="M482 405 q-4 88 -67 145 q-62 57 -154 57 q-91 -4 -151 -63 q-61 -59 -61 -149 q4 -86 62 -140 q57 -54 132 -61 q19 0 34 3 l-159 -197 l113 0 l202 266 q22 30 36 65 q13 34 13 74 l0 0 ZM270 275 q-56 0 -90 33 q-35 33 -38 88 q-1 52 31 87 q32 35 88 38 q55 0 89 -32 q35 -32 38 -84 q1 -55 -31 -91 q-32 -36 -87 -39 l0 0 Z" /><glyph glyph-name="" unicode="&#x2044;" d="M-19 0 l74 0 l418 600 l-74 0 l-418 -600 Z" /><glyph glyph-name="" unicode="½" d="M160 200 l0 400 l-128 0 l0 -59 l64 0 l0 -341 l64 0 ZM542 599 l-418 -600 l74 0 l418 600 l-74 0 ZM634 58 l80 95 q42 48 58 78 q17 29 16 62 q-3 51 -36 81 q-34 30 -85 31 q-55 -1 -92 -34 q-36 -33 -35 -89 l65 0 q-1 30 16 47 q17 16 43 16 q23 0 41 -14 q17 -14 18 -45 q1 -17 -9 -36 q-11 -19 -46 -59 l-162 -192 l292 0 l0 59 l-164 0 Z" /><glyph glyph-name="" unicode="¼" d="M160 200 l0 400 l-128 0 l0 -59 l64 0 l0 -341 l64 0 ZM552 598 l-418 -600 l74 0 l418 600 l-74 0 ZM791 144 l-38 0 l0 256 l-80 0 l-175 -316 l191 0 l0 -84 l64 0 l0 84 l38 0 l0 60 ZM585 144 l104 194 l0 -194 l-104 0 Z" /><glyph glyph-name="" unicode="¾" d="M305 323 q-1 56 -38 87 q-36 31 -93 29 l129 163 l-255 0 l0 -59 l140 0 l-119 -156 l108 0 q28 0 46 -17 q18 -16 19 -45 q-1 -29 -19 -48 q-18 -18 -47 -19 q-26 1 -44 16 q-18 15 -19 39 l-65 0 q1 -50 37 -82 q36 -33 90 -34 q57 1 93 37 q36 35 37 89 l0 0 ZM599 598 l-418 -600 l74 0 l418 600 l-74 0 ZM808 144 l-38 0 l0 256 l-80 0 l-175 -316 l191 0 l0 -84 l64 0 l0 84 l38 0 l0 60 ZM602 144 l104 194 l0 -194 l-104 0 Z" /><glyph glyph-name="" unicode="¹" d="M76 300 l47 0 l0 300 l-91 0 l0 -41 l44 0 l0 -259 Z" /><glyph glyph-name="" unicode="²" d="M130 358 l58 68 q30 35 42 57 q12 21 11 45 q-2 36 -26 58 q-24 22 -61 23 q-40 -1 -67 -25 q-26 -24 -25 -64 l47 0 q-1 21 11 33 q12 12 31 12 q17 0 30 -10 q12 -10 13 -33 q1 -12 -7 -25 q-7 -14 -32 -43 l-117 -139 l210 0 l0 43 l-118 0 Z" /><glyph glyph-name="" unicode="³" d="M145 482 l92 117 l-184 0 l0 -43 l101 0 l-86 -112 l78 0 q21 0 34 -12 q13 -12 13 -33 q0 -21 -13 -35 q-13 -13 -34 -14 q-19 0 -32 12 q-13 11 -14 28 l-47 0 q1 -36 27 -60 q26 -23 65 -24 q41 1 67 27 q26 26 27 64 q-1 40 -27 63 q-26 22 -67 22 l0 0 Z" /><glyph glyph-name="" unicode="*" d="M116 396 l31 69 l31 -69 l43 25 l-46 61 l76 -9 l0 49 l-76 -8 l46 61 l-43 25 l-31 -69 l-31 69 l-42 -25 l44 -61 l-75 8 l0 -49 l75 9 l-44 -61 l42 -25 Z" /><glyph glyph-name="" unicode="\" d="M480 -240 l89 0 l-495 952 l-90 0 l496 -952 Z" /><glyph glyph-name="" unicode="·" d="M118 245 q17 0 30 12 q12 12 13 31 q-1 18 -13 30 q-13 12 -30 13 q-18 -1 -30 -13 q-12 -12 -13 -30 q1 -19 13 -31 q12 -12 30 -12 l0 0 Z" /><glyph glyph-name="" unicode="&#x2022;" d="M242 115 q62 2 105 44 q43 42 45 106 q-2 63 -45 107 q-43 43 -105 45 q-63 -2 -106 -45 q-43 -44 -45 -107 q2 -64 45 -106 q43 -42 106 -44 l0 0 Z" /><glyph glyph-name="" unicode=":" d="M134 295 q23 1 40 16 q16 16 17 40 q-1 24 -17 40 q-17 16 -40 17 q-24 -1 -40 -17 q-16 -16 -17 -40 q1 -24 17 -40 q16 -15 40 -16 l0 0 ZM134 -8 q23 1 40 17 q16 16 17 40 q-1 23 -17 39 q-17 16 -40 17 q-24 -1 -40 -17 q-16 -16 -17 -39 q1 -24 17 -40 q16 -16 40 -17 l0 0 Z" /><glyph glyph-name="" unicode="," d="M70 -132 l131 235 l-97 0 l-100 -235 l66 0 Z" /><glyph glyph-name="" unicode="&#x2026;" d="M113 -8 q27 1 46 19 q18 19 19 46 q-1 27 -19 46 q-19 18 -46 19 q-27 -1 -46 -19 q-18 -19 -19 -46 q1 -27 19 -46 q19 -18 46 -19 l0 0 ZM355 -8 q27 1 46 19 q18 19 19 46 q-1 27 -19 46 q-19 18 -46 19 q-27 -1 -46 -19 q-18 -19 -19 -46 q1 -27 19 -46 q19 -18 46 -19 l0 0 ZM600 -8 q27 1 46 19 q18 19 19 46 q-1 27 -19 46 q-19 18 -46 19 q-27 -1 -46 -19 q-18 -19 -19 -46 q1 -27 19 -46 q19 -18 46 -19 l0 0 Z" /><glyph glyph-name="" unicode="!" d="M95 189 l72 0 l11 456 l-94 0 l11 -456 ZM131 -8 q24 1 40 17 q16 16 17 40 q-1 24 -17 40 q-16 15 -40 16 q-24 -1 -40 -16 q-15 -16 -16 -40 q1 -24 16 -40 q16 -16 40 -17 l0 0 Z" /><glyph glyph-name="" unicode="¡" d="M131 287 q24 1 40 16 q16 16 17 40 q-1 24 -17 40 q-16 16 -40 17 q-24 -1 -40 -17 q-15 -16 -16 -40 q1 -24 16 -40 q16 -15 40 -16 l0 0 ZM84 -240 l94 0 l-11 451 l-72 0 l-11 -451 Z" /><glyph glyph-name="" unicode="#" d="M149 0 l68 0 l18 135 l143 0 l-19 -135 l67 0 l21 135 l112 0 l9 68 l-112 0 l23 168 l112 0 l11 68 l-113 0 l19 137 l-68 0 l-19 -137 l-142 0 l19 137 l-67 0 l-20 -137 l-111 0 l-11 -68 l114 0 l-26 -168 l-112 0 l-10 -68 l113 0 l-19 -135 ZM246 203 l23 168 l143 0 l-25 -168 l-141 0 Z" /><glyph glyph-name="" unicode="." d="M113 -8 q27 1 46 19 q18 19 19 46 q-1 27 -19 46 q-19 18 -46 19 q-27 -1 -46 -19 q-18 -19 -19 -46 q1 -27 19 -46 q19 -18 46 -19 l0 0 Z" /><glyph glyph-name="" unicode="?" d="M221 174 l85 0 l0 100 q9 53 72 75 q62 21 71 132 q-2 76 -53 125 q-52 48 -133 50 q-84 -2 -136 -54 q-51 -53 -49 -134 l84 0 q-2 46 26 75 q28 29 75 30 q45 -1 74 -26 q28 -25 29 -66 q-9 -82 -72 -95 q-64 -14 -73 -119 l0 -93 ZM266 -8 q25 1 41 17 q15 15 16 40 q-1 24 -16 40 q-16 15 -41 16 q-24 -1 -40 -16 q-16 -16 -17 -40 q1 -25 17 -40 q16 -16 40 -17 l0 0 Z" /><glyph glyph-name="" unicode="¿" d="M233 301 q24 1 40 16 q16 16 17 40 q-1 25 -17 40 q-16 16 -40 16 q-24 0 -40 -16 q-15 -15 -16 -40 q1 -24 16 -40 q16 -15 40 -16 l0 0 ZM237 -225 q84 2 136 54 q51 52 49 134 l-84 0 q1 -46 -26 -75 q-28 -30 -75 -31 q-45 1 -74 27 q-28 25 -29 66 q9 81 73 95 q63 14 72 119 l0 67 l-85 0 l0 -74 q-9 -53 -71 -75 q-63 -21 -72 -132 q2 -77 53 -125 q52 -48 133 -50 l0 0 Z" /><glyph glyph-name="" unicode="&quot;" d="M86 339 l67 0 l11 269 l-89 0 l11 -269 ZM238 339 l67 0 l11 269 l-89 0 l11 -269 Z" /><glyph glyph-name="" unicode="&#39;" d="M86 371 l67 0 l11 237 l-89 0 l11 -237 Z" /><glyph glyph-name="" unicode=";" d="M143 295 q24 1 40 16 q16 16 17 40 q-1 24 -17 40 q-16 16 -40 17 q-24 -1 -40 -17 q-16 -16 -17 -40 q1 -24 17 -40 q16 -15 40 -16 l0 0 ZM88 -132 l131 235 l-97 0 l-100 -235 l66 0 Z" /><glyph glyph-name="" unicode="/" d="M-16 -240 l90 0 l495 952 l-89 0 l-496 -952 Z" /><glyph glyph-name="" unicode="_" d="M35 -75 l480 0 l0 75 l-480 0 l0 -75 Z" /><glyph glyph-name="" unicode="{" d="M194 -229 l47 0 l0 61 q-40 0 -54 12 q-13 12 -12 41 l0 215 q1 46 -9 82 q-11 36 -40 61 q29 25 40 61 q10 36 9 82 l0 211 q-1 38 14 48 q14 10 52 9 l0 61 l-47 0 q-40 -1 -65 -34 q-25 -32 -26 -83 l0 -200 q1 -57 -11 -83 q-12 -26 -49 -43 l0 -58 q37 -16 49 -42 q12 -26 11 -84 l0 -200 q1 -51 26 -83 q25 -33 65 -34 l0 0 Z" /><glyph glyph-name="" unicode="}" d="M30 -229 l47 0 q40 1 65 34 q25 32 26 83 l0 200 q-1 58 11 84 q12 26 49 42 l0 58 q-37 17 -49 43 q-12 26 -11 83 l0 200 q-1 51 -26 83 q-25 33 -65 34 l-47 0 l0 -61 q37 1 51 -9 q15 -10 14 -48 l0 -211 q-1 -46 10 -82 q11 -36 40 -61 q-29 -25 -40 -61 q-11 -36 -10 -82 l0 -215 q1 -29 -12 -41 q-13 -12 -53 -12 l0 -61 Z" /><glyph glyph-name="" unicode="[" d="M66 -200 l186 0 l0 60 l-104 0 l0 803 l104 0 l0 59 l-186 0 l0 -922 Z" /><glyph glyph-name="" unicode="]" d="M39 -200 l185 0 l0 922 l-185 0 l0 -59 l103 0 l0 -803 l-103 0 l0 -60 Z" /><glyph glyph-name="" unicode="(" d="M288 -237 l0 68 q-63 2 -104 96 q-41 94 -42 315 q1 222 42 317 q41 94 104 96 l0 68 q-99 -1 -163 -112 q-64 -111 -66 -369 q2 -258 66 -368 q64 -110 163 -111 l0 0 Z" /><glyph glyph-name="" unicode=")" d="M33 -237 q98 1 163 111 q64 110 66 368 q-2 258 -66 369 q-65 111 -163 112 l0 -68 q62 -2 103 -96 q41 -95 43 -317 q-2 -221 -43 -315 q-41 -94 -103 -96 l0 -68 Z" /><glyph glyph-name="" unicode="&#x2014;" d="M0 170 l800 0 l0 76 l-800 0 l0 -76 Z" /><glyph glyph-name="" unicode="&#x2013;" d="M48 170 l400 0 l0 76 l-400 0 l0 -76 Z" /><glyph glyph-name="" unicode="-" d="M48 170 l280 0 l0 76 l-280 0 l0 -76 Z" /><glyph glyph-name="" unicode="­" d="M48 170 l280 0 l0 76 l-280 0 l0 -76 Z" /><glyph glyph-name="" unicode="«" d="M213 76 l77 0 l-122 147 l122 147 l-77 0 l-122 -147 l122 -147 ZM381 76 l78 0 l-122 147 l122 147 l-78 0 l-122 -147 l122 -147 Z" /><glyph glyph-name="" unicode="»" d="M91 76 l76 0 l122 147 l-122 147 l-76 0 l121 -147 l-121 -147 ZM258 76 l78 0 l122 147 l-122 147 l-78 0 l122 -147 l-122 -147 Z" /><glyph glyph-name="" unicode="&#x2039;" d="M165 76 l77 0 l-122 147 l122 147 l-77 0 l-122 -147 l122 -147 Z" /><glyph glyph-name="" unicode="&#x203a;" d="M59 76 l76 0 l122 147 l-122 147 l-76 0 l121 -147 l-121 -147 Z" /><glyph glyph-name="" unicode="&#x201e;" d="M80 -155 l100 241 l-89 0 l-67 -241 l56 0 ZM235 -155 l100 241 l-89 0 l-67 -241 l56 0 Z" /><glyph glyph-name="" unicode="&#x201c;" d="M130 608 l-100 -241 l89 0 l67 241 l-56 0 ZM287 608 l-100 -241 l89 0 l67 241 l-56 0 Z" /><glyph glyph-name="" unicode="&#x201d;" d="M233 391 l100 241 l-89 0 l-67 -241 l56 0 ZM73 390 l100 241 l-89 0 l-67 -241 l56 0 Z" /><glyph glyph-name="" unicode="&#x2018;" d="M120 608 l-100 -241 l89 0 l67 241 l-56 0 Z" /><glyph glyph-name="" unicode="&#x2019;" d="M91 370 l100 241 l-89 0 l-67 -241 l56 0 Z" /><glyph glyph-name="" unicode="&#x201a;" d="M80 -155 l100 241 l-89 0 l-67 -241 l56 0 Z" /><glyph glyph-name="" unicode=" " d="" /><glyph glyph-name="" unicode="¢" d="M262 405 q27 0 53 -8 q25 -8 44 -24 l0 92 q-40 21 -88 23 l0 73 l-56 0 l0 -78 q-76 -16 -123 -71 q-48 -55 -49 -132 q1 -77 49 -132 q47 -55 123 -71 l0 -78 l56 0 l0 73 q48 2 88 23 l0 93 q-19 -17 -44 -25 q-26 -8 -53 -8 q-53 1 -88 36 q-36 35 -37 89 q1 54 37 89 q35 35 88 36 l0 0 Z" /><glyph glyph-name="" unicode="¤" d="M111 94 l42 43 q48 -32 103 -32 q56 0 103 32 l42 -43 l50 53 l-41 41 q32 47 32 103 q0 55 -32 102 l42 41 l-52 51 l-41 -41 q-47 32 -102 31 q-56 0 -103 -32 l-42 43 l-50 -53 l41 -41 q-32 -46 -32 -102 q0 -55 32 -102 l-42 -41 l50 -53 ZM175 210 q-33 34 -32 80 q0 45 33 80 q35 33 80 33 q45 0 80 -32 q34 -35 34 -80 q0 -46 -33 -81 q-35 -34 -81 -33 q-46 0 -81 33 l0 0 Z" /><glyph glyph-name="" unicode="$" d="M429 164 q-18 146 -142 176 q-124 30 -142 108 q1 35 24 52 q23 17 57 17 q30 0 56 -13 q27 -13 47 -39 l69 63 q-22 27 -53 46 q-31 20 -69 28 l0 65 l-87 0 l0 -62 q-60 -11 -100 -52 q-40 -41 -42 -112 q18 -136 142 -165 q124 -30 142 -112 q-1 -37 -27 -57 q-27 -21 -70 -21 q-46 1 -79 23 q-33 23 -49 62 l-84 -51 q22 -48 66 -81 q43 -33 101 -43 l0 -62 l87 0 l0 62 q67 11 109 54 q43 44 44 114 l0 0 Z" /><glyph glyph-name="" unicode="&#x20ac;" d="M171 202 l235 0 l20 62 l-274 0 q-3 18 -3 36 q0 17 2 33 l296 0 l19 62 l-296 0 q27 56 79 90 q51 33 118 34 q33 0 65 -11 q33 -10 60 -30 l27 87 q-36 20 -75 32 q-39 11 -77 11 q-106 -2 -184 -60 q-78 -58 -109 -153 l-65 0 l0 -62 l52 0 q-2 -16 -2 -33 q0 -18 2 -36 l-52 0 l0 -62 l65 0 q32 -94 110 -151 q78 -57 183 -59 q38 0 77 11 q39 12 75 32 l0 108 q-30 -29 -70 -45 q-41 -17 -82 -17 q-66 1 -117 34 q-51 32 -79 87 l0 0 Z" /><glyph glyph-name="" unicode="&#x192;" d="M311 540 q11 0 22 -3 q10 -4 18 -10 l8 67 q-7 5 -23 10 q-16 4 -34 4 q-56 -1 -98 -37 q-43 -35 -54 -92 l-12 -79 l-68 0 l-11 -72 l67 0 l-83 -528 l84 0 l84 528 l110 0 l11 72 l-110 0 l11 67 q6 33 26 53 q21 20 52 20 l0 0 Z" /><glyph glyph-name="" unicode="£" d="M167 67 l0 194 l149 0 l0 63 l-149 0 l0 92 q1 55 32 87 q31 32 84 33 q41 -1 73 -28 q31 -27 37 -69 l69 30 q-16 61 -66 100 q-50 38 -113 39 q-84 -1 -135 -54 q-52 -52 -53 -138 l0 -92 l-64 0 l0 -63 l64 0 l0 -261 l376 0 l0 67 l-304 0 Z" /><glyph glyph-name="" unicode="¥" d="M526 600 l-88 0 l-158 -245 l-157 245 l-88 0 l202 -306 l-148 0 l0 -59 l150 0 l0 -70 l-150 0 l0 -57 l150 0 l0 -108 l83 0 l0 108 l151 0 l0 57 l-151 0 l0 70 l151 0 l0 59 l-149 0 l202 306 Z" /><glyph glyph-name="" unicode="&#x2248;" d="M328 253 q55 1 86 41 q31 40 31 103 l-66 0 q0 -37 -16 -58 q-15 -22 -40 -22 q-18 1 -30 10 q-13 10 -22 22 q-22 29 -46 44 q-24 14 -56 14 q-59 -1 -92 -40 q-33 -40 -33 -107 l66 0 q0 35 15 57 q15 23 43 24 q13 0 25 -7 q11 -6 24 -20 q15 -18 41 -39 q26 -20 70 -22 l0 0 ZM328 84 q55 1 86 41 q31 40 31 104 l-66 0 q0 -39 -16 -60 q-15 -21 -40 -21 q-18 1 -30 11 q-13 10 -22 22 q-23 29 -46 44 q-24 14 -56 14 q-58 -1 -92 -40 q-33 -40 -33 -107 l66 0 q0 34 15 57 q15 22 43 23 q15 1 26 -7 q11 -7 23 -20 q15 -18 41 -39 q26 -20 70 -22 l0 0 Z" /><glyph glyph-name="" unicode="~" d="M319 130 q55 1 88 42 q32 40 28 103 l-65 0 q2 -37 -15 -58 q-16 -22 -42 -22 q-18 0 -30 10 q-12 9 -21 22 q-21 28 -45 43 q-23 15 -57 15 q-61 -1 -94 -41 q-34 -40 -31 -106 l66 0 q-1 33 14 57 q15 23 44 24 q13 0 24 -7 q11 -7 24 -21 q15 -18 41 -38 q27 -21 71 -23 l0 0 Z" /><glyph glyph-name="" unicode="÷" d="M291 317 q21 0 36 15 q14 14 15 36 q-1 21 -15 36 q-15 14 -36 15 q-21 -1 -36 -15 q-14 -15 -15 -36 q1 -22 15 -36 q15 -15 36 -15 l0 0 ZM51 195 l480 0 l0 50 l-480 0 l0 -50 ZM291 21 q21 0 36 15 q14 14 15 36 q-1 22 -15 36 q-15 14 -36 15 q-21 -1 -36 -15 q-14 -14 -15 -36 q1 -22 15 -36 q15 -15 36 -15 l0 0 Z" /><glyph glyph-name="" unicode="&#x2205;" d="M512 388 l34 35 l-26 26 l-35 -34 q-31 27 -71 42 q-39 15 -84 15 q-102 -3 -169 -70 q-67 -67 -70 -169 q0 -44 15 -84 q15 -39 42 -71 l-35 -35 l27 -27 l35 35 q32 -27 71 -42 q40 -15 84 -15 q102 3 169 70 q67 67 70 169 q0 45 -15 84 q-15 40 -42 71 l0 0 ZM166 233 q2 70 48 116 q46 46 116 48 q29 0 55 -9 q26 -10 47 -27 l-231 -230 q-17 21 -26 47 q-9 26 -9 55 l0 0 ZM330 69 q-29 0 -55 9 q-26 9 -47 26 l230 231 q17 -21 27 -47 q9 -26 9 -55 q-2 -70 -48 -116 q-46 -46 -116 -48 l0 0 Z" /><glyph glyph-name="" unicode="=" d="M51 259 l480 0 l0 61 l-480 0 l0 -61 ZM51 104 l480 0 l0 61 l-480 0 l0 -61 Z" /><glyph glyph-name="" unicode="&gt;" d="M75 550 l0 -78 l368 -186 l-368 -186 l0 -79 l441 223 l0 85 l-441 221 Z" /><glyph glyph-name="" unicode="&#x2265;" d="M99 571 l0 -78 l363 -163 l-363 -164 l0 -79 l441 200 l0 85 l-441 199 ZM99 0 l441 0 l0 55 l-441 0 l0 -55 Z" /><glyph glyph-name="" unicode="&#x221e;" d="M169 109 q35 0 72 20 q38 20 75 58 q36 -38 74 -58 q37 -20 72 -20 q53 1 85 34 q31 32 33 90 q-2 58 -33 91 q-32 32 -85 33 q-35 0 -72 -20 q-38 -21 -74 -59 q-37 38 -75 59 q-37 20 -72 20 q-51 -1 -83 -35 q-33 -34 -35 -89 q2 -55 35 -89 q32 -34 83 -35 l0 0 ZM169 170 q-24 1 -40 18 q-16 17 -17 45 q1 28 17 45 q16 17 40 18 q23 0 50 -16 q27 -17 56 -47 q-29 -31 -56 -47 q-27 -16 -50 -16 l0 0 ZM462 170 q-23 0 -50 17 q-27 16 -56 46 q29 30 56 47 q27 16 50 16 q24 0 40 -18 q16 -17 17 -45 q-1 -29 -17 -46 q-16 -17 -40 -17 l0 0 Z" /><glyph glyph-name="" unicode="&#x222b;" d="M93 -151 q32 1 55 21 q23 20 29 54 l94 594 q2 9 8 14 q5 5 12 5 q12 0 14 -9 q1 -9 -2 -30 l53 0 q14 41 -2 68 q-17 26 -53 27 q-32 -1 -56 -21 q-24 -21 -30 -54 l-94 -594 q-1 -9 -6 -14 q-5 -5 -13 -5 q-11 0 -13 8 q-3 9 1 31 l-53 0 q-14 -41 2 -68 q16 -26 54 -27 l0 0 Z" /><glyph glyph-name="" unicode="&lt;" d="M516 550 l-441 -221 l0 -85 l441 -223 l0 79 l-368 186 l368 186 l0 78 Z" /><glyph glyph-name="" unicode="&#x2264;" d="M540 571 l-441 -199 l0 -85 l441 -200 l0 79 l-363 164 l363 163 l0 78 ZM99 0 l441 0 l0 55 l-441 0 l0 -55 Z" /><glyph glyph-name="" unicode="¬" d="M509 85 l64 0 l0 269 l-498 0 l0 -65 l434 0 l0 -204 Z" /><glyph glyph-name="" unicode="µ" d="M346 400 l0 -238 q-1 -40 -29 -66 q-28 -27 -70 -28 q-40 1 -66 28 q-27 26 -28 66 l0 238 l-86 0 l0 -600 l64 0 l0 222 q20 -14 43 -22 q23 -8 49 -8 q37 0 69 17 q31 16 54 44 l0 -53 l86 0 l0 400 l-86 0 Z" /><glyph glyph-name="" unicode="&#x2212;" d="M51 204 l424 0 l0 74 l-424 0 l0 -74 Z" /><glyph glyph-name="" unicode="×" d="M506 396 l-54 55 l-149 -148 l-148 148 l-55 -55 l148 -148 l-148 -148 l55 -55 l148 148 l149 -148 l54 55 l-148 148 l148 148 Z" /><glyph glyph-name="" unicode="&#x2260;" d="M531 259 l0 61 l-115 0 l73 85 l-55 0 l-73 -85 l-310 0 l0 -61 l258 0 l-80 -94 l-178 0 l0 -61 l126 0 l-85 -99 l55 0 l85 99 l299 0 l0 61 l-247 0 l80 94 l167 0 Z" /><glyph glyph-name="" unicode="&#x2202;" d="M139 567 l0 -67 q59 21 105 -13 q45 -33 68 -106 q-76 27 -144 -9 q-68 -36 -104 -128 q-38 -105 3 -172 q40 -67 142 -69 q87 3 144 75 q56 72 59 184 q-2 151 -79 237 q-76 86 -194 68 l0 0 ZM328 262 q-2 -83 -36 -139 q-34 -57 -83 -59 q-52 2 -71 48 q-20 45 3 111 q29 76 78 99 q48 22 107 -13 q1 -11 2 -23 q0 -12 0 -24 l0 0 Z" /><glyph glyph-name="" unicode="%" d="M165 336 q51 1 84 40 q34 38 35 96 q-1 58 -35 96 q-33 39 -84 40 q-51 -1 -84 -40 q-34 -38 -35 -96 q1 -58 35 -96 q33 -39 84 -40 l0 0 ZM69 0 l98 0 l407 600 l-98 0 l-407 -600 ZM165 408 q-19 1 -33 19 q-13 17 -14 45 q1 28 14 46 q14 17 33 18 q19 -1 33 -18 q14 -18 15 -46 q-1 -28 -15 -45 q-14 -18 -33 -19 l0 0 ZM478 -8 q51 1 85 40 q33 38 34 96 q-1 58 -34 96 q-34 39 -85 40 q-51 -1 -84 -40 q-34 -38 -35 -96 q1 -58 35 -96 q33 -39 84 -40 l0 0 ZM478 64 q-19 1 -33 19 q-13 17 -14 45 q1 28 14 46 q14 17 33 18 q19 -1 33 -18 q13 -18 14 -46 q-1 -28 -14 -45 q-14 -18 -33 -19 l0 0 Z" /><glyph glyph-name="" unicode="&#x2030;" d="M165 336 q51 1 84 40 q34 38 35 96 q-1 58 -35 96 q-33 39 -84 40 q-51 -1 -84 -40 q-34 -38 -35 -96 q1 -58 35 -96 q33 -39 84 -40 l0 0 ZM69 0 l98 0 l407 600 l-98 0 l-407 -600 ZM165 408 q-19 1 -33 19 q-13 17 -14 45 q1 28 14 46 q14 17 33 18 q19 -1 33 -18 q14 -18 15 -46 q-1 -28 -15 -45 q-14 -18 -33 -19 l0 0 ZM478 -8 q51 1 85 40 q33 38 34 96 q-1 58 -34 96 q-34 39 -85 40 q-51 -1 -84 -40 q-34 -38 -35 -96 q1 -58 35 -96 q33 -39 84 -40 l0 0 ZM757 -8 q51 1 84 40 q34 38 35 96 q-1 58 -35 96 q-33 39 -84 40 q-51 -1 -85 -40 q-34 -38 -35 -96 q1 -58 35 -96 q34 -39 85 -40 l0 0 ZM478 64 q-19 1 -33 19 q-13 17 -14 45 q1 28 14 46 q14 17 33 18 q19 -1 33 -18 q13 -18 14 -46 q-1 -28 -14 -45 q-14 -18 -33 -19 l0 0 ZM756 64 q-19 1 -33 19 q-13 17 -14 45 q1 28 14 46 q14 17 33 18 q19 -1 33 -18 q13 -18 14 -46 q-1 -28 -14 -45 q-14 -18 -33 -19 l0 0 Z" /><glyph glyph-name="" unicode="+" d="M284 0 l78 0 l0 209 l209 0 l0 78 l-209 0 l0 209 l-78 0 l0 -209 l-209 0 l0 -78 l209 0 l0 -209 Z" /><glyph glyph-name="" unicode="±" d="M356 360 l0 144 l-69 0 l0 -144 l-244 0 l0 -69 l244 0 l0 -144 l69 0 l0 144 l244 0 l0 69 l-244 0 ZM43 0 l557 0 l0 62 l-557 0 l0 -62 Z" /><glyph glyph-name="" unicode="&#x220f;" d="M571 562 l-528 0 l0 -66 l56 0 l0 -592 l67 0 l0 592 l282 0 l0 -592 l66 0 l0 592 l57 0 l0 66 Z" /><glyph glyph-name="" unicode="&#x221a;" d="M203 -62 l53 0 l311 651 l-56 24 l-275 -577 l-78 238 l-99 0 l0 -61 l55 0 l89 -275 Z" /><glyph glyph-name="" unicode="&#x2211;" d="M75 -94 l464 -1 l0 72 l-344 0 l261 257 l-261 257 l344 0 l0 71 l-464 0 l0 -56 l282 -272 l-282 -273 l0 -55 Z" /><glyph glyph-name="" unicode="&#x25ca;" d="M316 42 l241 241 l-241 241 l-241 -242 l241 -240 ZM317 146 l-137 136 l137 138 l136 -137 l-136 -137 Z" /><glyph glyph-name="" unicode="&#xf8ff;" d="M379 0 q129 3 215 89 q86 86 89 215 q-3 129 -89 215 q-86 86 -215 89 q-129 -3 -215 -89 q-86 -86 -89 -215 q3 -129 89 -215 q86 -86 215 -89 l0 0 ZM379 29 q-117 3 -195 81 q-78 78 -81 194 q3 117 81 195 q78 77 195 80 q117 -3 195 -80 q77 -78 80 -195 q-3 -116 -80 -194 q-78 -78 -195 -81 l0 0 ZM538 174 q3 0 6 1 q2 1 4 3 q4 5 4 11 q0 5 -4 9 l-105 106 l105 106 q5 4 5 10 q0 6 -5 10 q-4 5 -10 5 q-5 0 -10 -5 l-116 -116 q-4 -4 -4 -10 q0 -5 4 -10 l116 -116 q2 -2 5 -3 q3 -1 5 -1 l0 0 ZM219 174 q6 0 11 4 q4 4 4 10 l0 232 q0 6 -4 10 q-5 4 -11 4 q-6 0 -10 -4 q-4 -4 -4 -10 l0 -232 q0 -6 4 -10 q4 -4 10 -4 l0 0 ZM379 174 q6 0 10 4 q4 4 4 10 l0 232 q0 6 -4 10 q-4 4 -10 4 q-6 0 -10 -4 q-5 -4 -5 -10 l0 -232 q0 -6 5 -10 q4 -4 10 -4 l0 0 ZM263 290 l72 0 q6 0 11 4 q4 4 4 10 q0 6 -4 10 q-5 4 -11 4 l-72 0 q-6 0 -10 -4 q-5 -4 -5 -10 q0 -6 5 -10 q4 -4 10 -4 l0 0 Z" /><glyph glyph-name="" unicode="|" d="M94 -120 l60 0 l0 720 l-60 0 l0 -720 Z" /><glyph glyph-name="" unicode="¦" d="M94 312 l60 0 l0 288 l-60 0 l0 -288 ZM94 -120 l60 0 l0 288 l-60 0 l0 -288 Z" /><glyph glyph-name="" unicode="@" d="M424 119 l0 174 q-2 63 -47 104 q-45 41 -115 42 q-91 -2 -150 -64 q-59 -61 -61 -154 q2 -95 66 -157 q64 -62 162 -64 l145 0 l0 56 l-145 0 q-74 2 -122 48 q-48 46 -50 117 q2 68 45 114 q44 45 110 47 q45 -1 75 -26 q29 -25 30 -63 l0 -14 q-14 14 -34 23 q-20 9 -41 9 q-42 -1 -70 -29 q-28 -28 -29 -71 q1 -44 29 -72 q29 -28 71 -29 q19 0 39 8 q20 9 35 23 l0 -22 l57 0 ZM315 158 q-25 1 -40 15 q-16 15 -17 38 q1 23 17 37 q15 15 40 15 q18 0 31 -8 q14 -8 21 -22 l0 -44 q-7 -14 -21 -23 q-13 -8 -31 -8 l0 0 Z" /><glyph glyph-name="" unicode="&amp;" d="M530 342 l-60 0 l0 93 l-94 0 l0 -93 l-102 0 q-42 1 -70 26 q-28 25 -29 65 q1 38 25 57 q25 20 58 21 l118 0 l0 89 l-135 0 q-70 1 -115 -44 q-44 -46 -46 -117 q0 -41 17 -76 q17 -35 47 -60 q-31 -24 -49 -59 q-18 -35 -18 -75 q2 -76 58 -122 q56 -46 141 -47 q88 2 140 51 q53 50 54 129 l0 77 l60 0 l0 85 ZM274 83 q-45 1 -76 24 q-31 24 -32 64 q1 37 27 61 q27 24 66 25 l117 0 l0 -77 q0 -43 -27 -69 q-27 -27 -75 -28 l0 0 Z" /><glyph glyph-name="" unicode="¶" d="M244 -120 l50 0 l0 720 l-69 0 q-67 0 -104 -34 q-37 -34 -38 -100 q1 -65 38 -100 q37 -34 104 -34 l19 0 l0 -452 ZM369 -120 l49 0 l0 720 l-49 0 l0 -720 Z" /><glyph glyph-name="" unicode="©" d="M351 -8 q131 3 218 90 q87 87 90 218 q-3 131 -90 218 q-87 87 -218 90 q-131 -3 -218 -90 q-87 -87 -90 -218 q3 -131 90 -218 q87 -87 218 -90 l0 0 ZM351 44 q-110 3 -182 74 q-71 72 -74 182 q3 110 74 182 q72 71 182 74 q110 -3 182 -74 q71 -72 74 -182 q-3 -110 -74 -182 q-72 -71 -182 -74 l0 0 ZM355 141 q60 1 101 33 q41 33 54 86 l-74 0 q-11 -24 -32 -38 q-22 -14 -49 -14 q-39 1 -64 26 q-25 25 -26 65 q1 40 26 65 q25 25 64 26 q27 0 49 -14 q21 -14 32 -38 l74 0 q-13 53 -54 86 q-41 32 -101 33 q-71 -2 -116 -46 q-45 -44 -46 -112 q1 -68 46 -112 q45 -44 116 -46 l0 0 Z" /><glyph glyph-name="" unicode="®" d="M351 608 q-131 -3 -218 -90 q-87 -87 -90 -218 q3 -131 90 -218 q87 -87 218 -90 q131 3 218 90 q87 87 90 218 q-3 131 -90 218 q-87 87 -218 90 l0 0 ZM351 44 q-110 3 -182 74 q-71 72 -74 182 q3 110 74 182 q72 71 182 74 q110 -3 182 -74 q71 -72 74 -182 q-3 -110 -74 -182 q-72 -71 -182 -74 l0 0 ZM464 364 q-1 39 -27 65 q-26 25 -66 26 l-103 0 l0 -310 l47 0 l0 128 l40 0 l71 -128 l54 0 l-73 135 q26 10 41 32 q16 22 16 52 l0 0 ZM315 407 l56 0 q19 0 31 -12 q13 -13 13 -31 q0 -19 -13 -31 q-12 -13 -31 -13 l-56 0 l0 87 Z" /><glyph glyph-name="" unicode="§" d="M432 204 q15 16 23 34 q8 18 8 39 q-19 108 -155 128 q-137 20 -156 81 q2 29 34 45 q33 16 77 16 q36 0 66 -10 q30 -11 50 -28 l48 39 q-28 27 -72 44 q-45 16 -96 16 q-69 0 -122 -32 q-52 -31 -55 -93 q0 -22 9 -40 q8 -17 23 -30 q-16 -16 -24 -34 q-8 -18 -8 -39 q19 -106 156 -126 q136 -20 155 -81 q-2 -32 -38 -49 q-37 -17 -90 -17 q-57 1 -96 19 q-39 18 -54 46 l-60 -36 q25 -41 80 -67 q55 -26 127 -27 q83 1 141 36 q57 35 60 94 q0 23 -8 41 q-9 18 -23 31 l0 0 ZM152 343 q0 11 5 20 q5 9 15 16 q74 -24 145 -41 q71 -17 76 -60 q0 -22 -20 -39 q-74 25 -145 42 q-71 18 -76 62 l0 0 Z" /><glyph glyph-name="" unicode="&#x2122;" d="M35 556 l72 0 l0 -236 l51 0 l0 236 l74 0 l0 44 l-197 0 l0 -44 ZM532 600 l-96 -141 l-95 141 l-54 0 l0 -280 l50 0 l0 200 l99 -146 l99 147 l0 -201 l50 0 l0 280 l-53 0 Z" /><glyph glyph-name="" unicode="°" d="M198 394 q45 1 76 31 q30 30 31 76 q-1 45 -31 76 q-31 30 -76 31 q-46 -1 -76 -31 q-30 -31 -31 -76 q1 -46 31 -76 q30 -30 76 -31 l0 0 ZM198 441 q-26 1 -43 17 q-16 17 -17 43 q1 26 17 43 q17 16 43 17 q26 -1 43 -17 q16 -17 17 -43 q-1 -26 -17 -43 q-17 -16 -43 -17 l0 0 Z" /><glyph glyph-name="" unicode="&#x212e;" d="M375 -7 q84 1 154 33 q70 31 117 86 l-49 0 q-41 -47 -97 -74 q-57 -27 -124 -28 q-61 1 -115 25 q-54 24 -94 66 q-3 4 -5 9 q-3 5 -3 10 l0 168 q0 3 5 3 l554 0 l0 8 q-4 132 -100 219 q-97 87 -243 90 q-145 -3 -241 -90 q-96 -87 -100 -219 q4 -130 100 -216 q96 -87 241 -90 l0 0 ZM164 308 q-2 0 -4 2 q-1 2 -1 4 l0 164 q0 6 3 12 q2 5 5 9 q42 42 95 66 q53 24 114 25 q62 -1 115 -24 q53 -24 93 -64 q4 -4 6 -9 q2 -6 2 -11 l0 -168 q0 -2 -1 -4 q0 -2 -2 -2 l-425 0 Z" /><glyph glyph-name="" unicode="&#x2113;" d="M271 -5 q57 0 106 28 q50 29 86 93 l-41 38 q-19 -33 -53 -59 q-33 -26 -77 -27 q-39 0 -67 27 q-28 26 -30 80 l0 25 q91 78 144 154 q52 76 53 155 q0 60 -31 103 q-31 42 -97 44 q-64 1 -110 -48 q-46 -50 -48 -168 l0 -221 q-18 -14 -37 -28 q-19 -14 -39 -30 l25 -50 q14 10 27 20 q13 10 25 18 q1 -3 1 -8 q7 -60 46 -102 q39 -42 117 -44 l0 0 ZM194 282 l0 169 q2 80 24 112 q23 31 48 30 q33 -1 47 -24 q14 -24 14 -61 q-1 -55 -38 -112 q-37 -57 -95 -114 l0 0 Z" /><glyph glyph-name="" unicode="^" d="M556 158 l-222 442 l-85 0 l-222 -442 l79 0 l186 368 l185 -368 l79 0 Z" /><glyph glyph-name="" unicode="&#x2020;" d="M437 388 l-136 0 l0 148 l-62 0 l0 -148 l-132 0 l0 -61 l132 0 l0 -463 l62 0 l0 463 l136 0 l0 61 Z" /><glyph glyph-name="" unicode="&#x2021;" d="M437 327 l0 61 l-136 0 l0 148 l-62 0 l0 -148 l-132 0 l0 -61 l132 0 l0 -249 l-132 0 l0 -61 l132 0 l0 -153 l62 0 l0 153 l136 0 l0 61 l-136 0 l0 249 l136 0 Z" /><glyph glyph-name="" unicode="&#x308;" d="M-261 472 q22 1 37 16 q15 14 16 36 q-1 22 -16 37 q-15 14 -37 15 q-22 -1 -36 -15 q-15 -15 -16 -37 q1 -22 16 -36 q14 -15 36 -16 l0 0 ZM-104 472 q22 1 37 16 q14 14 15 36 q-1 22 -15 37 q-15 14 -37 15 q-22 -1 -36 -15 q-15 -15 -16 -37 q1 -22 16 -36 q14 -15 36 -16 l0 0 Z" /><glyph glyph-name="" unicode="&#x307;" d="M-132 455 q24 1 40 17 q16 16 17 39 q-1 25 -17 41 q-16 15 -40 16 q-23 -1 -39 -16 q-16 -16 -17 -41 q1 -23 17 -39 q16 -16 39 -17 l0 0 Z" /><glyph glyph-name="" unicode="&#x300;" d="M-19 451 l-88 149 l-97 0 l123 -149 l62 0 Z" /><glyph glyph-name="" unicode="&#x301;" d="M-203 451 l62 0 l123 149 l-97 0 l-88 -149 Z" /><glyph glyph-name="" unicode="&#x30b;" d="M-228 451 l61 0 l122 149 l-96 0 l-87 -149 ZM-83 451 l61 0 l122 149 l-96 0 l-87 -149 Z" /><glyph glyph-name="" unicode="&#x302;" d="M-227 451 l59 93 l60 -93 l64 0 l-88 149 l-72 0 l-88 -149 l65 0 Z" /><glyph glyph-name="" unicode="&#x30c;" d="M-208 451 l72 0 l88 149 l-64 0 l-60 -92 l-59 92 l-65 0 l88 -149 Z" /><glyph glyph-name="" unicode="&#x306;" d="M-280 449 q63 0 100 34 q38 33 39 97 l-55 0 q-1 -31 -23 -53 q-23 -22 -61 -23 q-37 1 -60 23 q-22 22 -23 53 l-55 0 q1 -64 39 -97 q37 -34 99 -34 l0 0 Z" /><glyph glyph-name="" unicode="&#x30a;" d="M-82 435 q38 1 63 27 q25 25 26 63 q-1 38 -26 64 q-25 25 -63 26 q-38 -1 -64 -26 q-26 -26 -27 -64 q1 -38 27 -63 q26 -26 64 -27 l0 0 ZM-82 478 q-20 0 -33 13 q-13 13 -13 34 q0 20 13 34 q13 13 33 14 q20 -1 33 -14 q14 -14 14 -34 q0 -21 -14 -34 q-13 -13 -33 -13 l0 0 Z" /><glyph glyph-name="" unicode="&#x303;" d="M-111 482 q45 1 68 34 q23 33 23 84 l-61 0 q0 -28 -7 -43 q-8 -16 -24 -16 q-10 0 -16 6 q-6 5 -10 12 q-13 19 -31 32 q-19 12 -46 13 q-43 -1 -67 -33 q-24 -33 -24 -85 l61 0 q0 25 8 42 q8 16 24 17 q7 0 13 -4 q6 -4 12 -14 q13 -20 32 -32 q19 -13 45 -13 l0 0 Z" /><glyph glyph-name="" unicode="&#x304;" d="M-264 473 l228 0 l0 62 l-228 0 l0 -62 Z" /><glyph glyph-name="" unicode="&#x312;" d="M-60 650 l-100 -146 l95 0 l58 146 l-53 0 Z" /><glyph glyph-name="" unicode="&#x323;" d="M-84 -200 q24 1 40 17 q16 16 17 40 q-1 23 -17 39 q-16 16 -40 17 q-23 -1 -39 -17 q-16 -16 -17 -39 q1 -24 17 -40 q16 -16 39 -17 l0 0 Z" /><glyph glyph-name="" unicode="&#x326;" d="M-139 -91 l100 146 l-95 0 l-58 -146 l53 0 Z" /><glyph glyph-name="" unicode="&#x327;" d="M-112 -208 q37 1 61 25 q23 24 24 61 q-1 38 -28 59 q-26 20 -67 13 l26 50 l-48 0 l-39 -72 l38 -23 q30 12 50 5 q19 -8 20 -32 q0 -16 -11 -27 q-10 -11 -26 -11 q-13 0 -27 7 q-14 7 -21 18 l-45 -16 q11 -25 37 -40 q26 -16 56 -17 l0 0 Z" /><glyph glyph-name="" unicode="&#x328;" d="M-113 -207 q33 -1 63 10 q29 11 53 35 l-30 43 q-12 -19 -31 -29 q-19 -11 -40 -11 q-23 0 -36 14 q-13 14 -13 38 q1 37 30 61 q29 24 73 46 l-45 14 q-51 -23 -84 -54 q-34 -31 -35 -76 q0 -39 25 -63 q25 -25 70 -28 l0 0 Z" /><glyph glyph-name="" unicode="&#x335;" d="M-394 172 l255 0 l0 66 l-255 0 l0 -66 Z" /><glyph glyph-name="" unicode="&#x336;" d="M-611 184 l584 0 l0 48 l-584 0 l0 -48 Z" /><glyph glyph-name="" unicode="&#x337;" d="M-395 96 l41 -37 l239 252 l-42 36 l-238 -251 Z" /><glyph glyph-name="" unicode="&#x338;" d="M-513 -5 l64 -38 l451 648 l-63 38 l-452 -648 Z" /><glyph glyph-name="" unicode="´" d="M19 451 l62 0 l123 149 l-97 0 l-88 -149 Z" /><glyph glyph-name="" unicode="&#x2d8;" d="M240 449 q63 0 100 34 q38 33 39 97 l-55 0 q-1 -31 -23 -53 q-23 -22 -61 -23 q-37 1 -60 23 q-22 22 -23 53 l-55 0 q1 -64 39 -97 q37 -34 99 -34 l0 0 Z" /><glyph glyph-name="" unicode="&#x2c7;" d="M132 451 l72 0 l88 149 l-64 0 l-60 -92 l-59 92 l-65 0 l88 -149 Z" /><glyph glyph-name="" unicode="¸" d="M120 -208 q37 1 61 25 q23 24 24 61 q-1 38 -28 59 q-26 20 -67 13 l26 50 l-48 0 l-39 -72 l38 -23 q30 12 50 5 q19 -8 20 -32 q0 -16 -11 -27 q-10 -11 -26 -11 q-13 0 -27 7 q-14 7 -21 18 l-45 -16 q11 -25 37 -40 q26 -16 56 -17 l0 0 Z" /><glyph glyph-name="" unicode="&#x2c6;" d="M109 451 l59 93 l60 -93 l64 0 l-88 149 l-72 0 l-88 -149 l65 0 Z" /><glyph glyph-name="" unicode="¨" d="M104 472 q22 1 37 16 q15 14 16 36 q-1 22 -16 37 q-15 14 -37 15 q-22 -1 -36 -15 q-15 -15 -16 -37 q1 -22 16 -36 q14 -15 36 -16 l0 0 ZM261 472 q22 1 37 16 q14 14 15 36 q-1 22 -15 37 q-15 14 -37 15 q-22 -1 -36 -15 q-15 -15 -16 -37 q1 -22 16 -36 q14 -15 36 -16 l0 0 Z" /><glyph glyph-name="" unicode="&#x2d9;" d="M131 455 q24 1 40 17 q16 16 17 39 q-1 25 -17 41 q-16 15 -40 16 q-23 -1 -39 -16 q-16 -16 -17 -41 q1 -23 17 -39 q16 -16 39 -17 l0 0 Z" /><glyph glyph-name="" unicode="`" d="M203 451 l-88 149 l-97 0 l123 -149 l62 0 Z" /><glyph glyph-name="" unicode="&#x2dd;" d="M19 451 l62 0 l123 149 l-97 0 l-88 -149 Z" /><glyph glyph-name="" unicode="¯" d="M37 473 l228 0 l0 62 l-228 0 l0 -62 Z" /><glyph glyph-name="" unicode="&#x2db;" d="M145 -207 q33 -1 63 10 q29 11 53 35 l-30 43 q-12 -19 -31 -29 q-19 -11 -40 -11 q-23 0 -36 14 q-13 14 -13 38 q1 37 30 61 q29 24 73 46 l-45 14 q-51 -23 -84 -54 q-34 -31 -35 -76 q0 -39 25 -63 q25 -25 70 -28 l0 0 Z" /><glyph glyph-name="" unicode="&#x2da;" d="M84 435 q38 1 63 27 q25 25 26 63 q-1 38 -26 64 q-25 25 -63 26 q-38 -1 -64 -26 q-26 -26 -27 -64 q1 -38 27 -63 q26 -26 64 -27 l0 0 ZM84 478 q-20 0 -33 13 q-13 13 -13 34 q0 20 13 34 q13 13 33 14 q20 -1 33 -14 q14 -14 14 -34 q0 -21 -14 -34 q-13 -13 -33 -13 l0 0 Z" /><glyph glyph-name="" unicode="&#x2dc;" d="M213 482 q45 1 68 34 q23 33 23 84 l-61 0 q0 -28 -7 -43 q-8 -16 -24 -16 q-10 0 -16 6 q-6 5 -10 12 q-13 19 -31 32 q-19 12 -46 13 q-43 -1 -67 -33 q-24 -33 -24 -85 l61 0 q0 25 8 42 q8 16 24 17 q7 0 13 -4 q6 -4 12 -14 q13 -20 32 -32 q19 -13 45 -13 l0 0 Z" /></font>
</defs>
</svg>
