<?xml version="1.0" standalone="no"?><!DOCTYPE svg PUBLIC "-//W3C//DTD SVG 1.1//EN" "http://www.w3.org/Graphics/SVG/1.1/DTD/svg11.dtd" ><svg xmlns="http://www.w3.org/2000/svg"><metadata></metadata><defs><font id="1.002;AMMP;Now-Light" horiz-adv-x="880"><font-face font-family="Now Light" font-weight="300" font-stretch="normal" units-per-em="800" panose-1="0 0 4 0 0 0 0 0 0 0" ascent="736" descent="-240" x-height="0" bbox="-600 -242 835 936" underline-thickness="50" underline-position="-75" unicode-range="U+0020-fb02" /><missing-glyph horiz-adv-x="482" d="M84 0 l314 0 l0 600 l-314 0 l0 -600 ZM121 38 l0 524 l240 0 l0 -524 l-240 0 Z" /><glyph glyph-name="" unicode="A" d="M440 0 l52 0 l-217 600 l-53 0 l-217 -600 l53 0 l51 145 l280 0 l51 -145 ZM125 191 l124 352 l124 -352 l-248 0 Z" /><glyph glyph-name="" unicode="Á" d="M371 800 l-58 0 l-85 -147 l35 0 l108 147 ZM440 0 l52 0 l-217 600 l-53 0 l-217 -600 l53 0 l51 145 l280 0 l51 -145 ZM125 191 l124 352 l124 -352 l-248 0 Z" /><glyph glyph-name="" unicode="&#x102;" d="M249 656 q56 1 91 32 q36 32 37 85 l-31 0 q-1 -36 -27 -61 q-27 -24 -70 -25 q-42 1 -69 25 q-27 25 -28 61 l-31 0 q1 -53 37 -85 q35 -31 91 -32 l0 0 ZM440 0 l52 0 l-217 600 l-53 0 l-217 -600 l53 0 l51 145 l280 0 l51 -145 ZM125 191 l124 352 l124 -352 l-248 0 Z" /><glyph glyph-name="" unicode="&#x1cd;" d="M274 653 l78 147 l-40 0 l-62 -113 l-63 113 l-40 0 l78 -147 l49 0 ZM440 0 l52 0 l-217 600 l-53 0 l-217 -600 l53 0 l51 145 l280 0 l51 -145 ZM125 191 l124 352 l124 -352 l-248 0 Z" /><glyph glyph-name="" unicode="Â" d="M249 766 l62 -113 l40 0 l-78 147 l-49 0 l-78 -147 l40 0 l63 113 ZM440 0 l52 0 l-217 600 l-53 0 l-217 -600 l53 0 l51 145 l280 0 l51 -145 ZM125 191 l124 352 l124 -352 l-248 0 Z" /><glyph glyph-name="" unicode="Ä" d="M180 677 q15 0 26 11 q11 10 11 25 q0 16 -11 26 q-11 11 -26 11 q-15 0 -26 -11 q-11 -10 -11 -26 q0 -15 11 -25 q11 -11 26 -11 l0 0 ZM317 677 q15 0 26 11 q11 10 11 25 q0 16 -11 26 q-11 11 -26 11 q-15 0 -26 -11 q-11 -10 -11 -26 q0 -15 11 -25 q11 -11 26 -11 l0 0 ZM440 0 l52 0 l-217 600 l-53 0 l-217 -600 l53 0 l51 145 l280 0 l51 -145 ZM125 191 l124 352 l124 -352 l-248 0 Z" /><glyph glyph-name="" unicode="À" d="M270 653 l-85 147 l-58 0 l108 -147 l35 0 ZM440 0 l52 0 l-217 600 l-53 0 l-217 -600 l53 0 l51 145 l280 0 l51 -145 ZM125 191 l124 352 l124 -352 l-248 0 Z" /><glyph glyph-name="" unicode="&#x100;" d="M354 721 l-210 0 l0 -34 l210 0 l0 34 ZM440 0 l52 0 l-217 600 l-53 0 l-217 -600 l53 0 l51 145 l280 0 l51 -145 ZM125 191 l124 352 l124 -352 l-248 0 Z" /><glyph glyph-name="" unicode="&#x104;" d="M531 -145 q-15 -17 -33 -25 q-19 -9 -42 -9 q-28 0 -42 16 q-14 15 -14 41 q1 40 29 70 q27 29 63 52 l-217 600 l-53 0 l-217 -600 l53 0 l51 145 l280 0 l51 -145 l13 0 q-38 -26 -62 -56 q-24 -30 -25 -70 q0 -38 23 -59 q22 -21 61 -23 q29 0 53 9 q24 10 44 30 l-16 24 ZM125 191 l124 352 l124 -352 l-248 0 Z" /><glyph glyph-name="" unicode="Å" d="M440 0 l52 0 l-210 581 q21 9 33 28 q12 19 12 42 q-1 33 -23 55 q-22 22 -55 23 q-33 -1 -55 -23 q-22 -22 -23 -55 q0 -23 12 -41 q12 -19 32 -29 l-210 -581 l53 0 l51 145 l280 0 l51 -145 ZM200 651 q0 22 14 36 q14 14 35 15 q22 -1 36 -15 q14 -14 14 -36 q0 -21 -14 -35 q-14 -14 -36 -15 q-21 1 -35 15 q-14 14 -14 35 l0 0 ZM125 191 l124 352 l124 -352 l-248 0 Z" /><glyph glyph-name="" unicode="Ã" d="M193 742 q12 0 22 -6 q9 -6 18 -20 q11 -18 28 -30 q18 -12 43 -12 q38 1 59 29 q21 27 21 70 l-36 0 q0 -30 -12 -46 q-12 -17 -32 -17 q-15 0 -24 7 q-10 7 -17 19 q-13 18 -30 30 q-17 12 -41 12 q-37 -1 -58 -28 q-21 -27 -21 -71 l36 0 q0 28 12 45 q11 17 32 18 l0 0 ZM440 0 l52 0 l-217 600 l-53 0 l-217 -600 l53 0 l51 145 l280 0 l51 -145 ZM125 191 l124 352 l124 -352 l-248 0 Z" /><glyph glyph-name="" unicode="Æ" d="M634 552 l0 48 l-388 0 l-241 -600 l55 0 l58 147 l196 0 l0 -147 l320 0 l0 48 l-273 0 l0 228 l239 0 l0 48 l-239 0 l0 228 l273 0 ZM136 193 l145 365 l33 0 l0 -365 l-178 0 Z" /><glyph glyph-name="" unicode="B" d="M359 304 q40 18 65 54 q24 36 25 84 q-2 70 -47 113 q-46 44 -114 45 l-210 0 l0 -600 l230 0 q68 1 113 45 q45 43 47 112 q-1 55 -31 93 q-30 38 -78 54 l0 0 ZM401 439 q-1 -50 -34 -82 q-33 -33 -84 -34 l-157 0 l0 229 l157 0 q50 -1 83 -32 q34 -31 35 -81 l0 0 ZM302 48 l-176 0 l0 229 l176 0 q51 -1 84 -33 q33 -33 34 -82 q-1 -50 -34 -81 q-33 -32 -84 -33 l0 0 Z" /><glyph glyph-name="" unicode="C" d="M363 -8 q87 1 157 43 q69 41 110 112 l-41 23 q-35 -59 -93 -94 q-59 -35 -133 -36 q-111 3 -184 76 q-73 73 -76 184 q3 111 76 184 q73 73 184 76 q74 -1 133 -36 q58 -35 93 -94 l41 23 q-41 71 -110 112 q-70 42 -157 43 q-131 -3 -218 -90 q-87 -87 -90 -218 q3 -131 90 -218 q87 -87 218 -90 l0 0 Z" /><glyph glyph-name="" unicode="&#x106;" d="M342 653 l35 0 l108 147 l-58 0 l-85 -147 ZM363 -8 q87 1 157 43 q69 41 110 112 l-41 23 q-35 -59 -93 -94 q-59 -35 -133 -36 q-111 3 -184 76 q-73 73 -76 184 q3 111 76 184 q73 73 184 76 q74 -1 133 -36 q58 -35 93 -94 l41 23 q-41 71 -110 112 q-70 42 -157 43 q-131 -3 -218 -90 q-87 -87 -90 -218 q3 -131 90 -218 q87 -87 218 -90 l0 0 Z" /><glyph glyph-name="" unicode="&#x10c;" d="M339 653 l49 0 l78 147 l-40 0 l-62 -113 l-63 113 l-40 0 l78 -147 ZM363 -8 q87 1 157 43 q69 41 110 112 l-41 23 q-35 -59 -93 -94 q-59 -35 -133 -36 q-111 3 -184 76 q-73 73 -76 184 q3 111 76 184 q73 73 184 76 q74 -1 133 -36 q58 -35 93 -94 l41 23 q-41 71 -110 112 q-70 42 -157 43 q-131 -3 -218 -90 q-87 -87 -90 -218 q3 -131 90 -218 q87 -87 218 -90 l0 0 Z" /><glyph glyph-name="" unicode="Ç" d="M363 40 q-111 3 -184 76 q-73 73 -76 184 q3 111 76 184 q73 73 184 76 q74 -1 133 -36 q58 -35 93 -94 l41 23 q-41 71 -110 112 q-70 42 -157 43 q-131 -3 -218 -90 q-87 -87 -90 -218 q3 -126 84 -212 q81 -85 205 -95 l-30 -62 l25 -17 q37 12 61 0 q23 -12 24 -42 q-1 -21 -14 -35 q-14 -14 -35 -15 q-18 0 -36 9 q-19 9 -29 22 l-27 -13 q13 -21 39 -34 q26 -14 53 -14 q34 1 56 24 q22 22 23 56 q-1 40 -30 60 q-28 20 -72 12 l22 48 q84 4 151 45 q66 42 105 110 l-41 23 q-35 -59 -93 -94 q-59 -35 -133 -36 l0 0 Z" /><glyph glyph-name="" unicode="&#x10a;" d="M363 667 q15 0 25 11 q11 10 11 25 q0 16 -11 26 q-10 11 -25 11 q-15 0 -26 -11 q-11 -10 -11 -26 q0 -15 11 -25 q11 -11 26 -11 l0 0 ZM363 -8 q87 1 157 43 q69 41 110 112 l-41 23 q-35 -59 -93 -94 q-59 -35 -133 -36 q-111 3 -184 76 q-73 73 -76 184 q3 111 76 184 q73 73 184 76 q74 -1 133 -36 q58 -35 93 -94 l41 23 q-41 71 -110 112 q-70 42 -157 43 q-131 -3 -218 -90 q-87 -87 -90 -218 q3 -131 90 -218 q87 -87 218 -90 l0 0 Z" /><glyph glyph-name="" unicode="D" d="M78 0 l156 0 q128 3 212 88 q85 84 88 212 q-3 128 -88 212 q-84 85 -212 88 l-156 0 l0 -600 ZM126 48 l0 504 l107 0 q108 -2 179 -72 q71 -70 74 -180 q-3 -110 -74 -180 q-71 -70 -179 -72 l-107 0 Z" /><glyph glyph-name="" unicode="Ð" d="M234 600 l-156 0 l0 -278 l-62 0 l0 -45 l62 0 l0 -277 l156 0 q128 3 212 88 q85 84 88 212 q-3 128 -88 212 q-84 85 -212 88 l0 0 ZM233 48 l-107 0 l0 229 l111 0 l0 45 l-111 0 l0 230 l107 0 q108 -2 179 -72 q71 -70 74 -180 q-3 -110 -74 -180 q-71 -70 -179 -72 l0 0 Z" /><glyph glyph-name="" unicode="&#x10e;" d="M209 653 l49 0 l78 147 l-40 0 l-62 -113 l-63 113 l-40 0 l78 -147 ZM78 0 l156 0 q128 3 212 88 q85 84 88 212 q-3 128 -88 212 q-84 85 -212 88 l-156 0 l0 -600 ZM126 48 l0 504 l107 0 q108 -2 179 -72 q71 -70 74 -180 q-3 -110 -74 -180 q-71 -70 -179 -72 l-107 0 Z" /><glyph glyph-name="" unicode="&#x110;" d="M234 600 l-156 0 l0 -278 l-62 0 l0 -45 l62 0 l0 -277 l156 0 q128 3 212 88 q85 84 88 212 q-3 128 -88 212 q-84 85 -212 88 l0 0 ZM233 48 l-107 0 l0 229 l111 0 l0 45 l-111 0 l0 230 l107 0 q108 -2 179 -72 q71 -70 74 -180 q-3 -110 -74 -180 q-71 -70 -179 -72 l0 0 Z" /><glyph glyph-name="" unicode="E" d="M403 553 l0 47 l-320 0 l0 -600 l320 0 l0 47 l-272 0 l0 230 l238 0 l0 46 l-238 0 l0 230 l272 0 Z" /><glyph glyph-name="" unicode="É" d="M365 800 l-58 0 l-85 -147 l35 0 l108 147 ZM403 553 l0 47 l-320 0 l0 -600 l320 0 l0 47 l-272 0 l0 230 l238 0 l0 46 l-238 0 l0 230 l272 0 Z" /><glyph glyph-name="" unicode="&#x11a;" d="M268 653 l78 147 l-40 0 l-62 -113 l-63 113 l-40 0 l78 -147 l49 0 ZM403 553 l0 47 l-320 0 l0 -600 l320 0 l0 47 l-272 0 l0 230 l238 0 l0 46 l-238 0 l0 230 l272 0 Z" /><glyph glyph-name="" unicode="Ê" d="M243 766 l62 -113 l40 0 l-78 147 l-49 0 l-78 -147 l40 0 l63 113 ZM403 553 l0 47 l-320 0 l0 -600 l320 0 l0 47 l-272 0 l0 230 l238 0 l0 46 l-238 0 l0 230 l272 0 Z" /><glyph glyph-name="" unicode="Ë" d="M174 677 q15 0 26 11 q11 10 11 25 q0 16 -11 26 q-11 11 -26 11 q-15 0 -26 -11 q-11 -10 -11 -26 q0 -15 11 -25 q11 -11 26 -11 l0 0 ZM311 677 q15 0 26 11 q11 10 11 25 q0 16 -11 26 q-11 11 -26 11 q-15 0 -26 -11 q-11 -10 -11 -26 q0 -15 11 -25 q11 -11 26 -11 l0 0 ZM403 553 l0 47 l-320 0 l0 -600 l320 0 l0 47 l-272 0 l0 230 l238 0 l0 46 l-238 0 l0 230 l272 0 Z" /><glyph glyph-name="" unicode="&#x116;" d="M243 667 q15 0 25 11 q11 10 11 25 q0 16 -11 26 q-10 11 -25 11 q-15 0 -26 -11 q-11 -10 -11 -26 q0 -15 11 -25 q11 -11 26 -11 l0 0 ZM403 553 l0 47 l-320 0 l0 -600 l320 0 l0 47 l-272 0 l0 230 l238 0 l0 46 l-238 0 l0 230 l272 0 Z" /><glyph glyph-name="" unicode="È" d="M264 653 l-85 147 l-58 0 l108 -147 l35 0 ZM403 553 l0 47 l-320 0 l0 -600 l320 0 l0 47 l-272 0 l0 230 l238 0 l0 46 l-238 0 l0 230 l272 0 Z" /><glyph glyph-name="" unicode="&#x112;" d="M348 721 l-210 0 l0 -34 l210 0 l0 34 ZM403 553 l0 47 l-320 0 l0 -600 l320 0 l0 47 l-272 0 l0 230 l238 0 l0 46 l-238 0 l0 230 l272 0 Z" /><glyph glyph-name="" unicode="&#x118;" d="M442 -145 q-15 -17 -33 -25 q-19 -9 -42 -9 q-28 0 -42 16 q-14 15 -14 41 q1 40 29 70 q27 29 63 52 l0 47 l-272 0 l0 230 l238 0 l0 46 l-238 0 l0 230 l272 0 l0 47 l-320 0 l0 -600 l281 0 q-38 -26 -62 -56 q-24 -30 -25 -70 q0 -38 23 -59 q22 -21 61 -23 q29 0 53 9 q24 10 44 30 l-16 24 Z" /><glyph glyph-name="" unicode="F" d="M403 553 l0 47 l-320 0 l0 -600 l48 0 l0 277 l238 0 l0 46 l-238 0 l0 230 l272 0 Z" /><glyph glyph-name="" unicode="G" d="M364 314 l0 -46 l259 0 q-14 -99 -85 -162 q-71 -64 -173 -66 q-111 3 -184 76 q-73 73 -76 184 q3 111 76 184 q73 73 184 76 q74 -1 132 -36 q59 -35 93 -94 l42 23 q-41 71 -111 112 q-69 42 -156 43 q-131 -3 -218 -90 q-87 -87 -90 -218 q3 -131 90 -218 q87 -87 218 -90 q131 3 218 90 q87 87 90 218 l0 14 l-309 0 Z" /><glyph glyph-name="" unicode="&#x11e;" d="M365 656 q56 1 91 32 q36 32 37 85 l-31 0 q-1 -36 -27 -61 q-27 -24 -70 -25 q-42 1 -69 25 q-27 25 -28 61 l-31 0 q1 -53 37 -85 q35 -31 91 -32 l0 0 ZM364 314 l0 -46 l259 0 q-14 -99 -85 -162 q-71 -64 -173 -66 q-111 3 -184 76 q-73 73 -76 184 q3 111 76 184 q73 73 184 76 q74 -1 132 -36 q59 -35 93 -94 l42 23 q-41 71 -111 112 q-69 42 -156 43 q-131 -3 -218 -90 q-87 -87 -90 -218 q3 -131 90 -218 q87 -87 218 -90 q131 3 218 90 q87 87 90 218 l0 14 l-309 0 Z" /><glyph glyph-name="" unicode="&#x122;" d="M364 314 l0 -46 l259 0 q-14 -99 -85 -162 q-71 -64 -173 -66 q-111 3 -184 76 q-73 73 -76 184 q3 111 76 184 q73 73 184 76 q74 -1 132 -36 q59 -35 93 -94 l42 23 q-41 71 -111 112 q-69 42 -156 43 q-131 -3 -218 -90 q-87 -87 -90 -218 q3 -131 90 -218 q87 -87 218 -90 q131 3 218 90 q87 87 90 218 l0 14 l-309 0 ZM274 -193 l35 0 l85 145 l-58 0 l-62 -145 Z" /><glyph glyph-name="" unicode="&#x120;" d="M365 667 q15 0 25 11 q11 10 11 25 q0 16 -11 26 q-10 11 -25 11 q-15 0 -26 -11 q-11 -10 -11 -26 q0 -15 11 -25 q11 -11 26 -11 l0 0 ZM364 314 l0 -46 l259 0 q-14 -99 -85 -162 q-71 -64 -173 -66 q-111 3 -184 76 q-73 73 -76 184 q3 111 76 184 q73 73 184 76 q74 -1 132 -36 q59 -35 93 -94 l42 23 q-41 71 -111 112 q-69 42 -156 43 q-131 -3 -218 -90 q-87 -87 -90 -218 q3 -131 90 -218 q87 -87 218 -90 q131 3 218 90 q87 87 90 218 l0 14 l-309 0 Z" /><glyph glyph-name="" unicode="H" d="M477 600 l0 -276 l-351 0 l0 276 l-48 0 l0 -600 l48 0 l0 276 l351 0 l0 -276 l48 0 l0 600 l-48 0 Z" /><glyph glyph-name="" unicode="&#x126;" d="M582 483 l-57 0 l0 117 l-48 0 l0 -117 l-351 0 l0 117 l-48 0 l0 -117 l-59 0 l0 -34 l59 0 l0 -449 l48 0 l0 276 l351 0 l0 -276 l48 0 l0 449 l57 0 l0 34 ZM477 324 l-351 0 l0 125 l351 0 l0 -125 Z" /><glyph glyph-name="" unicode="I" d="M83 0 l48 0 l0 600 l-48 0 l0 -600 Z" /><glyph glyph-name="" unicode="Í" d="M86 653 l35 0 l108 147 l-58 0 l-85 -147 ZM83 0 l48 0 l0 600 l-48 0 l0 -600 Z" /><glyph glyph-name="" unicode="&#x1cf;" d="M83 653 l49 0 l78 147 l-40 0 l-62 -113 l-63 113 l-40 0 l78 -147 ZM83 0 l48 0 l0 600 l-48 0 l0 -600 Z" /><glyph glyph-name="" unicode="Î" d="M44 653 l63 113 l62 -113 l40 0 l-78 147 l-49 0 l-78 -147 l40 0 ZM83 0 l48 0 l0 600 l-48 0 l0 -600 Z" /><glyph glyph-name="" unicode="Ï" d="M38 677 q15 0 26 11 q11 10 11 25 q0 16 -11 26 q-11 11 -26 11 q-15 0 -26 -11 q-11 -10 -11 -26 q0 -15 11 -25 q11 -11 26 -11 l0 0 ZM175 677 q15 0 26 11 q11 10 11 25 q0 16 -11 26 q-11 11 -26 11 q-15 0 -26 -11 q-11 -10 -11 -26 q0 -15 11 -25 q11 -11 26 -11 l0 0 ZM83 0 l48 0 l0 600 l-48 0 l0 -600 Z" /><glyph glyph-name="" unicode="&#x130;" d="M107 667 q15 0 25 11 q11 10 11 25 q0 16 -11 26 q-10 11 -25 11 q-15 0 -26 -11 q-11 -10 -11 -26 q0 -15 11 -25 q11 -11 26 -11 l0 0 ZM83 0 l48 0 l0 600 l-48 0 l0 -600 Z" /><glyph glyph-name="" unicode="Ì" d="M128 653 l-85 147 l-58 0 l108 -147 l35 0 ZM83 0 l48 0 l0 600 l-48 0 l0 -600 Z" /><glyph glyph-name="" unicode="&#x12a;" d="M2 687 l210 0 l0 34 l-210 0 l0 -34 ZM83 0 l48 0 l0 600 l-48 0 l0 -600 Z" /><glyph glyph-name="" unicode="&#x12e;" d="M170 -145 q-15 -17 -33 -25 q-19 -9 -42 -9 q-28 0 -42 16 q-14 15 -14 41 q1 40 29 70 q27 29 63 52 l0 600 l-48 0 l0 -600 l9 0 q-38 -26 -62 -56 q-24 -30 -25 -70 q0 -38 23 -59 q22 -21 61 -23 q29 0 53 9 q24 10 44 30 l-16 24 Z" /><glyph glyph-name="" unicode="J" d="M333 600 l-270 0 l0 -48 l222 0 l0 -402 q-1 -49 -29 -79 q-27 -30 -71 -31 q-40 1 -66 27 q-27 25 -32 68 l-49 -11 q8 -61 47 -96 q39 -35 100 -36 q66 1 106 43 q41 42 42 111 l0 454 Z" /><glyph glyph-name="" unicode="K" d="M428 0 l67 0 l-287 324 l277 276 l-66 0 l-253 -253 l-40 0 l0 253 l-48 0 l0 -600 l48 0 l0 301 l41 0 l261 -301 Z" /><glyph glyph-name="" unicode="&#x136;" d="M208 324 l277 276 l-66 0 l-253 -253 l-40 0 l0 253 l-48 0 l0 -600 l48 0 l0 301 l41 0 l261 -301 l67 0 l-287 324 ZM158 -193 l35 0 l85 145 l-58 0 l-62 -145 Z" /><glyph glyph-name="" unicode="L" d="M126 48 l0 552 l-48 0 l0 -600 l277 0 l0 48 l-229 0 Z" /><glyph glyph-name="" unicode="&#x139;" d="M224 800 l-58 0 l-85 -147 l35 0 l108 147 ZM126 48 l0 552 l-48 0 l0 -600 l277 0 l0 48 l-229 0 Z" /><glyph glyph-name="" unicode="&#x13d;" d="M126 48 l0 552 l-48 0 l0 -600 l277 0 l0 48 l-229 0 ZM345 600 l-53 0 l-68 -241 l36 0 l85 241 Z" /><glyph glyph-name="" unicode="&#x13b;" d="M126 48 l0 552 l-48 0 l0 -600 l277 0 l0 48 l-229 0 ZM125 -193 l35 0 l85 145 l-58 0 l-62 -145 Z" /><glyph glyph-name="" unicode="&#x141;" d="M126 48 l0 252 l84 90 l-27 23 l-57 -61 l0 248 l-48 0 l0 -300 l-84 -90 l27 -23 l57 61 l0 -248 l277 0 l0 48 l-229 0 Z" /><glyph glyph-name="" unicode="M" d="M609 600 l-241 -543 l-240 543 l-50 0 l0 -600 l48 0 l0 502 l222 -502 l39 0 l224 504 l0 -504 l47 0 l0 600 l-49 0 Z" /><glyph glyph-name="" unicode="N" d="M508 600 l0 -515 l-388 515 l-42 0 l0 -600 l48 0 l0 515 l388 -515 l42 0 l0 600 l-48 0 Z" /><glyph glyph-name="" unicode="&#x143;" d="M436 800 l-58 0 l-85 -147 l35 0 l108 147 ZM508 600 l0 -515 l-388 515 l-42 0 l0 -600 l48 0 l0 515 l388 -515 l42 0 l0 600 l-48 0 Z" /><glyph glyph-name="" unicode="&#x147;" d="M339 653 l78 147 l-40 0 l-62 -113 l-63 113 l-40 0 l78 -147 l49 0 ZM508 600 l0 -515 l-388 515 l-42 0 l0 -600 l48 0 l0 515 l388 -515 l42 0 l0 600 l-48 0 Z" /><glyph glyph-name="" unicode="&#x145;" d="M508 600 l0 -515 l-388 515 l-42 0 l0 -600 l48 0 l0 515 l388 -515 l42 0 l0 600 l-48 0 ZM229 -193 l35 0 l85 145 l-58 0 l-62 -145 Z" /><glyph glyph-name="" unicode="&#x14a;" d="M508 600 l0 -515 l-388 515 l-42 0 l0 -600 l48 0 l0 515 l384 -510 l0 -93 q0 -35 -15 -49 q-15 -13 -39 -10 l0 -43 q50 -2 75 21 q25 24 25 78 l0 691 l-48 0 Z" /><glyph glyph-name="" unicode="Ñ" d="M258 742 q12 0 22 -6 q9 -6 18 -20 q11 -18 28 -30 q18 -12 43 -12 q38 1 59 29 q21 27 21 70 l-36 0 q0 -30 -12 -46 q-12 -17 -32 -17 q-15 0 -24 7 q-10 7 -17 19 q-13 18 -30 30 q-17 12 -41 12 q-37 -1 -58 -28 q-21 -27 -21 -71 l36 0 q0 28 12 45 q11 17 32 18 l0 0 ZM508 600 l0 -515 l-388 515 l-42 0 l0 -600 l48 0 l0 515 l388 -515 l42 0 l0 600 l-48 0 Z" /><glyph glyph-name="" unicode="O" d="M363 -8 q131 3 218 90 q87 87 90 218 q-3 131 -90 218 q-87 87 -218 90 q-131 -3 -218 -90 q-87 -87 -90 -218 q3 -131 90 -218 q87 -87 218 -90 l0 0 ZM363 40 q-111 3 -184 76 q-73 73 -76 184 q3 111 76 184 q73 73 184 76 q111 -3 184 -76 q73 -73 76 -184 q-3 -111 -76 -184 q-73 -73 -184 -76 l0 0 Z" /><glyph glyph-name="" unicode="Ó" d="M342 653 l35 0 l108 147 l-58 0 l-85 -147 ZM363 -8 q131 3 218 90 q87 87 90 218 q-3 131 -90 218 q-87 87 -218 90 q-131 -3 -218 -90 q-87 -87 -90 -218 q3 -131 90 -218 q87 -87 218 -90 l0 0 ZM363 40 q-111 3 -184 76 q-73 73 -76 184 q3 111 76 184 q73 73 184 76 q111 -3 184 -76 q73 -73 76 -184 q-3 -111 -76 -184 q-73 -73 -184 -76 l0 0 Z" /><glyph glyph-name="" unicode="&#x1d1;" d="M339 653 l49 0 l78 147 l-40 0 l-62 -113 l-63 113 l-40 0 l78 -147 ZM363 -8 q131 3 218 90 q87 87 90 218 q-3 131 -90 218 q-87 87 -218 90 q-131 -3 -218 -90 q-87 -87 -90 -218 q3 -131 90 -218 q87 -87 218 -90 l0 0 ZM363 40 q-111 3 -184 76 q-73 73 -76 184 q3 111 76 184 q73 73 184 76 q111 -3 184 -76 q73 -73 76 -184 q-3 -111 -76 -184 q-73 -73 -184 -76 l0 0 Z" /><glyph glyph-name="" unicode="Ô" d="M300 653 l63 113 l62 -113 l40 0 l-78 147 l-49 0 l-78 -147 l40 0 ZM363 -8 q131 3 218 90 q87 87 90 218 q-3 131 -90 218 q-87 87 -218 90 q-131 -3 -218 -90 q-87 -87 -90 -218 q3 -131 90 -218 q87 -87 218 -90 l0 0 ZM363 40 q-111 3 -184 76 q-73 73 -76 184 q3 111 76 184 q73 73 184 76 q111 -3 184 -76 q73 -73 76 -184 q-3 -111 -76 -184 q-73 -73 -184 -76 l0 0 Z" /><glyph glyph-name="" unicode="Ö" d="M294 677 q15 0 26 11 q11 10 11 25 q0 16 -11 26 q-11 11 -26 11 q-15 0 -26 -11 q-11 -10 -11 -26 q0 -15 11 -25 q11 -11 26 -11 l0 0 ZM431 677 q15 0 26 11 q11 10 11 25 q0 16 -11 26 q-11 11 -26 11 q-15 0 -26 -11 q-11 -10 -11 -26 q0 -15 11 -25 q11 -11 26 -11 l0 0 ZM363 -8 q131 3 218 90 q87 87 90 218 q-3 131 -90 218 q-87 87 -218 90 q-131 -3 -218 -90 q-87 -87 -90 -218 q3 -131 90 -218 q87 -87 218 -90 l0 0 ZM363 40 q-111 3 -184 76 q-73 73 -76 184 q3 111 76 184 q73 73 184 76 q111 -3 184 -76 q73 -73 76 -184 q-3 -111 -76 -184 q-73 -73 -184 -76 l0 0 Z" /><glyph glyph-name="" unicode="Ò" d="M384 653 l-85 147 l-58 0 l108 -147 l35 0 ZM363 -8 q131 3 218 90 q87 87 90 218 q-3 131 -90 218 q-87 87 -218 90 q-131 -3 -218 -90 q-87 -87 -90 -218 q3 -131 90 -218 q87 -87 218 -90 l0 0 ZM363 40 q-111 3 -184 76 q-73 73 -76 184 q3 111 76 184 q73 73 184 76 q111 -3 184 -76 q73 -73 76 -184 q-3 -111 -76 -184 q-73 -73 -184 -76 l0 0 Z" /><glyph glyph-name="" unicode="&#x150;" d="M274 653 l35 0 l107 147 l-58 0 l-84 -147 ZM404 653 l35 0 l107 147 l-58 0 l-84 -147 ZM363 -8 q131 3 218 90 q87 87 90 218 q-3 131 -90 218 q-87 87 -218 90 q-131 -3 -218 -90 q-87 -87 -90 -218 q3 -131 90 -218 q87 -87 218 -90 l0 0 ZM363 40 q-111 3 -184 76 q-73 73 -76 184 q3 111 76 184 q73 73 184 76 q111 -3 184 -76 q73 -73 76 -184 q-3 -111 -76 -184 q-73 -73 -184 -76 l0 0 Z" /><glyph glyph-name="" unicode="&#x14c;" d="M258 687 l210 0 l0 34 l-210 0 l0 -34 ZM363 -8 q131 3 218 90 q87 87 90 218 q-3 131 -90 218 q-87 87 -218 90 q-131 -3 -218 -90 q-87 -87 -90 -218 q3 -131 90 -218 q87 -87 218 -90 l0 0 ZM363 40 q-111 3 -184 76 q-73 73 -76 184 q3 111 76 184 q73 73 184 76 q111 -3 184 -76 q73 -73 76 -184 q-3 -111 -76 -184 q-73 -73 -184 -76 l0 0 Z" /><glyph glyph-name="" unicode="Ø" d="M556 540 l43 61 l-35 23 l-42 -60 q-35 21 -75 33 q-40 11 -84 11 q-131 -3 -218 -90 q-87 -87 -90 -218 q1 -73 31 -135 q31 -62 84 -105 l-44 -63 l36 -22 l43 61 q35 -21 75 -32 q39 -12 83 -12 q131 3 218 90 q87 87 90 218 q-1 73 -31 135 q-31 62 -84 105 l0 0 ZM103 300 q3 111 76 184 q73 73 184 76 q36 0 69 -9 q34 -9 63 -26 l-298 -426 q-43 36 -68 88 q-25 52 -26 113 l0 0 ZM363 40 q-36 0 -69 9 q-33 9 -62 26 l297 426 q43 -36 68 -88 q25 -52 26 -113 q-3 -111 -76 -184 q-73 -73 -184 -76 l0 0 Z" /><glyph glyph-name="" unicode="Õ" d="M418 674 q38 1 59 29 q21 27 21 70 l-36 0 q0 -30 -12 -46 q-12 -17 -32 -17 q-15 0 -24 7 q-10 7 -17 19 q-13 18 -30 30 q-17 12 -41 12 q-37 -1 -58 -28 q-21 -27 -21 -71 l36 0 q0 28 12 45 q11 17 32 18 q12 0 22 -6 q9 -6 18 -20 q11 -18 28 -30 q18 -12 43 -12 l0 0 ZM363 -8 q131 3 218 90 q87 87 90 218 q-3 131 -90 218 q-87 87 -218 90 q-131 -3 -218 -90 q-87 -87 -90 -218 q3 -131 90 -218 q87 -87 218 -90 l0 0 ZM363 40 q-111 3 -184 76 q-73 73 -76 184 q3 111 76 184 q73 73 184 76 q111 -3 184 -76 q73 -73 76 -184 q-3 -111 -76 -184 q-73 -73 -184 -76 l0 0 Z" /><glyph glyph-name="" unicode="&#x152;" d="M774 553 l0 47 l-314 0 l0 -8 q-23 8 -47 12 q-25 4 -50 4 q-131 -3 -218 -90 q-87 -87 -90 -218 q3 -131 90 -218 q87 -87 218 -90 q25 0 50 4 q24 4 47 12 l0 -8 l314 0 l0 47 l-273 0 l0 230 l239 0 l0 46 l-239 0 l0 230 l273 0 ZM364 39 q-112 3 -186 76 q-73 74 -76 185 q3 111 76 185 q74 73 186 76 q51 0 96 -19 l0 -484 q-45 -18 -96 -19 l0 0 Z" /><glyph glyph-name="" unicode="P" d="M283 600 l-205 0 l0 -600 l48 0 l0 273 l157 0 q70 2 116 47 q46 46 48 116 q-2 70 -48 116 q-46 46 -116 48 l0 0 ZM279 319 l-153 0 l0 234 l153 0 q51 -1 85 -33 q34 -32 35 -84 q-1 -54 -35 -85 q-34 -31 -85 -32 l0 0 Z" /><glyph glyph-name="" unicode="Þ" d="M288 518 l-158 0 l0 82 l-46 0 l0 -600 l46 0 l0 191 l158 0 q69 2 116 47 q46 46 48 116 q-2 70 -48 116 q-47 46 -116 48 l0 0 ZM285 237 l-155 0 l0 235 l155 0 q51 -1 85 -33 q33 -33 34 -84 q-1 -52 -34 -84 q-34 -33 -85 -34 l0 0 Z" /><glyph glyph-name="" unicode="Q" d="M683 45 l-108 0 l-73 -20 q76 39 122 112 q46 72 47 163 q-3 131 -90 218 q-87 87 -218 90 q-131 -3 -218 -90 q-87 -87 -90 -218 q3 -131 90 -218 q87 -87 218 -90 q18 0 36 2 q17 2 34 6 l250 0 l0 45 ZM103 300 q3 111 76 184 q73 73 184 76 q111 -3 184 -76 q73 -73 76 -184 q-3 -111 -76 -184 q-73 -73 -184 -76 q-111 3 -184 76 q-73 73 -76 184 l0 0 Z" /><glyph glyph-name="" unicode="R" d="M305 277 q61 8 101 52 q40 43 41 107 q-2 70 -48 116 q-46 46 -116 48 l-205 0 l0 -600 l48 0 l0 275 l130 0 l173 -275 l55 0 l-179 277 ZM126 321 l0 231 l154 0 q51 -1 85 -33 q33 -32 34 -83 q-1 -50 -34 -82 q-34 -32 -85 -33 l-154 0 Z" /><glyph glyph-name="" unicode="&#x154;" d="M370 800 l-58 0 l-85 -147 l35 0 l108 147 ZM305 277 q61 8 101 52 q40 43 41 107 q-2 70 -48 116 q-46 46 -116 48 l-205 0 l0 -600 l48 0 l0 275 l130 0 l173 -275 l55 0 l-179 277 ZM126 321 l0 231 l154 0 q51 -1 85 -33 q33 -32 34 -83 q-1 -50 -34 -82 q-34 -32 -85 -33 l-154 0 Z" /><glyph glyph-name="" unicode="&#x158;" d="M273 653 l78 147 l-40 0 l-62 -113 l-63 113 l-40 0 l78 -147 l49 0 ZM305 277 q61 8 101 52 q40 43 41 107 q-2 70 -48 116 q-46 46 -116 48 l-205 0 l0 -600 l48 0 l0 275 l130 0 l173 -275 l55 0 l-179 277 ZM126 321 l0 231 l154 0 q51 -1 85 -33 q33 -32 34 -83 q-1 -50 -34 -82 q-34 -32 -85 -33 l-154 0 Z" /><glyph glyph-name="" unicode="&#x156;" d="M305 277 q61 8 101 52 q40 43 41 107 q-2 70 -48 116 q-46 46 -116 48 l-205 0 l0 -600 l48 0 l0 275 l130 0 l173 -275 l55 0 l-179 277 ZM126 321 l0 231 l154 0 q51 -1 85 -33 q33 -32 34 -83 q-1 -50 -34 -82 q-34 -32 -85 -33 l-154 0 ZM157 -193 l35 0 l85 145 l-58 0 l-62 -145 Z" /><glyph glyph-name="" unicode="S" d="M226 -8 q75 0 128 41 q53 41 55 120 q-19 135 -149 170 q-131 34 -150 136 q2 51 36 76 q33 25 80 25 q38 0 68 -16 q29 -15 47 -40 l38 31 q-24 31 -63 52 q-40 20 -91 21 q-67 0 -114 -40 q-47 -39 -49 -112 q19 -131 150 -165 q130 -35 149 -140 q-2 -54 -40 -82 q-38 -29 -94 -29 q-55 1 -93 27 q-39 26 -55 69 l-44 -25 q23 -53 73 -86 q50 -32 118 -33 l0 0 Z" /><glyph glyph-name="" unicode="&#x15a;" d="M208 653 l35 0 l108 147 l-58 0 l-85 -147 ZM226 -8 q75 0 128 41 q53 41 55 120 q-19 135 -149 170 q-131 34 -150 136 q2 51 36 76 q33 25 80 25 q38 0 68 -16 q29 -15 47 -40 l38 31 q-24 31 -63 52 q-40 20 -91 21 q-67 0 -114 -40 q-47 -39 -49 -112 q19 -131 150 -165 q130 -35 149 -140 q-2 -54 -40 -82 q-38 -29 -94 -29 q-55 1 -93 27 q-39 26 -55 69 l-44 -25 q23 -53 73 -86 q50 -32 118 -33 l0 0 Z" /><glyph glyph-name="" unicode="&#x160;" d="M205 653 l49 0 l78 147 l-40 0 l-62 -113 l-63 113 l-40 0 l78 -147 ZM226 -8 q75 0 128 41 q53 41 55 120 q-19 135 -149 170 q-131 34 -150 136 q2 51 36 76 q33 25 80 25 q38 0 68 -16 q29 -15 47 -40 l38 31 q-24 31 -63 52 q-40 20 -91 21 q-67 0 -114 -40 q-47 -39 -49 -112 q19 -131 150 -165 q130 -35 149 -140 q-2 -54 -40 -82 q-38 -29 -94 -29 q-55 1 -93 27 q-39 26 -55 69 l-44 -25 q23 -53 73 -86 q50 -32 118 -33 l0 0 Z" /><glyph glyph-name="" unicode="&#x15e;" d="M409 153 q-19 135 -149 170 q-131 34 -150 136 q2 51 36 76 q33 25 80 25 q38 0 68 -16 q29 -15 47 -40 l38 31 q-24 31 -63 52 q-40 20 -91 21 q-67 0 -114 -40 q-47 -39 -49 -112 q19 -131 150 -165 q130 -35 149 -140 q-2 -54 -40 -82 q-38 -29 -94 -29 q-55 1 -93 27 q-39 26 -55 69 l-44 -25 q20 -49 64 -80 q44 -31 103 -38 l-31 -62 l25 -17 q37 12 61 0 q23 -12 24 -42 q-1 -21 -14 -35 q-14 -14 -35 -15 q-18 0 -36 9 q-19 9 -29 22 l-27 -13 q13 -21 39 -34 q26 -14 53 -14 q34 1 56 24 q22 22 23 56 q-1 40 -30 60 q-28 20 -72 12 l22 48 q73 2 125 43 q51 41 53 118 l0 0 Z" /><glyph glyph-name="" unicode="&#x218;" d="M226 -8 q75 0 128 41 q53 41 55 120 q-19 135 -149 170 q-131 34 -150 136 q2 51 36 76 q33 25 80 25 q38 0 68 -16 q29 -15 47 -40 l38 31 q-24 31 -63 52 q-40 20 -91 21 q-67 0 -114 -40 q-47 -39 -49 -112 q19 -131 150 -165 q130 -35 149 -140 q-2 -54 -40 -82 q-38 -29 -94 -29 q-55 1 -93 27 q-39 26 -55 69 l-44 -25 q23 -53 73 -86 q50 -32 118 -33 l0 0 ZM164 -193 l85 145 l-58 0 l-62 -145 l35 0 Z" /><glyph glyph-name="" unicode="T" d="M400 600 l-386 0 l0 -48 l169 0 l0 -552 l48 0 l0 552 l169 0 l0 48 Z" /><glyph glyph-name="" unicode="&#x166;" d="M400 552 l0 48 l-386 0 l0 -48 l169 0 l0 -230 l-87 0 l0 -45 l87 0 l0 -277 l48 0 l0 277 l86 0 l0 45 l-86 0 l0 230 l169 0 Z" /><glyph glyph-name="" unicode="&#x164;" d="M232 653 l78 147 l-40 0 l-62 -113 l-63 113 l-40 0 l78 -147 l49 0 ZM400 600 l-386 0 l0 -48 l169 0 l0 -552 l48 0 l0 552 l169 0 l0 48 Z" /><glyph glyph-name="" unicode="&#x162;" d="M231 0 l0 552 l169 0 l0 48 l-386 0 l0 -48 l169 0 l0 -552 l9 0 l-34 -69 l25 -17 q37 12 61 0 q23 -12 24 -42 q-1 -21 -14 -35 q-14 -14 -35 -15 q-18 0 -36 9 q-19 9 -29 22 l-27 -13 q13 -21 39 -34 q26 -14 53 -14 q34 1 56 24 q22 22 23 56 q-1 40 -30 60 q-28 20 -72 12 l26 56 l9 0 Z" /><glyph glyph-name="" unicode="&#x21a;" d="M14 600 l0 -48 l169 0 l0 -552 l48 0 l0 552 l169 0 l0 48 l-386 0 ZM116 -193 l35 0 l85 145 l-58 0 l-62 -145 Z" /><glyph glyph-name="" unicode="U" d="M294 -8 q96 2 157 59 q61 57 63 147 l0 402 l-48 0 l0 -395 q-2 -72 -49 -118 q-48 -45 -123 -47 q-74 2 -122 47 q-47 46 -49 118 l0 395 l-48 0 l0 -402 q2 -90 63 -147 q60 -57 156 -59 l0 0 Z" /><glyph glyph-name="" unicode="Ú" d="M273 653 l35 0 l108 147 l-58 0 l-85 -147 ZM294 -8 q96 2 157 59 q61 57 63 147 l0 402 l-48 0 l0 -395 q-2 -72 -49 -118 q-48 -45 -123 -47 q-74 2 -122 47 q-47 46 -49 118 l0 395 l-48 0 l0 -402 q2 -90 63 -147 q60 -57 156 -59 l0 0 Z" /><glyph glyph-name="" unicode="&#x1d3;" d="M270 653 l49 0 l78 147 l-40 0 l-62 -113 l-63 113 l-40 0 l78 -147 ZM294 -8 q96 2 157 59 q61 57 63 147 l0 402 l-48 0 l0 -395 q-2 -72 -49 -118 q-48 -45 -123 -47 q-74 2 -122 47 q-47 46 -49 118 l0 395 l-48 0 l0 -402 q2 -90 63 -147 q60 -57 156 -59 l0 0 Z" /><glyph glyph-name="" unicode="Û" d="M231 653 l63 113 l62 -113 l40 0 l-78 147 l-49 0 l-78 -147 l40 0 ZM294 -8 q96 2 157 59 q61 57 63 147 l0 402 l-48 0 l0 -395 q-2 -72 -49 -118 q-48 -45 -123 -47 q-74 2 -122 47 q-47 46 -49 118 l0 395 l-48 0 l0 -402 q2 -90 63 -147 q60 -57 156 -59 l0 0 Z" /><glyph glyph-name="" unicode="Ü" d="M225 677 q15 0 26 11 q11 10 11 25 q0 16 -11 26 q-11 11 -26 11 q-15 0 -26 -11 q-11 -10 -11 -26 q0 -15 11 -25 q11 -11 26 -11 l0 0 ZM362 677 q15 0 26 11 q11 10 11 25 q0 16 -11 26 q-11 11 -26 11 q-15 0 -26 -11 q-11 -10 -11 -26 q0 -15 11 -25 q11 -11 26 -11 l0 0 ZM294 -8 q96 2 157 59 q61 57 63 147 l0 402 l-48 0 l0 -395 q-2 -72 -49 -118 q-48 -45 -123 -47 q-74 2 -122 47 q-47 46 -49 118 l0 395 l-48 0 l0 -402 q2 -90 63 -147 q60 -57 156 -59 l0 0 Z" /><glyph glyph-name="" unicode="Ù" d="M315 653 l-85 147 l-58 0 l108 -147 l35 0 ZM294 -8 q96 2 157 59 q61 57 63 147 l0 402 l-48 0 l0 -395 q-2 -72 -49 -118 q-48 -45 -123 -47 q-74 2 -122 47 q-47 46 -49 118 l0 395 l-48 0 l0 -402 q2 -90 63 -147 q60 -57 156 -59 l0 0 Z" /><glyph glyph-name="" unicode="&#x170;" d="M205 653 l35 0 l107 147 l-58 0 l-84 -147 ZM335 653 l35 0 l107 147 l-58 0 l-84 -147 ZM294 -8 q96 2 157 59 q61 57 63 147 l0 402 l-48 0 l0 -395 q-2 -72 -49 -118 q-48 -45 -123 -47 q-74 2 -122 47 q-47 46 -49 118 l0 395 l-48 0 l0 -402 q2 -90 63 -147 q60 -57 156 -59 l0 0 Z" /><glyph glyph-name="" unicode="&#x16a;" d="M189 687 l210 0 l0 34 l-210 0 l0 -34 ZM294 -8 q96 2 157 59 q61 57 63 147 l0 402 l-48 0 l0 -395 q-2 -72 -49 -118 q-48 -45 -123 -47 q-74 2 -122 47 q-47 46 -49 118 l0 395 l-48 0 l0 -402 q2 -90 63 -147 q60 -57 156 -59 l0 0 Z" /><glyph glyph-name="" unicode="&#x172;" d="M466 600 l0 -395 q-2 -72 -49 -118 q-48 -45 -123 -47 q-74 2 -122 47 q-47 46 -49 118 l0 395 l-48 0 l0 -402 q2 -90 63 -147 q60 -57 156 -59 q16 0 31 2 q-27 -22 -44 -48 q-17 -26 -18 -59 q0 -38 23 -59 q22 -21 61 -23 q29 0 53 9 q24 10 44 30 l-16 24 q-15 -17 -33 -25 q-19 -9 -42 -9 q-28 0 -42 16 q-14 15 -14 41 q1 38 26 66 q25 29 58 51 q61 23 97 73 q35 50 36 117 l0 402 l-48 0 Z" /><glyph glyph-name="" unicode="&#x16e;" d="M294 640 q33 1 55 23 q22 23 23 55 q-1 33 -23 55 q-22 22 -55 23 q-33 -1 -55 -23 q-22 -22 -23 -55 q1 -32 23 -55 q22 -22 55 -23 l0 0 ZM294 668 q-21 1 -35 15 q-14 14 -14 35 q0 22 14 36 q14 14 35 15 q22 -1 36 -15 q14 -14 14 -36 q0 -21 -14 -35 q-14 -14 -36 -15 l0 0 ZM294 -8 q96 2 157 59 q61 57 63 147 l0 402 l-48 0 l0 -395 q-2 -72 -49 -118 q-48 -45 -123 -47 q-74 2 -122 47 q-47 46 -49 118 l0 395 l-48 0 l0 -402 q2 -90 63 -147 q60 -57 156 -59 l0 0 Z" /><glyph glyph-name="" unicode="V" d="M439 600 l-190 -539 l-190 539 l-54 0 l217 -600 l53 0 l217 600 l-53 0 Z" /><glyph glyph-name="" unicode="W" d="M771 600 l-167 -521 l-160 521 l-66 0 l-159 -521 l-166 521 l-52 0 l192 -600 l51 0 l167 546 l168 -546 l51 0 l191 600 l-50 0 Z" /><glyph glyph-name="" unicode="&#x1e82;" d="M535 800 l-58 0 l-85 -147 l35 0 l108 147 ZM771 600 l-167 -521 l-160 521 l-66 0 l-159 -521 l-166 521 l-52 0 l192 -600 l51 0 l167 546 l168 -546 l51 0 l191 600 l-50 0 Z" /><glyph glyph-name="" unicode="&#x174;" d="M413 766 l62 -113 l40 0 l-78 147 l-49 0 l-78 -147 l40 0 l63 113 ZM771 600 l-167 -521 l-160 521 l-66 0 l-159 -521 l-166 521 l-52 0 l192 -600 l51 0 l167 546 l168 -546 l51 0 l191 600 l-50 0 Z" /><glyph glyph-name="" unicode="&#x1e84;" d="M344 677 q15 0 26 11 q11 10 11 25 q0 16 -11 26 q-11 11 -26 11 q-15 0 -26 -11 q-11 -10 -11 -26 q0 -15 11 -25 q11 -11 26 -11 l0 0 ZM481 677 q15 0 26 11 q11 10 11 25 q0 16 -11 26 q-11 11 -26 11 q-15 0 -26 -11 q-11 -10 -11 -26 q0 -15 11 -25 q11 -11 26 -11 l0 0 ZM771 600 l-167 -521 l-160 521 l-66 0 l-159 -521 l-166 521 l-52 0 l192 -600 l51 0 l167 546 l168 -546 l51 0 l191 600 l-50 0 Z" /><glyph glyph-name="" unicode="&#x1e80;" d="M434 653 l-85 147 l-58 0 l108 -147 l35 0 ZM771 600 l-167 -521 l-160 521 l-66 0 l-159 -521 l-166 521 l-52 0 l192 -600 l51 0 l167 546 l168 -546 l51 0 l191 600 l-50 0 Z" /><glyph glyph-name="" unicode="X" d="M466 0 l-203 303 l200 297 l-58 0 l-169 -257 l-169 257 l-57 0 l200 -297 l-204 -303 l59 0 l171 263 l172 -263 l58 0 Z" /><glyph glyph-name="" unicode="Y" d="M472 600 l-58 0 l-174 -266 l-174 266 l-60 0 l209 -316 l0 -284 l48 0 l0 284 l209 316 Z" /><glyph glyph-name="" unicode="Ý" d="M362 800 l-58 0 l-85 -147 l35 0 l108 147 ZM472 600 l-58 0 l-174 -266 l-174 266 l-60 0 l209 -316 l0 -284 l48 0 l0 284 l209 316 Z" /><glyph glyph-name="" unicode="&#x176;" d="M240 766 l62 -113 l40 0 l-78 147 l-49 0 l-78 -147 l40 0 l63 113 ZM472 600 l-58 0 l-174 -266 l-174 266 l-60 0 l209 -316 l0 -284 l48 0 l0 284 l209 316 Z" /><glyph glyph-name="" unicode="&#x178;" d="M171 677 q15 0 26 11 q11 10 11 25 q0 16 -11 26 q-11 11 -26 11 q-15 0 -26 -11 q-11 -10 -11 -26 q0 -15 11 -25 q11 -11 26 -11 l0 0 ZM308 677 q15 0 26 11 q11 10 11 25 q0 16 -11 26 q-11 11 -26 11 q-15 0 -26 -11 q-11 -10 -11 -26 q0 -15 11 -25 q11 -11 26 -11 l0 0 ZM472 600 l-58 0 l-174 -266 l-174 266 l-60 0 l209 -316 l0 -284 l48 0 l0 284 l209 316 Z" /><glyph glyph-name="" unicode="&#x1ef2;" d="M261 653 l-85 147 l-58 0 l108 -147 l35 0 ZM472 600 l-58 0 l-174 -266 l-174 266 l-60 0 l209 -316 l0 -284 l48 0 l0 284 l209 316 Z" /><glyph glyph-name="" unicode="Z" d="M129 48 l351 552 l-419 0 l0 -48 l332 0 l-351 -552 l453 0 l0 48 l-366 0 Z" /><glyph glyph-name="" unicode="&#x179;" d="M391 800 l-58 0 l-85 -147 l35 0 l108 147 ZM129 48 l351 552 l-419 0 l0 -48 l332 0 l-351 -552 l453 0 l0 48 l-366 0 Z" /><glyph glyph-name="" unicode="&#x17d;" d="M294 653 l78 147 l-40 0 l-62 -113 l-63 113 l-40 0 l78 -147 l49 0 ZM129 48 l351 552 l-419 0 l0 -48 l332 0 l-351 -552 l453 0 l0 48 l-366 0 Z" /><glyph glyph-name="" unicode="&#x17b;" d="M269 667 q15 0 25 11 q11 10 11 25 q0 16 -11 26 q-10 11 -25 11 q-15 0 -26 -11 q-11 -10 -11 -26 q0 -15 11 -25 q11 -11 26 -11 l0 0 ZM129 48 l351 552 l-419 0 l0 -48 l332 0 l-351 -552 l453 0 l0 48 l-366 0 Z" /><glyph glyph-name="" unicode="a" d="M508 38 q-19 0 -31 13 q-12 14 -12 42 l0 307 l-47 0 l0 -69 q-29 36 -70 56 q-42 21 -91 21 q-88 -2 -147 -61 q-59 -59 -61 -147 q2 -88 61 -147 q59 -59 147 -61 q50 0 92 22 q42 21 70 58 q5 -36 28 -58 q22 -21 58 -22 q8 0 16 2 q8 2 14 6 l0 38 l-27 0 ZM257 39 q-69 2 -115 47 q-45 45 -47 114 q2 69 47 114 q46 45 115 47 q68 -2 114 -47 q45 -45 47 -114 q-2 -69 -47 -114 q-46 -45 -114 -47 l0 0 Z" /><glyph glyph-name="" unicode="á" d="M379 600 l-58 0 l-85 -147 l35 0 l108 147 ZM508 38 q-19 0 -31 13 q-12 14 -12 42 l0 307 l-47 0 l0 -69 q-29 36 -70 56 q-42 21 -91 21 q-88 -2 -147 -61 q-59 -59 -61 -147 q2 -88 61 -147 q59 -59 147 -61 q50 0 92 22 q42 21 70 58 q5 -36 28 -58 q22 -21 58 -22 q8 0 16 2 q8 2 14 6 l0 38 l-27 0 ZM257 39 q-69 2 -115 47 q-45 45 -47 114 q2 69 47 114 q46 45 115 47 q68 -2 114 -47 q45 -45 47 -114 q-2 -69 -47 -114 q-46 -45 -114 -47 l0 0 Z" /><glyph glyph-name="" unicode="&#x103;" d="M257 456 q56 1 91 32 q36 32 37 85 l-31 0 q-1 -36 -27 -61 q-27 -24 -70 -25 q-42 1 -69 25 q-27 25 -28 61 l-31 0 q1 -53 37 -85 q35 -31 91 -32 l0 0 ZM508 38 q-19 0 -31 13 q-12 14 -12 42 l0 307 l-47 0 l0 -69 q-29 36 -70 56 q-42 21 -91 21 q-88 -2 -147 -61 q-59 -59 -61 -147 q2 -88 61 -147 q59 -59 147 -61 q50 0 92 22 q42 21 70 58 q5 -36 28 -58 q22 -21 58 -22 q8 0 16 2 q8 2 14 6 l0 38 l-27 0 ZM257 39 q-69 2 -115 47 q-45 45 -47 114 q2 69 47 114 q46 45 115 47 q68 -2 114 -47 q45 -45 47 -114 q-2 -69 -47 -114 q-46 -45 -114 -47 l0 0 Z" /><glyph glyph-name="" unicode="&#x1ce;" d="M282 453 l78 147 l-40 0 l-62 -113 l-63 113 l-40 0 l78 -147 l49 0 ZM508 38 q-19 0 -31 13 q-12 14 -12 42 l0 307 l-47 0 l0 -69 q-29 36 -70 56 q-42 21 -91 21 q-88 -2 -147 -61 q-59 -59 -61 -147 q2 -88 61 -147 q59 -59 147 -61 q50 0 92 22 q42 21 70 58 q5 -36 28 -58 q22 -21 58 -22 q8 0 16 2 q8 2 14 6 l0 38 l-27 0 ZM257 39 q-69 2 -115 47 q-45 45 -47 114 q2 69 47 114 q46 45 115 47 q68 -2 114 -47 q45 -45 47 -114 q-2 -69 -47 -114 q-46 -45 -114 -47 l0 0 Z" /><glyph glyph-name="" unicode="â" d="M257 566 l62 -113 l40 0 l-78 147 l-49 0 l-78 -147 l40 0 l63 113 ZM508 38 q-19 0 -31 13 q-12 14 -12 42 l0 307 l-47 0 l0 -69 q-29 36 -70 56 q-42 21 -91 21 q-88 -2 -147 -61 q-59 -59 -61 -147 q2 -88 61 -147 q59 -59 147 -61 q50 0 92 22 q42 21 70 58 q5 -36 28 -58 q22 -21 58 -22 q8 0 16 2 q8 2 14 6 l0 38 l-27 0 ZM257 39 q-69 2 -115 47 q-45 45 -47 114 q2 69 47 114 q46 45 115 47 q68 -2 114 -47 q45 -45 47 -114 q-2 -69 -47 -114 q-46 -45 -114 -47 l0 0 Z" /><glyph glyph-name="" unicode="ä" d="M188 477 q15 0 26 11 q11 10 11 25 q0 16 -11 26 q-11 11 -26 11 q-15 0 -26 -11 q-11 -10 -11 -26 q0 -15 11 -25 q11 -11 26 -11 l0 0 ZM325 477 q15 0 26 11 q11 10 11 25 q0 16 -11 26 q-11 11 -26 11 q-15 0 -26 -11 q-11 -10 -11 -26 q0 -15 11 -25 q11 -11 26 -11 l0 0 ZM508 38 q-19 0 -31 13 q-12 14 -12 42 l0 307 l-47 0 l0 -69 q-29 36 -70 56 q-42 21 -91 21 q-88 -2 -147 -61 q-59 -59 -61 -147 q2 -88 61 -147 q59 -59 147 -61 q50 0 92 22 q42 21 70 58 q5 -36 28 -58 q22 -21 58 -22 q8 0 16 2 q8 2 14 6 l0 38 l-27 0 ZM257 39 q-69 2 -115 47 q-45 45 -47 114 q2 69 47 114 q46 45 115 47 q68 -2 114 -47 q45 -45 47 -114 q-2 -69 -47 -114 q-46 -45 -114 -47 l0 0 Z" /><glyph glyph-name="" unicode="à" d="M278 453 l-85 147 l-58 0 l108 -147 l35 0 ZM508 38 q-19 0 -31 13 q-12 14 -12 42 l0 307 l-47 0 l0 -69 q-29 36 -70 56 q-42 21 -91 21 q-88 -2 -147 -61 q-59 -59 -61 -147 q2 -88 61 -147 q59 -59 147 -61 q50 0 92 22 q42 21 70 58 q5 -36 28 -58 q22 -21 58 -22 q8 0 16 2 q8 2 14 6 l0 38 l-27 0 ZM257 39 q-69 2 -115 47 q-45 45 -47 114 q2 69 47 114 q46 45 115 47 q68 -2 114 -47 q45 -45 47 -114 q-2 -69 -47 -114 q-46 -45 -114 -47 l0 0 Z" /><glyph glyph-name="" unicode="&#x101;" d="M362 521 l-210 0 l0 -34 l210 0 l0 34 ZM508 38 q-19 0 -31 13 q-12 14 -12 42 l0 307 l-47 0 l0 -69 q-29 36 -70 56 q-42 21 -91 21 q-88 -2 -147 -61 q-59 -59 -61 -147 q2 -88 61 -147 q59 -59 147 -61 q50 0 92 22 q42 21 70 58 q5 -36 28 -58 q22 -21 58 -22 q8 0 16 2 q8 2 14 6 l0 38 l-27 0 ZM257 39 q-69 2 -115 47 q-45 45 -47 114 q2 69 47 114 q46 45 115 47 q68 -2 114 -47 q45 -45 47 -114 q-2 -69 -47 -114 q-46 -45 -114 -47 l0 0 Z" /><glyph glyph-name="" unicode="&#x105;" d="M574 -145 q-15 -17 -33 -25 q-19 -9 -42 -9 q-28 0 -42 16 q-14 15 -14 41 q1 40 29 70 q27 29 63 52 l0 38 l-27 0 q-19 0 -31 13 q-12 14 -12 42 l0 307 l-47 0 l0 -69 q-29 36 -70 56 q-42 21 -91 21 q-88 -2 -147 -61 q-59 -59 -61 -147 q2 -88 61 -147 q59 -59 147 -61 q50 0 92 22 q42 21 70 58 q5 -32 22 -52 q17 -20 46 -26 q-34 -25 -55 -54 q-22 -29 -23 -66 q0 -38 23 -59 q22 -21 61 -23 q29 0 53 9 q24 10 44 30 l-16 24 ZM257 39 q-69 2 -115 47 q-45 45 -47 114 q2 69 47 114 q46 45 115 47 q68 -2 114 -47 q45 -45 47 -114 q-2 -69 -47 -114 q-46 -45 -114 -47 l0 0 Z" /><glyph glyph-name="" unicode="å" d="M257 440 q33 1 55 23 q22 23 23 55 q-1 33 -23 55 q-22 22 -55 23 q-33 -1 -55 -23 q-22 -22 -23 -55 q1 -32 23 -55 q22 -22 55 -23 l0 0 ZM257 569 q22 -1 36 -15 q14 -14 14 -36 q0 -21 -14 -35 q-14 -14 -36 -15 q-21 1 -35 15 q-14 14 -14 35 q0 22 14 36 q14 14 35 15 l0 0 ZM508 38 q-19 0 -31 13 q-12 14 -12 42 l0 307 l-47 0 l0 -69 q-29 36 -70 56 q-42 21 -91 21 q-88 -2 -147 -61 q-59 -59 -61 -147 q2 -88 61 -147 q59 -59 147 -61 q50 0 92 22 q42 21 70 58 q5 -36 28 -58 q22 -21 58 -22 q8 0 16 2 q8 2 14 6 l0 38 l-27 0 ZM257 39 q-69 2 -115 47 q-45 45 -47 114 q2 69 47 114 q46 45 115 47 q68 -2 114 -47 q45 -45 47 -114 q-2 -69 -47 -114 q-46 -45 -114 -47 l0 0 Z" /><glyph glyph-name="" unicode="ã" d="M201 542 q12 0 22 -6 q9 -6 18 -20 q11 -18 28 -30 q18 -12 43 -12 q38 1 59 29 q21 27 21 70 l-36 0 q0 -30 -12 -46 q-12 -17 -32 -17 q-15 0 -24 7 q-10 7 -17 19 q-13 18 -30 30 q-17 12 -41 12 q-37 -1 -58 -28 q-21 -27 -21 -71 l36 0 q0 28 12 45 q11 17 32 18 l0 0 ZM508 38 q-19 0 -31 13 q-12 14 -12 42 l0 307 l-47 0 l0 -69 q-29 36 -70 56 q-42 21 -91 21 q-88 -2 -147 -61 q-59 -59 -61 -147 q2 -88 61 -147 q59 -59 147 -61 q50 0 92 22 q42 21 70 58 q5 -36 28 -58 q22 -21 58 -22 q8 0 16 2 q8 2 14 6 l0 38 l-27 0 ZM257 39 q-69 2 -115 47 q-45 45 -47 114 q2 69 47 114 q46 45 115 47 q68 -2 114 -47 q45 -45 47 -114 q-2 -69 -47 -114 q-46 -45 -114 -47 l0 0 Z" /><glyph glyph-name="" unicode="æ" d="M749 206 q-5 87 -63 144 q-57 56 -144 58 q-54 -1 -98 -25 q-45 -24 -74 -65 q-16 41 -55 65 q-39 24 -92 25 q-57 -1 -101 -26 q-43 -25 -59 -66 l46 -16 q12 31 43 50 q32 18 70 19 q49 -1 80 -30 q30 -30 31 -77 l0 -20 l-136 0 q-68 -1 -107 -33 q-40 -33 -41 -91 q1 -56 41 -91 q39 -34 104 -35 q42 1 88 25 q46 25 87 67 q28 -42 73 -67 q45 -24 100 -25 q72 1 125 42 q53 40 74 106 l-49 0 q-19 -46 -58 -73 q-40 -27 -92 -28 q-68 2 -113 45 q-46 44 -49 111 l369 0 l0 11 ZM542 361 q57 -1 100 -35 q42 -34 56 -88 l-313 0 q14 55 56 89 q42 33 101 34 l0 0 ZM194 35 q-45 1 -72 23 q-26 22 -27 59 q1 39 28 60 q27 22 74 22 l137 0 q0 -39 14 -73 q-35 -42 -77 -66 q-41 -24 -77 -25 l0 0 Z" /><glyph glyph-name="" unicode="b" d="M286 408 q-49 0 -91 -21 q-41 -20 -70 -55 l0 404 l-47 0 l0 -736 l47 0 l0 68 q29 -35 70 -55 q42 -21 91 -21 q88 2 147 61 q59 59 61 147 q-2 88 -61 147 q-59 59 -147 61 l0 0 ZM286 39 q-69 2 -114 47 q-45 45 -47 114 q2 69 47 114 q45 45 114 47 q69 -2 114 -47 q46 -45 48 -114 q-2 -69 -48 -114 q-45 -45 -114 -47 l0 0 Z" /><glyph glyph-name="" unicode="c" d="M257 -8 q69 1 122 40 q52 38 74 100 l-49 0 q-20 -43 -59 -67 q-39 -25 -88 -26 q-69 2 -114 46 q-46 45 -48 115 q2 70 48 115 q45 44 114 46 q49 -1 88 -25 q39 -25 59 -68 l49 0 q-22 62 -74 100 q-53 39 -122 40 q-88 -2 -147 -61 q-59 -59 -61 -147 q2 -88 61 -147 q59 -59 147 -61 l0 0 Z" /><glyph glyph-name="" unicode="&#x107;" d="M238 455 l35 0 l108 147 l-58 0 l-85 -147 ZM257 -8 q69 1 122 40 q52 38 74 100 l-49 0 q-20 -43 -59 -67 q-39 -25 -88 -26 q-69 2 -114 46 q-46 45 -48 115 q2 70 48 115 q45 44 114 46 q49 -1 88 -25 q39 -25 59 -68 l49 0 q-22 62 -74 100 q-53 39 -122 40 q-88 -2 -147 -61 q-59 -59 -61 -147 q2 -88 61 -147 q59 -59 147 -61 l0 0 Z" /><glyph glyph-name="" unicode="&#x10d;" d="M235 455 l49 0 l78 147 l-40 0 l-62 -113 l-63 113 l-40 0 l78 -147 ZM257 -8 q69 1 122 40 q52 38 74 100 l-49 0 q-20 -43 -59 -67 q-39 -25 -88 -26 q-69 2 -114 46 q-46 45 -48 115 q2 70 48 115 q45 44 114 46 q49 -1 88 -25 q39 -25 59 -68 l49 0 q-22 62 -74 100 q-53 39 -122 40 q-88 -2 -147 -61 q-59 -59 -61 -147 q2 -88 61 -147 q59 -59 147 -61 l0 0 Z" /><glyph glyph-name="" unicode="ç" d="M257 39 q-69 2 -114 46 q-46 45 -48 115 q2 70 48 115 q45 44 114 46 q49 -1 88 -25 q39 -25 59 -68 l49 0 q-22 62 -74 100 q-53 39 -122 40 q-88 -2 -147 -61 q-59 -59 -61 -147 q2 -84 55 -141 q54 -58 136 -66 l-30 -62 l25 -17 q37 12 61 0 q23 -12 24 -42 q-1 -21 -14 -35 q-14 -14 -35 -15 q-18 0 -36 9 q-19 9 -29 22 l-27 -13 q13 -21 39 -34 q26 -14 53 -14 q34 1 56 24 q22 22 23 56 q-1 40 -30 60 q-28 20 -72 12 l22 48 q65 5 114 43 q48 38 69 97 l-49 0 q-20 -43 -59 -67 q-39 -25 -88 -26 l0 0 Z" /><glyph glyph-name="" unicode="&#x10b;" d="M259 469 q15 0 25 11 q11 10 11 25 q0 16 -11 26 q-10 11 -25 11 q-15 0 -26 -11 q-11 -10 -11 -26 q0 -15 11 -25 q11 -11 26 -11 l0 0 ZM257 -8 q69 1 122 40 q52 38 74 100 l-49 0 q-20 -43 -59 -67 q-39 -25 -88 -26 q-69 2 -114 46 q-46 45 -48 115 q2 70 48 115 q45 44 114 46 q49 -1 88 -25 q39 -25 59 -68 l49 0 q-22 62 -74 100 q-53 39 -122 40 q-88 -2 -147 -61 q-59 -59 -61 -147 q2 -88 61 -147 q59 -59 147 -61 l0 0 Z" /><glyph glyph-name="" unicode="d" d="M418 736 l0 -404 q-29 35 -70 55 q-42 21 -91 21 q-88 -2 -147 -61 q-59 -59 -61 -147 q2 -88 61 -147 q59 -59 147 -61 q49 0 91 21 q41 20 70 55 l0 -68 l47 0 l0 736 l-47 0 ZM257 39 q-69 2 -115 47 q-45 45 -47 114 q2 69 47 114 q46 45 115 47 q68 -2 114 -47 q45 -45 47 -114 q-2 -69 -47 -114 q-46 -45 -114 -47 l0 0 Z" /><glyph glyph-name="" unicode="ð" d="M331 544 l37 48 l-25 19 l-37 -48 q-34 23 -71 35 q-37 12 -78 12 l-7 -40 q35 0 68 -10 q33 -10 62 -29 l-45 -57 l25 -20 l45 58 q33 -28 59 -67 q25 -40 41 -92 q-29 26 -65 40 q-37 15 -79 15 q-90 -2 -150 -61 q-60 -59 -62 -147 q2 -88 62 -147 q60 -59 150 -61 q90 2 150 61 q60 59 62 147 q-1 111 -39 200 q-38 89 -103 144 l0 0 ZM261 38 q-69 2 -115 47 q-45 46 -47 115 q2 69 47 115 q46 45 115 47 q69 -2 115 -47 q45 -46 47 -115 q-2 -69 -47 -115 q-46 -45 -115 -47 l0 0 Z" /><glyph glyph-name="" unicode="&#x10f;" d="M418 332 q-29 35 -70 55 q-42 21 -91 21 q-88 -2 -147 -61 q-59 -59 -61 -147 q2 -88 61 -147 q59 -59 147 -61 q49 0 91 21 q41 20 70 55 l0 -68 l47 0 l0 736 l-47 0 l0 -404 ZM583 736 l-68 -241 l36 0 l85 241 l-53 0 ZM257 39 q-69 2 -115 47 q-45 45 -47 114 q2 69 47 114 q46 45 115 47 q68 -2 114 -47 q45 -45 47 -114 q-2 -69 -47 -114 q-46 -45 -114 -47 l0 0 Z" /><glyph glyph-name="" unicode="&#x111;" d="M522 576 l-57 0 l0 160 l-47 0 l0 -160 l-117 0 l0 -45 l117 0 l0 -199 q-29 35 -70 55 q-42 21 -91 21 q-88 -2 -147 -61 q-59 -59 -61 -147 q2 -88 61 -147 q59 -59 147 -61 q49 0 91 21 q41 20 70 55 l0 -68 l47 0 l0 531 l57 0 l0 45 ZM257 39 q-69 2 -115 47 q-45 45 -47 114 q2 69 47 114 q46 45 115 47 q68 -2 114 -47 q45 -45 47 -114 q-2 -69 -47 -114 q-46 -45 -114 -47 l0 0 Z" /><glyph glyph-name="" unicode="e" d="M464 206 q-5 87 -63 144 q-57 56 -144 58 q-88 -2 -147 -61 q-59 -59 -61 -147 q2 -88 61 -147 q59 -59 147 -61 q72 1 125 42 q53 40 74 106 l-49 0 q-19 -46 -58 -73 q-40 -27 -92 -28 q-68 2 -113 45 q-46 44 -49 111 l369 0 l0 11 ZM257 361 q57 -1 100 -35 q42 -34 56 -88 l-313 0 q14 55 56 89 q42 33 101 34 l0 0 Z" /><glyph glyph-name="" unicode="é" d="M381 605 l-58 0 l-85 -147 l35 0 l108 147 ZM464 206 q-5 87 -63 144 q-57 56 -144 58 q-88 -2 -147 -61 q-59 -59 -61 -147 q2 -88 61 -147 q59 -59 147 -61 q72 1 125 42 q53 40 74 106 l-49 0 q-19 -46 -58 -73 q-40 -27 -92 -28 q-68 2 -113 45 q-46 44 -49 111 l369 0 l0 11 ZM257 361 q57 -1 100 -35 q42 -34 56 -88 l-313 0 q14 55 56 89 q42 33 101 34 l0 0 Z" /><glyph glyph-name="" unicode="&#x11b;" d="M284 458 l78 147 l-40 0 l-62 -113 l-63 113 l-40 0 l78 -147 l49 0 ZM464 206 q-5 87 -63 144 q-57 56 -144 58 q-88 -2 -147 -61 q-59 -59 -61 -147 q2 -88 61 -147 q59 -59 147 -61 q72 1 125 42 q53 40 74 106 l-49 0 q-19 -46 -58 -73 q-40 -27 -92 -28 q-68 2 -113 45 q-46 44 -49 111 l369 0 l0 11 ZM257 361 q57 -1 100 -35 q42 -34 56 -88 l-313 0 q14 55 56 89 q42 33 101 34 l0 0 Z" /><glyph glyph-name="" unicode="ê" d="M259 571 l62 -113 l40 0 l-78 147 l-49 0 l-78 -147 l40 0 l63 113 ZM464 206 q-5 87 -63 144 q-57 56 -144 58 q-88 -2 -147 -61 q-59 -59 -61 -147 q2 -88 61 -147 q59 -59 147 -61 q72 1 125 42 q53 40 74 106 l-49 0 q-19 -46 -58 -73 q-40 -27 -92 -28 q-68 2 -113 45 q-46 44 -49 111 l369 0 l0 11 ZM257 361 q57 -1 100 -35 q42 -34 56 -88 l-313 0 q14 55 56 89 q42 33 101 34 l0 0 Z" /><glyph glyph-name="" unicode="ë" d="M190 482 q15 0 26 11 q11 10 11 25 q0 16 -11 26 q-11 11 -26 11 q-15 0 -26 -11 q-11 -10 -11 -26 q0 -15 11 -25 q11 -11 26 -11 l0 0 ZM327 482 q15 0 26 11 q11 10 11 25 q0 16 -11 26 q-11 11 -26 11 q-15 0 -26 -11 q-11 -10 -11 -26 q0 -15 11 -25 q11 -11 26 -11 l0 0 ZM464 206 q-5 87 -63 144 q-57 56 -144 58 q-88 -2 -147 -61 q-59 -59 -61 -147 q2 -88 61 -147 q59 -59 147 -61 q72 1 125 42 q53 40 74 106 l-49 0 q-19 -46 -58 -73 q-40 -27 -92 -28 q-68 2 -113 45 q-46 44 -49 111 l369 0 l0 11 ZM257 361 q57 -1 100 -35 q42 -34 56 -88 l-313 0 q14 55 56 89 q42 33 101 34 l0 0 Z" /><glyph glyph-name="" unicode="&#x117;" d="M259 472 q15 0 25 11 q11 10 11 25 q0 16 -11 26 q-10 11 -25 11 q-15 0 -26 -11 q-11 -10 -11 -26 q0 -15 11 -25 q11 -11 26 -11 l0 0 ZM464 206 q-5 87 -63 144 q-57 56 -144 58 q-88 -2 -147 -61 q-59 -59 -61 -147 q2 -88 61 -147 q59 -59 147 -61 q72 1 125 42 q53 40 74 106 l-49 0 q-19 -46 -58 -73 q-40 -27 -92 -28 q-68 2 -113 45 q-46 44 -49 111 l369 0 l0 11 ZM257 361 q57 -1 100 -35 q42 -34 56 -88 l-313 0 q14 55 56 89 q42 33 101 34 l0 0 Z" /><glyph glyph-name="" unicode="è" d="M280 458 l-85 147 l-58 0 l108 -147 l35 0 ZM464 206 q-5 87 -63 144 q-57 56 -144 58 q-88 -2 -147 -61 q-59 -59 -61 -147 q2 -88 61 -147 q59 -59 147 -61 q72 1 125 42 q53 40 74 106 l-49 0 q-19 -46 -58 -73 q-40 -27 -92 -28 q-68 2 -113 45 q-46 44 -49 111 l369 0 l0 11 ZM257 361 q57 -1 100 -35 q42 -34 56 -88 l-313 0 q14 55 56 89 q42 33 101 34 l0 0 Z" /><glyph glyph-name="" unicode="&#x113;" d="M364 526 l-210 0 l0 -34 l210 0 l0 34 ZM464 206 q-5 87 -63 144 q-57 56 -144 58 q-88 -2 -147 -61 q-59 -59 -61 -147 q2 -88 61 -147 q59 -59 147 -61 q72 1 125 42 q53 40 74 106 l-49 0 q-19 -46 -58 -73 q-40 -27 -92 -28 q-68 2 -113 45 q-46 44 -49 111 l369 0 l0 11 ZM257 361 q57 -1 100 -35 q42 -34 56 -88 l-313 0 q14 55 56 89 q42 33 101 34 l0 0 Z" /><glyph glyph-name="" unicode="&#x119;" d="M464 206 q-5 87 -63 144 q-57 56 -144 58 q-88 -2 -147 -61 q-59 -59 -61 -147 q2 -88 61 -147 q59 -59 147 -61 q8 0 16 1 q7 0 15 1 q-18 -18 -29 -39 q-11 -22 -11 -47 q0 -38 23 -59 q22 -21 61 -23 q29 0 53 9 q24 10 44 30 l-16 24 q-15 -17 -33 -25 q-19 -9 -42 -9 q-28 0 -42 16 q-14 15 -14 41 q1 30 17 54 q16 24 41 43 q42 18 72 52 q30 34 44 79 l-49 0 q-19 -46 -58 -73 q-40 -27 -92 -28 q-68 2 -113 45 q-46 44 -49 111 l369 0 l0 11 ZM257 361 q57 -1 100 -35 q42 -34 56 -88 l-313 0 q14 55 56 89 q42 33 101 34 l0 0 Z" /><glyph glyph-name="" unicode="f" d="M258 400 l-110 0 l0 226 q1 29 19 46 q18 18 45 18 l45 -2 l0 35 q-9 5 -22 9 q-14 4 -28 4 q-45 -1 -75 -31 q-30 -29 -31 -73 l0 -232 l-67 0 l0 -46 l67 0 l0 -354 l47 0 l0 354 l110 0 l0 46 Z" /><glyph glyph-name="" unicode="g" d="M418 400 l0 -68 q-29 36 -70 56 q-42 20 -91 20 q-88 -2 -147 -60 q-59 -59 -61 -148 q2 -88 61 -147 q59 -59 147 -61 q49 0 91 21 q41 20 70 55 l0 -102 q-2 -68 -47 -114 q-46 -45 -114 -47 q-51 1 -91 28 q-39 27 -58 73 l-43 -20 q25 -58 76 -92 q51 -35 116 -36 q88 2 147 61 q59 59 61 147 l0 434 l-47 0 ZM257 39 q-69 2 -115 47 q-45 46 -47 114 q2 69 47 114 q46 45 115 47 q68 -2 114 -47 q45 -45 47 -114 q-2 -68 -47 -114 q-46 -45 -114 -47 l0 0 Z" /><glyph glyph-name="" unicode="&#x11f;" d="M257 456 q56 1 91 32 q36 32 37 85 l-31 0 q-1 -36 -27 -61 q-27 -24 -70 -25 q-42 1 -69 25 q-27 25 -28 61 l-31 0 q1 -53 37 -85 q35 -31 91 -32 l0 0 ZM418 400 l0 -68 q-29 36 -70 56 q-42 20 -91 20 q-88 -2 -147 -60 q-59 -59 -61 -148 q2 -88 61 -147 q59 -59 147 -61 q49 0 91 21 q41 20 70 55 l0 -102 q-2 -68 -47 -114 q-46 -45 -114 -47 q-51 1 -91 28 q-39 27 -58 73 l-43 -20 q25 -58 76 -92 q51 -35 116 -36 q88 2 147 61 q59 59 61 147 l0 434 l-47 0 ZM257 39 q-69 2 -115 47 q-45 46 -47 114 q2 69 47 114 q46 45 115 47 q68 -2 114 -47 q45 -45 47 -114 q-2 -68 -47 -114 q-46 -45 -114 -47 l0 0 Z" /><glyph glyph-name="" unicode="&#x123;" d="M347 600 l-35 0 l-85 -145 l58 0 l62 145 ZM418 400 l0 -68 q-29 36 -70 56 q-42 20 -91 20 q-88 -2 -147 -60 q-59 -59 -61 -148 q2 -88 61 -147 q59 -59 147 -61 q49 0 91 21 q41 20 70 55 l0 -102 q-2 -68 -47 -114 q-46 -45 -114 -47 q-51 1 -91 28 q-39 27 -58 73 l-43 -20 q25 -58 76 -92 q51 -35 116 -36 q88 2 147 61 q59 59 61 147 l0 434 l-47 0 ZM257 39 q-69 2 -115 47 q-45 46 -47 114 q2 69 47 114 q46 45 115 47 q68 -2 114 -47 q45 -45 47 -114 q-2 -68 -47 -114 q-46 -45 -114 -47 l0 0 Z" /><glyph glyph-name="" unicode="&#x121;" d="M257 467 q15 0 25 11 q11 10 11 25 q0 16 -11 26 q-10 11 -25 11 q-15 0 -26 -11 q-11 -10 -11 -26 q0 -15 11 -25 q11 -11 26 -11 l0 0 ZM418 400 l0 -68 q-29 36 -70 56 q-42 20 -91 20 q-88 -2 -147 -60 q-59 -59 -61 -148 q2 -88 61 -147 q59 -59 147 -61 q49 0 91 21 q41 20 70 55 l0 -102 q-2 -68 -47 -114 q-46 -45 -114 -47 q-51 1 -91 28 q-39 27 -58 73 l-43 -20 q25 -58 76 -92 q51 -35 116 -36 q88 2 147 61 q59 59 61 147 l0 434 l-47 0 ZM257 39 q-69 2 -115 47 q-45 46 -47 114 q2 69 47 114 q46 45 115 47 q68 -2 114 -47 q45 -45 47 -114 q-2 -68 -47 -114 q-46 -45 -114 -47 l0 0 Z" /><glyph glyph-name="" unicode="h" d="M226 408 q-29 0 -55 -11 q-26 -10 -46 -29 l0 368 l-47 0 l0 -736 l47 0 l0 257 q1 45 29 75 q29 29 71 30 q43 -1 72 -30 q29 -30 30 -75 l0 -257 l46 0 l0 257 q-2 65 -43 107 q-42 42 -104 44 l0 0 Z" /><glyph glyph-name="" unicode="&#x127;" d="M226 408 q-29 0 -55 -11 q-26 -10 -46 -29 l0 167 l117 0 l0 45 l-117 0 l0 156 l-47 0 l0 -156 l-57 0 l0 -45 l57 0 l0 -535 l47 0 l0 257 q1 45 29 75 q29 29 71 30 q43 -1 72 -30 q29 -30 30 -75 l0 -257 l46 0 l0 257 q-2 65 -43 107 q-42 42 -104 44 l0 0 Z" /><glyph glyph-name="" unicode="i" d="M110 477 q15 0 26 11 q11 10 11 25 q0 16 -11 26 q-11 11 -26 11 q-15 0 -26 -11 q-11 -10 -11 -26 q0 -15 11 -25 q11 -11 26 -11 l0 0 ZM87 0 l46 0 l0 400 l-46 0 l0 -400 Z" /><glyph glyph-name="" unicode="&#x131;" d="M83 0 l47 0 l0 400 l-47 0 l0 -400 Z" /><glyph glyph-name="" unicode="í" d="M86 453 l35 0 l108 147 l-58 0 l-85 -147 ZM83 0 l47 0 l0 400 l-47 0 l0 -400 Z" /><glyph glyph-name="" unicode="&#x1d0;" d="M83 453 l49 0 l78 147 l-40 0 l-62 -113 l-63 113 l-40 0 l78 -147 ZM83 0 l47 0 l0 400 l-47 0 l0 -400 Z" /><glyph glyph-name="" unicode="î" d="M44 453 l63 113 l62 -113 l40 0 l-78 147 l-49 0 l-78 -147 l40 0 ZM83 0 l47 0 l0 400 l-47 0 l0 -400 Z" /><glyph glyph-name="" unicode="ï" d="M38 477 q15 0 26 11 q11 10 11 25 q0 16 -11 26 q-11 11 -26 11 q-15 0 -26 -11 q-11 -10 -11 -26 q0 -15 11 -25 q11 -11 26 -11 l0 0 ZM175 477 q15 0 26 11 q11 10 11 25 q0 16 -11 26 q-11 11 -26 11 q-15 0 -26 -11 q-11 -10 -11 -26 q0 -15 11 -25 q11 -11 26 -11 l0 0 ZM83 0 l47 0 l0 400 l-47 0 l0 -400 Z" /><glyph glyph-name="" unicode="ì" d="M128 453 l-85 147 l-58 0 l108 -147 l35 0 ZM83 0 l47 0 l0 400 l-47 0 l0 -400 Z" /><glyph glyph-name="" unicode="&#x12b;" d="M2 487 l210 0 l0 34 l-210 0 l0 -34 ZM83 0 l47 0 l0 400 l-47 0 l0 -400 Z" /><glyph glyph-name="" unicode="&#x12f;" d="M107 467 q15 0 25 11 q11 10 11 25 q0 16 -11 26 q-10 11 -25 11 q-15 0 -26 -11 q-11 -10 -11 -26 q0 -15 11 -25 q11 -11 26 -11 l0 0 ZM166 -145 q-15 -17 -33 -25 q-19 -9 -42 -9 q-28 0 -42 16 q-14 15 -14 41 q1 40 29 70 q27 29 63 52 l3 0 l0 400 l-47 0 l0 -400 l5 0 q-38 -26 -62 -56 q-24 -30 -25 -70 q0 -38 23 -59 q22 -21 61 -23 q29 0 53 9 q24 10 44 30 l-16 24 Z" /><glyph glyph-name="" unicode="j" d="M113 477 q15 0 26 11 q11 10 11 25 q0 16 -11 26 q-11 11 -26 11 q-15 0 -26 -11 q-10 -10 -11 -26 q1 -15 11 -25 q11 -11 26 -11 l0 0 ZM31 -240 q44 1 74 31 q30 29 31 73 l0 536 l-46 0 l0 -530 q-1 -29 -19 -46 q-18 -18 -45 -18 l-45 2 l0 -35 q9 -5 22 -9 q14 -4 28 -4 l0 0 Z" /><glyph glyph-name="" unicode="&#x237;" d="M21 -240 q44 1 74 31 q30 29 31 73 l0 536 l-46 0 l0 -530 q-1 -29 -19 -46 q-18 -18 -45 -18 l-45 2 l0 -35 q8 -5 22 -9 q14 -4 28 -4 l0 0 Z" /><glyph glyph-name="" unicode="k" d="M84 0 l46 0 l0 736 l-46 0 l0 -736 ZM340 0 l65 0 l-209 223 l192 177 l-64 0 l-190 -176 l206 -224 Z" /><glyph glyph-name="" unicode="&#x137;" d="M84 0 l46 0 l0 736 l-46 0 l0 -736 ZM340 0 l65 0 l-209 223 l192 177 l-64 0 l-190 -176 l206 -224 ZM153 -193 l85 145 l-58 0 l-62 -145 l35 0 Z" /><glyph glyph-name="" unicode="l" d="M78 0 l47 0 l0 736 l-47 0 l0 -736 Z" /><glyph glyph-name="" unicode="&#x13a;" d="M80 789 l35 0 l108 147 l-58 0 l-85 -147 ZM78 0 l47 0 l0 736 l-47 0 l0 -736 Z" /><glyph glyph-name="" unicode="&#x13e;" d="M78 0 l47 0 l0 736 l-47 0 l0 -736 ZM211 495 l85 241 l-53 0 l-68 -241 l36 0 Z" /><glyph glyph-name="" unicode="&#x13c;" d="M78 0 l47 0 l0 736 l-47 0 l0 -736 ZM45 -193 l85 145 l-58 0 l-62 -145 l35 0 Z" /><glyph glyph-name="" unicode="&#x140;" d="M78 0 l47 0 l0 736 l-47 0 l0 -736 ZM189 257 q13 0 22 9 q10 8 10 22 q0 13 -10 22 q-9 9 -22 9 q-13 0 -22 -9 q-9 -9 -9 -22 q0 -14 9 -22 q9 -9 22 -9 l0 0 Z" /><glyph glyph-name="" unicode="&#x142;" d="M209 458 l-27 23 l-57 -61 l0 316 l-47 0 l0 -367 l-85 -91 l27 -23 l58 62 l0 -317 l47 0 l0 368 l84 90 Z" /><glyph glyph-name="" unicode="m" d="M462 408 q-38 0 -69 -18 q-32 -19 -51 -49 q-20 31 -50 49 q-31 18 -66 18 q-30 0 -56 -14 q-27 -14 -45 -38 l0 44 l-47 0 l0 -400 l47 0 l0 260 q1 44 28 72 q27 28 68 29 q42 -1 69 -29 q27 -28 28 -72 l0 -260 l47 0 l0 260 q1 44 28 72 q27 28 68 29 q42 -1 69 -29 q27 -28 28 -72 l0 -260 l46 0 l0 260 q-1 64 -41 105 q-40 42 -101 43 l0 0 Z" /><glyph glyph-name="" unicode="n" d="M234 408 q-32 0 -60 -13 q-28 -14 -49 -38 l0 43 l-47 0 l0 -400 l47 0 l0 257 q1 45 31 74 q29 30 74 31 q45 -1 74 -31 q30 -29 31 -74 l0 -257 l46 0 l0 257 q-2 65 -44 107 q-43 42 -103 44 l0 0 Z" /><glyph glyph-name="" unicode="&#x144;" d="M352 600 l-58 0 l-85 -147 l35 0 l108 147 ZM234 408 q-32 0 -60 -13 q-28 -14 -49 -38 l0 43 l-47 0 l0 -400 l47 0 l0 257 q1 45 31 74 q29 30 74 31 q45 -1 74 -31 q30 -29 31 -74 l0 -257 l46 0 l0 257 q-2 65 -44 107 q-43 42 -103 44 l0 0 Z" /><glyph glyph-name="" unicode="&#x148;" d="M255 453 l78 147 l-40 0 l-62 -113 l-63 113 l-40 0 l78 -147 l49 0 ZM234 408 q-32 0 -60 -13 q-28 -14 -49 -38 l0 43 l-47 0 l0 -400 l47 0 l0 257 q1 45 31 74 q29 30 74 31 q45 -1 74 -31 q30 -29 31 -74 l0 -257 l46 0 l0 257 q-2 65 -44 107 q-43 42 -103 44 l0 0 Z" /><glyph glyph-name="" unicode="&#x146;" d="M234 408 q-32 0 -60 -13 q-28 -14 -49 -38 l0 43 l-47 0 l0 -400 l47 0 l0 257 q1 45 31 74 q29 30 74 31 q45 -1 74 -31 q30 -29 31 -74 l0 -257 l46 0 l0 257 q-2 65 -44 107 q-43 42 -103 44 l0 0 ZM140 -193 l35 0 l85 145 l-58 0 l-62 -145 Z" /><glyph glyph-name="" unicode="&#x14b;" d="M234 408 q-32 0 -60 -13 q-28 -14 -49 -38 l0 43 l-47 0 l0 -400 l47 0 l0 257 q1 45 31 74 q29 30 74 31 q45 -1 74 -31 q30 -29 31 -74 l0 -371 q-1 -35 -16 -48 q-15 -14 -39 -11 l0 -33 q50 -2 75 22 q26 23 26 77 l0 364 q-2 65 -44 107 q-43 42 -103 44 l0 0 Z" /><glyph glyph-name="" unicode="ñ" d="M174 542 q12 0 22 -6 q9 -6 18 -20 q11 -18 28 -30 q18 -12 43 -12 q38 1 59 29 q21 27 21 70 l-36 0 q0 -30 -12 -46 q-12 -17 -32 -17 q-15 0 -24 7 q-10 7 -17 19 q-13 18 -30 30 q-17 12 -41 12 q-37 -1 -58 -28 q-21 -27 -21 -71 l36 0 q0 28 12 45 q11 17 32 18 l0 0 ZM234 408 q-32 0 -60 -13 q-28 -14 -49 -38 l0 43 l-47 0 l0 -400 l47 0 l0 257 q1 45 31 74 q29 30 74 31 q45 -1 74 -31 q30 -29 31 -74 l0 -257 l46 0 l0 257 q-2 65 -44 107 q-43 42 -103 44 l0 0 Z" /><glyph glyph-name="" unicode="o" d="M257 -8 q88 2 147 61 q59 59 61 147 q-2 88 -61 147 q-59 59 -147 61 q-88 -2 -147 -61 q-59 -59 -61 -147 q2 -88 61 -147 q59 -59 147 -61 l0 0 ZM257 39 q-69 2 -115 47 q-45 45 -47 114 q2 69 47 114 q46 45 115 47 q68 -2 114 -47 q45 -45 47 -114 q-2 -69 -47 -114 q-46 -45 -114 -47 l0 0 Z" /><glyph glyph-name="" unicode="ó" d="M236 453 l35 0 l108 147 l-58 0 l-85 -147 ZM257 -8 q88 2 147 61 q59 59 61 147 q-2 88 -61 147 q-59 59 -147 61 q-88 -2 -147 -61 q-59 -59 -61 -147 q2 -88 61 -147 q59 -59 147 -61 l0 0 ZM257 39 q-69 2 -115 47 q-45 45 -47 114 q2 69 47 114 q46 45 115 47 q68 -2 114 -47 q45 -45 47 -114 q-2 -69 -47 -114 q-46 -45 -114 -47 l0 0 Z" /><glyph glyph-name="" unicode="&#x1d2;" d="M233 453 l49 0 l78 147 l-40 0 l-62 -113 l-63 113 l-40 0 l78 -147 ZM257 -8 q88 2 147 61 q59 59 61 147 q-2 88 -61 147 q-59 59 -147 61 q-88 -2 -147 -61 q-59 -59 -61 -147 q2 -88 61 -147 q59 -59 147 -61 l0 0 ZM257 39 q-69 2 -115 47 q-45 45 -47 114 q2 69 47 114 q46 45 115 47 q68 -2 114 -47 q45 -45 47 -114 q-2 -69 -47 -114 q-46 -45 -114 -47 l0 0 Z" /><glyph glyph-name="" unicode="ô" d="M194 453 l63 113 l62 -113 l40 0 l-78 147 l-49 0 l-78 -147 l40 0 ZM257 -8 q88 2 147 61 q59 59 61 147 q-2 88 -61 147 q-59 59 -147 61 q-88 -2 -147 -61 q-59 -59 -61 -147 q2 -88 61 -147 q59 -59 147 -61 l0 0 ZM257 39 q-69 2 -115 47 q-45 45 -47 114 q2 69 47 114 q46 45 115 47 q68 -2 114 -47 q45 -45 47 -114 q-2 -69 -47 -114 q-46 -45 -114 -47 l0 0 Z" /><glyph glyph-name="" unicode="ö" d="M188 477 q15 0 26 11 q11 10 11 25 q0 16 -11 26 q-11 11 -26 11 q-15 0 -26 -11 q-11 -10 -11 -26 q0 -15 11 -25 q11 -11 26 -11 l0 0 ZM325 477 q15 0 26 11 q11 10 11 25 q0 16 -11 26 q-11 11 -26 11 q-15 0 -26 -11 q-11 -10 -11 -26 q0 -15 11 -25 q11 -11 26 -11 l0 0 ZM257 -8 q88 2 147 61 q59 59 61 147 q-2 88 -61 147 q-59 59 -147 61 q-88 -2 -147 -61 q-59 -59 -61 -147 q2 -88 61 -147 q59 -59 147 -61 l0 0 ZM257 39 q-69 2 -115 47 q-45 45 -47 114 q2 69 47 114 q46 45 115 47 q68 -2 114 -47 q45 -45 47 -114 q-2 -69 -47 -114 q-46 -45 -114 -47 l0 0 Z" /><glyph glyph-name="" unicode="ò" d="M278 453 l-85 147 l-58 0 l108 -147 l35 0 ZM257 -8 q88 2 147 61 q59 59 61 147 q-2 88 -61 147 q-59 59 -147 61 q-88 -2 -147 -61 q-59 -59 -61 -147 q2 -88 61 -147 q59 -59 147 -61 l0 0 ZM257 39 q-69 2 -115 47 q-45 45 -47 114 q2 69 47 114 q46 45 115 47 q68 -2 114 -47 q45 -45 47 -114 q-2 -69 -47 -114 q-46 -45 -114 -47 l0 0 Z" /><glyph glyph-name="" unicode="&#x151;" d="M168 453 l35 0 l107 147 l-58 0 l-84 -147 ZM298 453 l35 0 l107 147 l-58 0 l-84 -147 ZM257 -8 q88 2 147 61 q59 59 61 147 q-2 88 -61 147 q-59 59 -147 61 q-88 -2 -147 -61 q-59 -59 -61 -147 q2 -88 61 -147 q59 -59 147 -61 l0 0 ZM257 39 q-69 2 -115 47 q-45 45 -47 114 q2 69 47 114 q46 45 115 47 q68 -2 114 -47 q45 -45 47 -114 q-2 -69 -47 -114 q-46 -45 -114 -47 l0 0 Z" /><glyph glyph-name="" unicode="&#x14d;" d="M152 487 l210 0 l0 34 l-210 0 l0 -34 ZM257 -8 q88 2 147 61 q59 59 61 147 q-2 88 -61 147 q-59 59 -147 61 q-88 -2 -147 -61 q-59 -59 -61 -147 q2 -88 61 -147 q59 -59 147 -61 l0 0 ZM257 39 q-69 2 -115 47 q-45 45 -47 114 q2 69 47 114 q46 45 115 47 q68 -2 114 -47 q45 -45 47 -114 q-2 -69 -47 -114 q-46 -45 -114 -47 l0 0 Z" /><glyph glyph-name="" unicode="ø" d="M388 361 l42 60 l-25 17 l-41 -59 q-24 14 -51 21 q-27 8 -56 8 q-88 -2 -147 -61 q-59 -59 -61 -147 q0 -49 21 -91 q20 -41 56 -70 l-43 -61 l27 -17 l41 60 q23 -14 50 -22 q27 -7 56 -7 q88 2 147 61 q59 59 61 147 q0 49 -21 91 q-20 41 -56 70 l0 0 ZM95 200 q2 69 47 114 q46 45 115 47 q22 0 42 -6 q20 -5 38 -15 l-185 -263 q-27 22 -42 54 q-15 31 -15 69 l0 0 ZM257 39 q-22 0 -42 5 q-20 5 -37 15 l184 264 q26 -23 41 -54 q15 -31 15 -69 q-2 -69 -47 -114 q-46 -45 -114 -47 l0 0 Z" /><glyph glyph-name="" unicode="õ" d="M312 474 q38 1 59 29 q21 27 21 70 l-36 0 q0 -30 -12 -46 q-12 -17 -32 -17 q-15 0 -24 7 q-10 7 -17 19 q-13 18 -30 30 q-17 12 -41 12 q-37 -1 -58 -28 q-21 -27 -21 -71 l36 0 q0 28 12 45 q11 17 32 18 q12 0 22 -6 q9 -6 18 -20 q11 -18 28 -30 q18 -12 43 -12 l0 0 ZM257 -8 q88 2 147 61 q59 59 61 147 q-2 88 -61 147 q-59 59 -147 61 q-88 -2 -147 -61 q-59 -59 -61 -147 q2 -88 61 -147 q59 -59 147 -61 l0 0 ZM257 39 q-69 2 -115 47 q-45 45 -47 114 q2 69 47 114 q46 45 115 47 q68 -2 114 -47 q45 -45 47 -114 q-2 -69 -47 -114 q-46 -45 -114 -47 l0 0 Z" /><glyph glyph-name="" unicode="&#x153;" d="M835 206 q-5 87 -63 144 q-57 56 -144 58 q-62 -1 -110 -31 q-49 -31 -75 -83 q-27 52 -76 83 q-48 30 -110 31 q-88 -2 -147 -61 q-59 -59 -61 -147 q2 -88 61 -147 q59 -59 147 -61 q62 1 110 32 q49 30 76 82 q26 -52 75 -82 q48 -31 110 -32 q72 1 125 42 q53 40 74 106 l-49 0 q-19 -46 -58 -73 q-40 -27 -92 -28 q-68 2 -113 45 q-46 44 -49 111 l369 0 l0 11 ZM257 39 q-69 2 -115 47 q-45 45 -47 114 q2 69 47 114 q46 45 115 47 q68 -2 114 -47 q45 -45 47 -114 q-2 -69 -47 -114 q-46 -45 -114 -47 l0 0 ZM628 361 q57 -1 100 -35 q42 -34 56 -88 l-313 0 q14 55 56 89 q42 33 101 34 l0 0 Z" /><glyph glyph-name="" unicode="p" d="M286 408 q-49 0 -91 -21 q-41 -20 -70 -55 l0 68 l-47 0 l0 -640 l47 0 l0 308 q29 -35 70 -55 q42 -21 91 -21 q88 2 147 61 q59 59 61 147 q-2 88 -61 147 q-59 59 -147 61 l0 0 ZM286 39 q-69 2 -114 47 q-45 45 -47 114 q2 69 47 114 q45 45 114 47 q69 -2 114 -47 q46 -45 48 -114 q-2 -69 -48 -114 q-45 -45 -114 -47 l0 0 Z" /><glyph glyph-name="" unicode="þ" d="M292 408 q-50 0 -91 -21 q-42 -20 -71 -56 l0 333 l-46 0 l0 -904 l46 0 l0 309 q29 -36 71 -56 q41 -21 91 -21 q88 2 147 61 q59 59 61 147 q-2 88 -61 147 q-59 59 -147 61 l0 0 ZM292 39 q-69 2 -115 47 q-45 45 -47 114 q2 69 47 114 q46 45 115 47 q68 -2 114 -47 q45 -45 47 -114 q-2 -69 -47 -114 q-46 -45 -114 -47 l0 0 Z" /><glyph glyph-name="" unicode="q" d="M529 -194 q-27 0 -45 18 q-18 17 -19 46 l0 530 l-47 0 l0 -68 q-29 35 -70 55 q-42 21 -91 21 q-88 -2 -147 -61 q-59 -59 -61 -147 q2 -88 61 -147 q59 -59 147 -61 q49 0 91 21 q41 20 70 55 l0 -204 q1 -44 31 -73 q30 -30 75 -31 q11 0 21 2 q11 2 20 6 l0 38 l-36 0 ZM257 39 q-69 2 -115 47 q-45 45 -47 114 q2 69 47 114 q46 45 115 47 q68 -2 114 -47 q45 -45 47 -114 q-2 -69 -47 -114 q-46 -45 -114 -47 l0 0 Z" /><glyph glyph-name="" unicode="r" d="M260 408 q-44 0 -78 -19 q-35 -19 -57 -51 l0 62 l-47 0 l0 -400 l47 0 l0 229 q1 57 39 94 q38 37 96 38 q9 0 18 -1 q8 -1 15 -3 l0 48 q-15 3 -33 3 l0 0 Z" /><glyph glyph-name="" unicode="&#x155;" d="M300 600 l-58 0 l-85 -147 l35 0 l108 147 ZM125 338 l0 62 l-47 0 l0 -400 l47 0 l0 229 q1 57 39 94 q38 37 96 38 q9 0 18 -1 q8 -1 15 -3 l0 48 q-15 3 -33 3 q-44 0 -78 -19 q-35 -19 -57 -51 l0 0 Z" /><glyph glyph-name="" unicode="&#x159;" d="M203 453 l78 147 l-40 0 l-62 -113 l-63 113 l-40 0 l78 -147 l49 0 ZM260 408 q-44 0 -78 -19 q-35 -19 -57 -51 l0 62 l-47 0 l0 -400 l47 0 l0 229 q1 57 39 94 q38 37 96 38 q9 0 18 -1 q8 -1 15 -3 l0 48 q-15 3 -33 3 l0 0 Z" /><glyph glyph-name="" unicode="&#x157;" d="M260 408 q-44 0 -78 -19 q-35 -19 -57 -51 l0 62 l-47 0 l0 -400 l47 0 l0 229 q1 57 39 94 q38 37 96 38 q9 0 18 -1 q8 -1 15 -3 l0 48 q-15 3 -33 3 l0 0 ZM10 -193 l35 0 l85 145 l-58 0 l-62 -145 Z" /><glyph glyph-name="" unicode="s" d="M174 -8 q52 1 88 31 q35 30 36 80 q-2 53 -36 79 q-34 26 -76 41 q-37 14 -59 30 q-22 16 -23 47 q1 32 21 47 q19 14 47 14 q21 0 39 -8 q18 -9 29 -27 l40 22 q-13 25 -43 42 q-30 17 -67 18 q-43 0 -77 -28 q-34 -27 -36 -82 q1 -48 31 -74 q31 -27 81 -45 q37 -13 59 -30 q22 -16 23 -45 q-1 -32 -23 -49 q-22 -17 -54 -17 q-32 1 -58 16 q-26 16 -33 40 l-45 -18 q13 -36 51 -60 q37 -23 85 -24 l0 0 Z" /><glyph glyph-name="" unicode="&#x15b;" d="M155 453 l35 0 l108 147 l-58 0 l-85 -147 ZM174 -8 q52 1 88 31 q35 30 36 80 q-2 53 -36 79 q-34 26 -76 41 q-37 14 -59 30 q-22 16 -23 47 q1 32 21 47 q19 14 47 14 q21 0 39 -8 q18 -9 29 -27 l40 22 q-13 25 -43 42 q-30 17 -67 18 q-43 0 -77 -28 q-34 -27 -36 -82 q1 -48 31 -74 q31 -27 81 -45 q37 -13 59 -30 q22 -16 23 -45 q-1 -32 -23 -49 q-22 -17 -54 -17 q-32 1 -58 16 q-26 16 -33 40 l-45 -18 q13 -36 51 -60 q37 -23 85 -24 l0 0 Z" /><glyph glyph-name="" unicode="&#x161;" d="M152 453 l49 0 l78 147 l-40 0 l-62 -113 l-63 113 l-40 0 l78 -147 ZM174 -8 q52 1 88 31 q35 30 36 80 q-2 53 -36 79 q-34 26 -76 41 q-37 14 -59 30 q-22 16 -23 47 q1 32 21 47 q19 14 47 14 q21 0 39 -8 q18 -9 29 -27 l40 22 q-13 25 -43 42 q-30 17 -67 18 q-43 0 -77 -28 q-34 -27 -36 -82 q1 -48 31 -74 q31 -27 81 -45 q37 -13 59 -30 q22 -16 23 -45 q-1 -32 -23 -49 q-22 -17 -54 -17 q-32 1 -58 16 q-26 16 -33 40 l-45 -18 q13 -36 51 -60 q37 -23 85 -24 l0 0 Z" /><glyph glyph-name="" unicode="&#x15f;" d="M298 103 q-2 53 -36 79 q-34 26 -76 41 q-37 14 -59 30 q-22 16 -23 47 q1 32 21 47 q19 14 47 14 q21 0 39 -8 q18 -9 29 -27 l40 22 q-13 25 -43 42 q-30 17 -67 18 q-43 0 -77 -28 q-34 -27 -36 -82 q1 -48 31 -74 q31 -27 81 -45 q37 -13 59 -30 q22 -16 23 -45 q-1 -32 -23 -49 q-22 -17 -54 -17 q-32 1 -58 16 q-26 16 -33 40 l-45 -18 q11 -32 44 -55 q32 -23 74 -28 l-31 -62 l25 -17 q37 12 61 0 q23 -12 24 -42 q-1 -21 -14 -35 q-14 -14 -35 -15 q-18 0 -36 9 q-19 9 -29 22 l-27 -13 q13 -21 39 -34 q26 -14 53 -14 q34 1 56 24 q22 22 23 56 q-1 40 -30 60 q-28 20 -72 12 l22 48 q48 5 80 35 q32 30 33 76 l0 0 Z" /><glyph glyph-name="" unicode="&#x219;" d="M174 -8 q52 1 88 31 q35 30 36 80 q-2 53 -36 79 q-34 26 -76 41 q-37 14 -59 30 q-22 16 -23 47 q1 32 21 47 q19 14 47 14 q21 0 39 -8 q18 -9 29 -27 l40 22 q-13 25 -43 42 q-30 17 -67 18 q-43 0 -77 -28 q-34 -27 -36 -82 q1 -48 31 -74 q31 -27 81 -45 q37 -13 59 -30 q22 -16 23 -45 q-1 -32 -23 -49 q-22 -17 -54 -17 q-32 1 -58 16 q-26 16 -33 40 l-45 -18 q13 -36 51 -60 q37 -23 85 -24 l0 0 ZM118 -193 l85 145 l-58 0 l-62 -145 l35 0 Z" /><glyph glyph-name="" unicode="ß" d="M368 303 q33 23 52 58 q19 35 19 79 q-1 70 -49 115 q-48 44 -126 45 q-79 -1 -129 -47 q-49 -46 -51 -119 l0 -434 l46 0 l0 434 q1 55 39 89 q37 34 96 35 q58 -1 94 -34 q35 -33 36 -86 q-1 -53 -35 -87 q-34 -35 -86 -36 l-22 0 l0 -40 l51 0 q53 -1 87 -35 q35 -34 36 -86 q-1 -50 -34 -78 q-33 -28 -80 -28 l-112 0 l0 -48 l119 0 q65 1 109 42 q43 41 45 110 q-1 53 -29 93 q-29 40 -76 58 l0 0 Z" /><glyph glyph-name="" unicode="t" d="M250 354 l0 46 l-110 0 l0 174 l-47 0 l0 -174 l-67 0 l0 -46 l67 0 l0 -258 q1 -44 31 -73 q30 -30 75 -31 q14 0 28 4 q13 4 22 9 l0 33 l-45 0 q-27 0 -45 18 q-18 17 -19 46 l0 252 l110 0 Z" /><glyph glyph-name="" unicode="&#x167;" d="M250 354 l0 46 l-110 0 l0 174 l-47 0 l0 -174 l-67 0 l0 -46 l67 0 l0 -132 l-67 0 l0 -45 l67 0 l0 -81 q1 -44 31 -73 q30 -30 75 -31 q14 0 28 4 q13 4 22 9 l0 33 l-45 0 q-27 0 -45 18 q-18 17 -19 46 l0 75 l107 0 l0 45 l-107 0 l0 132 l110 0 Z" /><glyph glyph-name="" unicode="&#x165;" d="M290 672 l-68 -241 l36 0 l85 241 l-53 0 ZM140 574 l-47 0 l0 -174 l-67 0 l0 -46 l67 0 l0 -258 q1 -44 31 -73 q30 -30 75 -31 q14 0 28 4 q13 4 22 9 l0 33 l-45 0 q-27 0 -45 18 q-18 17 -19 46 l0 252 l110 0 l0 46 l-110 0 l0 174 Z" /><glyph glyph-name="" unicode="&#x163;" d="M188 -56 l23 49 q11 2 21 5 q10 3 17 7 l0 33 l-45 0 q-27 0 -45 18 q-18 17 -19 46 l0 252 l110 0 l0 46 l-110 0 l0 174 l-47 0 l0 -174 l-67 0 l0 -46 l67 0 l0 -258 q1 -39 25 -67 q25 -28 63 -35 l-31 -63 l25 -17 q37 12 61 0 q23 -12 24 -42 q-1 -21 -14 -35 q-14 -14 -35 -15 q-18 0 -36 9 q-19 9 -29 22 l-27 -13 q13 -21 39 -34 q26 -14 53 -14 q34 1 56 24 q22 22 23 56 q-1 40 -30 60 q-28 20 -72 12 l0 0 Z" /><glyph glyph-name="" unicode="&#x21b;" d="M250 354 l0 46 l-110 0 l0 174 l-47 0 l0 -174 l-67 0 l0 -46 l67 0 l0 -258 q1 -44 31 -73 q30 -30 75 -31 q14 0 28 4 q13 4 22 9 l0 33 l-45 0 q-27 0 -45 18 q-18 17 -19 46 l0 252 l110 0 ZM108 -193 l35 0 l85 145 l-58 0 l-62 -145 Z" /><glyph glyph-name="" unicode="u" d="M211 -8 q66 1 106 43 q40 41 41 110 l0 255 l-46 0 l0 -250 q-1 -50 -29 -80 q-28 -30 -72 -31 q-43 1 -71 31 q-28 30 -29 80 l0 250 l-46 0 l0 -255 q1 -69 41 -110 q39 -42 105 -43 l0 0 Z" /><glyph glyph-name="" unicode="ú" d="M192 453 l35 0 l108 147 l-58 0 l-85 -147 ZM211 -8 q66 1 106 43 q40 41 41 110 l0 255 l-46 0 l0 -250 q-1 -50 -29 -80 q-28 -30 -72 -31 q-43 1 -71 31 q-28 30 -29 80 l0 250 l-46 0 l0 -255 q1 -69 41 -110 q39 -42 105 -43 l0 0 Z" /><glyph glyph-name="" unicode="&#x1d4;" d="M189 453 l49 0 l78 147 l-40 0 l-62 -113 l-63 113 l-40 0 l78 -147 ZM211 -8 q66 1 106 43 q40 41 41 110 l0 255 l-46 0 l0 -250 q-1 -50 -29 -80 q-28 -30 -72 -31 q-43 1 -71 31 q-28 30 -29 80 l0 250 l-46 0 l0 -255 q1 -69 41 -110 q39 -42 105 -43 l0 0 Z" /><glyph glyph-name="" unicode="û" d="M150 453 l63 113 l62 -113 l40 0 l-78 147 l-49 0 l-78 -147 l40 0 ZM211 -8 q66 1 106 43 q40 41 41 110 l0 255 l-46 0 l0 -250 q-1 -50 -29 -80 q-28 -30 -72 -31 q-43 1 -71 31 q-28 30 -29 80 l0 250 l-46 0 l0 -255 q1 -69 41 -110 q39 -42 105 -43 l0 0 Z" /><glyph glyph-name="" unicode="ü" d="M144 477 q15 0 26 11 q11 10 11 25 q0 16 -11 26 q-11 11 -26 11 q-15 0 -26 -11 q-11 -10 -11 -26 q0 -15 11 -25 q11 -11 26 -11 l0 0 ZM281 477 q15 0 26 11 q11 10 11 25 q0 16 -11 26 q-11 11 -26 11 q-15 0 -26 -11 q-11 -10 -11 -26 q0 -15 11 -25 q11 -11 26 -11 l0 0 ZM211 -8 q66 1 106 43 q40 41 41 110 l0 255 l-46 0 l0 -250 q-1 -50 -29 -80 q-28 -30 -72 -31 q-43 1 -71 31 q-28 30 -29 80 l0 250 l-46 0 l0 -255 q1 -69 41 -110 q39 -42 105 -43 l0 0 Z" /><glyph glyph-name="" unicode="ù" d="M234 453 l-85 147 l-58 0 l108 -147 l35 0 ZM211 -8 q66 1 106 43 q40 41 41 110 l0 255 l-46 0 l0 -250 q-1 -50 -29 -80 q-28 -30 -72 -31 q-43 1 -71 31 q-28 30 -29 80 l0 250 l-46 0 l0 -255 q1 -69 41 -110 q39 -42 105 -43 l0 0 Z" /><glyph glyph-name="" unicode="&#x171;" d="M124 453 l35 0 l107 147 l-58 0 l-84 -147 ZM254 453 l35 0 l107 147 l-58 0 l-84 -147 ZM211 -8 q66 1 106 43 q40 41 41 110 l0 255 l-46 0 l0 -250 q-1 -50 -29 -80 q-28 -30 -72 -31 q-43 1 -71 31 q-28 30 -29 80 l0 250 l-46 0 l0 -255 q1 -69 41 -110 q39 -42 105 -43 l0 0 Z" /><glyph glyph-name="" unicode="&#x16b;" d="M108 487 l210 0 l0 34 l-210 0 l0 -34 ZM211 -8 q66 1 106 43 q40 41 41 110 l0 255 l-46 0 l0 -250 q-1 -50 -29 -80 q-28 -30 -72 -31 q-43 1 -71 31 q-28 30 -29 80 l0 250 l-46 0 l0 -255 q1 -69 41 -110 q39 -42 105 -43 l0 0 Z" /><glyph glyph-name="" unicode="&#x173;" d="M281 8 q36 18 56 54 q21 35 21 83 l0 255 l-46 0 l0 -250 q-1 -50 -29 -80 q-28 -30 -72 -31 q-43 1 -71 31 q-28 30 -29 80 l0 250 l-46 0 l0 -255 q1 -69 41 -110 q39 -42 105 -43 q8 0 14 1 q-22 -21 -35 -44 q-14 -23 -14 -52 q0 -38 23 -59 q22 -21 61 -23 q29 0 53 9 q24 10 44 30 l-16 24 q-15 -17 -33 -25 q-19 -9 -42 -9 q-28 0 -42 16 q-14 15 -14 41 q1 34 21 60 q21 26 50 47 l0 0 Z" /><glyph glyph-name="" unicode="&#x16f;" d="M213 440 q33 1 55 23 q22 23 23 55 q-1 33 -23 55 q-22 22 -55 23 q-33 -1 -55 -23 q-22 -22 -23 -55 q1 -32 23 -55 q22 -22 55 -23 l0 0 ZM213 468 q-21 1 -35 15 q-14 14 -14 35 q0 22 14 36 q14 14 35 15 q22 -1 36 -15 q14 -14 14 -36 q0 -21 -14 -35 q-14 -14 -36 -15 l0 0 ZM211 -8 q66 1 106 43 q40 41 41 110 l0 255 l-46 0 l0 -250 q-1 -50 -29 -80 q-28 -30 -72 -31 q-43 1 -71 31 q-28 30 -29 80 l0 250 l-46 0 l0 -255 q1 -69 41 -110 q39 -42 105 -43 l0 0 Z" /><glyph glyph-name="" unicode="v" d="M331 400 l-134 -344 l-133 344 l-50 0 l160 -400 l46 0 l160 400 l-49 0 Z" /><glyph glyph-name="" unicode="w" d="M572 400 l-115 -345 l-116 345 l-45 0 l-116 -345 l-114 345 l-52 0 l138 -400 l52 0 l115 336 l114 -336 l52 0 l137 400 l-50 0 Z" /><glyph glyph-name="" unicode="&#x1e83;" d="M441 600 l-58 0 l-85 -147 l35 0 l108 147 ZM572 400 l-115 -345 l-116 345 l-45 0 l-116 -345 l-114 345 l-52 0 l138 -400 l52 0 l115 336 l114 -336 l52 0 l137 400 l-50 0 Z" /><glyph glyph-name="" unicode="&#x175;" d="M319 566 l62 -113 l40 0 l-78 147 l-49 0 l-78 -147 l40 0 l63 113 ZM572 400 l-115 -345 l-116 345 l-45 0 l-116 -345 l-114 345 l-52 0 l138 -400 l52 0 l115 336 l114 -336 l52 0 l137 400 l-50 0 Z" /><glyph glyph-name="" unicode="&#x1e85;" d="M250 477 q15 0 26 11 q11 10 11 25 q0 16 -11 26 q-11 11 -26 11 q-15 0 -26 -11 q-11 -10 -11 -26 q0 -15 11 -25 q11 -11 26 -11 l0 0 ZM387 477 q15 0 26 11 q11 10 11 25 q0 16 -11 26 q-11 11 -26 11 q-15 0 -26 -11 q-11 -10 -11 -26 q0 -15 11 -25 q11 -11 26 -11 l0 0 ZM572 400 l-115 -345 l-116 345 l-45 0 l-116 -345 l-114 345 l-52 0 l138 -400 l52 0 l115 336 l114 -336 l52 0 l137 400 l-50 0 Z" /><glyph glyph-name="" unicode="&#x1e81;" d="M340 453 l-85 147 l-58 0 l108 -147 l35 0 ZM572 400 l-115 -345 l-116 345 l-45 0 l-116 -345 l-114 345 l-52 0 l138 -400 l52 0 l115 336 l114 -336 l52 0 l137 400 l-50 0 Z" /><glyph glyph-name="" unicode="x" d="M403 400 l-57 0 l-137 -166 l-138 166 l-57 0 l166 -200 l-166 -200 l57 0 l138 166 l137 -166 l57 0 l-166 200 l166 200 Z" /><glyph glyph-name="" unicode="y" d="M335 400 l-133 -345 l-136 345 l-52 0 l163 -403 l-96 -237 l50 0 l257 640 l-53 0 Z" /><glyph glyph-name="" unicode="ý" d="M323 600 l-58 0 l-85 -147 l35 0 l108 147 ZM335 400 l-133 -345 l-136 345 l-52 0 l163 -403 l-96 -237 l50 0 l257 640 l-53 0 Z" /><glyph glyph-name="" unicode="&#x177;" d="M201 566 l62 -113 l40 0 l-78 147 l-49 0 l-78 -147 l40 0 l63 113 ZM335 400 l-133 -345 l-136 345 l-52 0 l163 -403 l-96 -237 l50 0 l257 640 l-53 0 Z" /><glyph glyph-name="" unicode="ÿ" d="M132 477 q15 0 26 11 q11 10 11 25 q0 16 -11 26 q-11 11 -26 11 q-15 0 -26 -11 q-11 -10 -11 -26 q0 -15 11 -25 q11 -11 26 -11 l0 0 ZM269 477 q15 0 26 11 q11 10 11 25 q0 16 -11 26 q-11 11 -26 11 q-15 0 -26 -11 q-11 -10 -11 -26 q0 -15 11 -25 q11 -11 26 -11 l0 0 ZM335 400 l-133 -345 l-136 345 l-52 0 l163 -403 l-96 -237 l50 0 l257 640 l-53 0 Z" /><glyph glyph-name="" unicode="&#x1ef3;" d="M222 453 l-85 147 l-58 0 l108 -147 l35 0 ZM335 400 l-133 -345 l-136 345 l-52 0 l163 -403 l-96 -237 l50 0 l257 640 l-53 0 Z" /><glyph glyph-name="" unicode="z" d="M126 47 l253 353 l-327 0 l0 -47 l238 0 l-252 -353 l344 0 l0 47 l-256 0 Z" /><glyph glyph-name="" unicode="&#x17a;" d="M340 600 l-58 0 l-85 -147 l35 0 l108 147 ZM126 47 l253 353 l-327 0 l0 -47 l238 0 l-252 -353 l344 0 l0 47 l-256 0 Z" /><glyph glyph-name="" unicode="&#x17e;" d="M243 453 l78 147 l-40 0 l-62 -113 l-63 113 l-40 0 l78 -147 l49 0 ZM126 47 l253 353 l-327 0 l0 -47 l238 0 l-252 -353 l344 0 l0 47 l-256 0 Z" /><glyph glyph-name="" unicode="&#x17c;" d="M218 467 q15 0 25 11 q11 10 11 25 q0 16 -11 26 q-10 11 -25 11 q-15 0 -26 -11 q-11 -10 -11 -26 q0 -15 11 -25 q11 -11 26 -11 l0 0 ZM126 47 l253 353 l-327 0 l0 -47 l238 0 l-252 -353 l344 0 l0 47 l-256 0 Z" /><glyph glyph-name="" unicode="&#xfb01;" d="M148 626 q1 29 19 46 q18 18 45 18 l45 -2 l0 35 q-9 5 -22 9 q-14 4 -28 4 q-45 -1 -75 -31 q-30 -29 -31 -73 l0 -232 l-67 0 l0 -46 l67 0 l0 -354 l47 0 l0 354 l110 0 l0 46 l-110 0 l0 226 ZM387 550 q-15 0 -26 -11 q-11 -10 -11 -26 q0 -15 11 -25 q11 -11 26 -11 q15 0 26 11 q11 10 11 25 q0 16 -11 26 q-11 11 -26 11 l0 0 ZM364 0 l46 0 l0 400 l-46 0 l0 -400 Z" /><glyph glyph-name="" unicode="&#xfb02;" d="M148 626 q1 29 19 46 q18 18 45 18 l45 -2 l0 35 q-9 5 -22 9 q-14 4 -28 4 q-45 -1 -75 -31 q-30 -29 -31 -73 l0 -232 l-67 0 l0 -46 l67 0 l0 -354 l47 0 l0 354 l110 0 l0 46 l-110 0 l0 226 ZM355 736 l0 -736 l47 0 l0 736 l-47 0 Z" /><glyph glyph-name="" unicode="ª" d="M267 600 l0 -59 q-15 28 -42 45 q-27 18 -63 18 q-52 -1 -86 -36 q-35 -36 -36 -88 q1 -54 36 -89 q34 -35 86 -36 q36 0 63 17 q27 17 42 46 l0 -58 l28 0 l0 240 l-28 0 ZM167 380 q-42 1 -70 29 q-28 28 -29 71 q1 42 29 69 q28 28 70 29 q42 -1 71 -29 q28 -27 29 -69 q-1 -43 -29 -71 q-29 -28 -71 -29 l0 0 Z" /><glyph glyph-name="" unicode="º" d="M167 355 q55 1 91 36 q36 35 37 89 q-1 52 -37 88 q-36 35 -91 36 q-54 -1 -90 -36 q-36 -36 -37 -88 q1 -54 37 -89 q36 -35 90 -36 l0 0 ZM167 380 q-42 1 -70 29 q-28 28 -29 71 q1 42 29 69 q28 28 70 29 q42 -1 71 -29 q28 -27 29 -69 q-1 -43 -29 -71 q-29 -28 -71 -29 l0 0 Z" /><glyph glyph-name="" unicode="&#x394;" d="M320 600 l-53 0 l-241 -600 l535 0 l-241 600 ZM96 43 l198 502 l197 -502 l-395 0 Z" /><glyph glyph-name="" unicode="&#x3a9;" d="M60 0 l224 0 l0 26 q-63 31 -111 104 q-49 73 -52 175 q1 108 68 182 q67 74 182 77 q118 -5 180 -84 q63 -79 63 -173 q-3 -106 -51 -178 q-49 -72 -113 -103 l0 -26 l225 0 l0 36 l-147 0 l0 6 q51 35 91 105 q40 71 42 165 q-2 117 -80 201 q-78 83 -211 87 q-130 -3 -212 -83 q-81 -81 -84 -206 q2 -93 40 -161 q38 -69 92 -108 l0 -6 l-146 0 l0 -36 Z" /><glyph glyph-name="" unicode="&#x3bc;" d="M364 400 l0 -246 q-1 -51 -36 -85 q-34 -34 -86 -35 q-51 1 -85 35 q-34 34 -35 85 l0 246 l-46 0 l0 -600 l37 0 l0 247 q21 -26 52 -40 q30 -15 66 -15 q42 0 77 20 q35 20 56 54 l0 -66 l46 0 l0 400 l-46 0 Z" /><glyph glyph-name="" unicode="&#x3c0;" d="M75 0 l44 0 q28 65 50 185 q21 120 26 212 l207 0 l0 -277 q0 -47 3 -77 q4 -30 11 -43 l45 0 q-7 19 -11 49 q-4 30 -4 79 l0 269 l87 0 l4 35 l-386 0 q-50 0 -80 -6 q-31 -6 -48 -15 l6 -27 q16 6 43 10 q28 3 78 3 q-6 -104 -27 -216 q-20 -112 -48 -181 l0 0 Z" /><glyph glyph-name="" unicode="0" d="M281 -8 q103 3 158 89 q54 86 55 219 q-1 133 -55 219 q-55 86 -158 89 q-103 -3 -158 -89 q-55 -86 -55 -219 q0 -133 55 -219 q55 -86 158 -89 l0 0 ZM281 40 q-81 2 -123 74 q-42 72 -42 186 q0 114 42 186 q42 72 123 74 q81 -2 123 -74 q42 -72 42 -186 q0 -114 -42 -186 q-42 -72 -123 -74 l0 0 Z" /><glyph glyph-name="" unicode="1" d="M147 0 l48 0 l0 600 l-148 0 l0 -48 l100 0 l0 -552 Z" /><glyph glyph-name="" unicode="2" d="M138 48 l181 190 q67 72 92 116 q25 43 22 91 q-5 77 -53 119 q-49 43 -121 44 q-79 0 -130 -46 q-51 -47 -54 -127 l52 0 q2 59 38 93 q36 33 92 32 q54 -1 89 -33 q35 -32 36 -92 q1 -32 -19 -67 q-21 -35 -80 -98 l-255 -270 l427 0 l0 48 l-317 0 Z" /><glyph glyph-name="" unicode="3" d="M240 350 l-34 0 l200 250 l-346 0 l0 -48 l250 0 l-198 -250 l130 0 q57 -1 94 -36 q38 -35 39 -92 q-1 -57 -39 -95 q-37 -38 -94 -39 q-55 1 -93 37 q-37 35 -39 90 l-50 -1 q2 -74 53 -123 q51 -49 129 -51 q78 2 129 53 q51 51 53 127 q-2 77 -54 127 q-52 49 -130 51 l0 0 Z" /><glyph glyph-name="" unicode="4" d="M436 174 l-66 0 l0 426 l-59 0 l-281 -474 l292 0 l0 -126 l48 0 l0 126 l66 0 l0 48 ZM106 174 l216 370 l0 -370 l-216 0 Z" /><glyph glyph-name="" unicode="5" d="M251 395 q-34 0 -65 -11 q-31 -10 -55 -29 l26 195 l254 0 l0 48 l-296 0 l-36 -275 l43 -26 q24 24 54 37 q31 13 66 13 q66 -1 110 -44 q43 -42 45 -110 q-1 -65 -44 -108 q-43 -43 -119 -45 q-45 -1 -92 19 q-46 20 -82 69 l-5 0 l-6 -57 q32 -38 82 -58 q50 -21 104 -21 q96 2 152 58 q57 57 58 144 q-2 87 -56 143 q-54 56 -138 58 l0 0 Z" /><glyph glyph-name="" unicode="6" d="M472 208 q-8 88 -69 139 q-61 51 -137 50 q-17 -1 -31 -4 q-14 -3 -25 -8 l182 215 l-62 0 l-216 -268 q-27 -30 -41 -68 q-14 -37 -12 -80 q7 -85 68 -139 q61 -54 150 -51 q86 7 141 67 q55 60 52 147 l0 0 ZM277 41 q-69 -3 -116 37 q-47 40 -53 107 q-3 69 38 117 q41 47 110 53 q69 3 116 -38 q47 -41 53 -110 q3 -68 -38 -114 q-40 -46 -110 -52 l0 0 Z" /><glyph glyph-name="" unicode="7" d="M46 600 l0 -48 l333 0 l-320 -552 l58 0 l325 572 l0 28 l-396 0 Z" /><glyph glyph-name="" unicode="8" d="M309 333 q36 19 56 52 q21 34 21 76 q-1 63 -44 104 q-42 42 -108 43 q-66 -1 -108 -43 q-43 -41 -44 -104 q0 -42 21 -76 q20 -33 56 -52 q-50 -21 -80 -64 q-29 -42 -30 -98 q2 -77 54 -127 q51 -50 131 -52 q80 2 132 52 q52 50 54 127 q-1 56 -31 98 q-30 43 -80 64 l0 0 ZM127 455 q1 46 31 76 q31 30 76 31 q46 -1 76 -31 q30 -30 31 -76 q-1 -45 -31 -75 q-30 -30 -76 -31 q-45 1 -76 31 q-30 30 -31 75 l0 0 ZM234 35 q-58 2 -97 41 q-39 39 -40 98 q1 58 40 97 q39 39 97 40 q58 -1 97 -40 q39 -39 40 -97 q-1 -59 -40 -98 q-39 -39 -97 -41 l0 0 Z" /><glyph glyph-name="" unicode="9" d="M472 416 q-7 85 -68 139 q-61 54 -149 51 q-87 -7 -142 -67 q-55 -60 -52 -147 q8 -88 69 -139 q61 -51 137 -50 q17 1 31 4 q14 3 25 8 l-182 -215 l62 0 l217 268 q26 30 40 68 q15 37 12 80 l0 0 ZM277 245 q-69 -3 -116 38 q-47 41 -53 110 q-3 68 38 114 q40 46 110 52 q69 3 116 -37 q47 -40 53 -107 q3 -69 -38 -116 q-41 -48 -110 -54 l0 0 Z" /><glyph glyph-name="" unicode="&#x2044;" d="M-13 0 l37 0 l419 600 l-38 0 l-418 -600 Z" /><glyph glyph-name="" unicode="½" d="M146 200 l0 400 l-99 0 l0 -32 l67 0 l0 -368 l32 0 ZM563 600 l-418 -600 l37 0 l419 600 l-38 0 ZM604 32 l121 127 q44 48 61 77 q17 29 15 61 q-3 51 -36 80 q-32 28 -80 29 q-53 0 -87 -31 q-34 -32 -36 -85 l35 0 q1 39 25 62 q24 22 61 22 q36 -1 60 -22 q23 -21 24 -62 q1 -22 -13 -45 q-13 -23 -53 -65 l-170 -180 l284 0 l0 32 l-211 0 Z" /><glyph glyph-name="" unicode="¼" d="M47 568 l67 0 l0 -368 l32 0 l0 400 l-99 0 l0 -32 ZM574 598 l-418 -600 l37 0 l419 600 l-38 0 ZM782 116 l-44 0 l0 284 l-40 0 l-187 -316 l195 0 l0 -84 l32 0 l0 84 l44 0 l0 32 ZM561 116 l145 248 l0 -248 l-145 0 Z" /><glyph glyph-name="" unicode="¾" d="M303 317 q-1 51 -36 84 q-35 33 -87 34 l-22 0 l133 167 l-231 0 l0 -32 l166 0 l-131 -167 l86 0 q38 -1 63 -24 q25 -24 26 -61 q-1 -38 -26 -63 q-25 -25 -63 -26 q-37 1 -62 24 q-25 24 -26 60 l-33 0 q1 -49 35 -82 q34 -33 86 -34 q52 1 87 35 q34 34 35 85 l0 0 ZM616 598 l-418 -600 l37 0 l419 600 l-38 0 ZM798 116 l-44 0 l0 284 l-40 0 l-187 -316 l195 0 l0 -84 l32 0 l0 84 l44 0 l0 32 ZM577 116 l145 248 l0 -248 l-145 0 Z" /><glyph glyph-name="" unicode="¹" d="M94 300 l27 0 l0 300 l-74 0 l0 -25 l47 0 l0 -275 Z" /><glyph glyph-name="" unicode="²" d="M97 338 l87 92 q32 34 44 55 q12 21 11 44 q-2 38 -26 58 q-23 21 -58 21 q-38 0 -63 -22 q-24 -23 -26 -61 l25 0 q1 28 19 44 q17 16 44 16 q26 -1 43 -16 q16 -15 17 -44 q1 -16 -9 -33 q-10 -17 -39 -47 l-123 -130 l206 0 l0 23 l-152 0 Z" /><glyph glyph-name="" unicode="³" d="M146 479 l-17 0 l97 120 l-167 0 l0 -23 l120 0 l-95 -120 l63 0 q27 0 45 -17 q18 -17 19 -45 q-1 -28 -19 -46 q-18 -18 -45 -19 q-27 1 -45 18 q-18 17 -19 43 l-24 0 q1 -35 26 -59 q24 -24 62 -25 q37 1 62 26 q24 24 25 61 q-1 38 -26 61 q-24 24 -62 25 l0 0 Z" /><glyph glyph-name="" unicode="*" d="M110 420 l31 63 l32 -63 l26 15 l-41 60 l72 -5 l0 30 l-72 -5 l41 59 l-26 15 l-32 -63 l-31 63 l-27 -15 l41 -59 l-72 5 l0 -30 l72 5 l-41 -60 l27 -15 Z" /><glyph glyph-name="" unicode="\" d="M500 -238 l45 0 l-511 974 l-47 0 l513 -974 Z" /><glyph glyph-name="" unicode="·" d="M115 257 q13 0 22 9 q10 8 10 22 q0 13 -10 22 q-9 9 -22 9 q-13 0 -22 -9 q-9 -9 -9 -22 q0 -14 9 -22 q9 -9 22 -9 l0 0 Z" /><glyph glyph-name="" unicode="&#x2022;" d="M225 138 q52 1 88 36 q35 35 37 88 q-2 53 -37 89 q-36 36 -88 37 q-52 -1 -88 -37 q-35 -36 -37 -89 q2 -53 37 -88 q36 -35 88 -36 l0 0 Z" /><glyph glyph-name="" unicode=":" d="M123 334 q15 0 26 11 q11 11 11 26 q0 15 -11 26 q-11 11 -26 11 q-15 0 -26 -11 q-11 -11 -11 -26 q0 -15 11 -26 q11 -11 26 -11 l0 0 ZM123 -8 q15 0 26 11 q11 10 11 26 q0 15 -11 26 q-11 10 -26 11 q-15 -1 -26 -11 q-11 -11 -11 -26 q0 -16 11 -26 q11 -11 26 -11 l0 0 Z" /><glyph glyph-name="" unicode="," d="M47 -132 l119 234 l-54 0 l-106 -234 l41 0 Z" /><glyph glyph-name="" unicode="&#x2026;" d="M103 -8 q19 0 32 13 q12 13 13 32 q-1 19 -13 31 q-13 13 -32 13 q-19 0 -31 -13 q-13 -12 -14 -31 q1 -19 14 -32 q12 -13 31 -13 l0 0 ZM314 -8 q19 0 32 13 q12 13 13 32 q-1 19 -13 31 q-13 13 -32 13 q-19 0 -31 -13 q-13 -12 -14 -31 q1 -19 14 -32 q12 -13 31 -13 l0 0 ZM528 -8 q19 0 32 13 q12 13 13 32 q-1 19 -13 31 q-13 13 -32 13 q-19 0 -31 -13 q-13 -12 -14 -31 q1 -19 14 -32 q12 -13 31 -13 l0 0 Z" /><glyph glyph-name="" unicode="!" d="M101 162 l38 0 l5 510 l-47 0 l4 -510 ZM121 -8 q15 0 25 11 q11 11 11 26 q0 15 -11 26 q-10 11 -25 11 q-15 0 -26 -11 q-11 -11 -11 -26 q0 -15 11 -26 q11 -11 26 -11 l0 0 Z" /><glyph glyph-name="" unicode="¡" d="M121 326 q15 0 25 11 q11 11 11 26 q0 15 -11 26 q-10 11 -25 11 q-15 0 -26 -11 q-11 -11 -11 -26 q0 -15 11 -26 q11 -11 26 -11 l0 0 ZM97 -240 l47 0 l-5 478 l-38 0 l-4 -478 Z" /><glyph glyph-name="" unicode="#" d="M157 0 l36 0 l20 143 l159 0 l-21 -143 l36 0 l22 143 l112 0 l5 37 l-112 0 l27 199 l113 0 l6 36 l-114 0 l21 144 l-37 0 l-20 -144 l-158 0 l20 144 l-35 0 l-21 -144 l-112 0 l-6 -36 l114 0 l-30 -199 l-113 0 l-4 -37 l112 0 l-20 -143 ZM219 180 l28 199 l158 0 l-28 -199 l-158 0 Z" /><glyph glyph-name="" unicode="." d="M103 -8 q19 0 32 13 q12 13 13 32 q-1 19 -13 31 q-13 13 -32 13 q-19 0 -31 -13 q-13 -12 -14 -31 q1 -19 14 -32 q12 -13 31 -13 l0 0 Z" /><glyph glyph-name="" unicode="?" d="M229 164 l43 0 l0 143 q9 64 72 89 q63 25 72 128 q-1 70 -46 114 q-46 43 -119 44 q-70 -1 -115 -42 q-45 -42 -50 -108 l43 0 q5 48 39 78 q33 30 83 31 q55 -1 89 -33 q33 -32 34 -84 q-9 -89 -72 -109 q-64 -20 -73 -115 l0 -136 ZM254 -8 q15 0 26 11 q11 10 11 26 q0 15 -11 26 q-11 10 -26 11 q-15 -1 -26 -11 q-11 -11 -11 -26 q0 -16 11 -26 q11 -11 26 -11 l0 0 Z" /><glyph glyph-name="" unicode="¿" d="M222 337 q15 0 26 11 q11 10 11 26 q0 15 -11 26 q-11 10 -26 10 q-15 0 -26 -10 q-11 -11 -11 -26 q0 -16 11 -26 q11 -11 26 -11 l0 0 ZM225 -240 q70 1 115 43 q45 41 50 108 l-43 0 q-5 -49 -38 -79 q-34 -30 -84 -31 q-55 1 -88 33 q-34 32 -35 85 q9 88 72 108 q63 21 72 116 l0 95 l-43 0 l0 -102 q-9 -64 -71 -89 q-63 -25 -72 -128 q1 -71 47 -114 q45 -44 118 -45 l0 0 Z" /><glyph glyph-name="" unicode="&quot;" d="M88 342 l36 0 l4 266 l-44 0 l4 -266 ZM209 342 l37 0 l4 266 l-45 0 l4 -266 Z" /><glyph glyph-name="" unicode="&#39;" d="M88 374 l36 0 l4 234 l-44 0 l4 -234 Z" /><glyph glyph-name="" unicode=";" d="M132 334 q15 0 26 11 q11 11 11 26 q0 15 -11 26 q-11 11 -26 11 q-15 0 -25 -11 q-11 -11 -11 -26 q0 -15 11 -26 q10 -11 25 -11 l0 0 ZM65 -132 l119 234 l-54 0 l-106 -234 l41 0 Z" /><glyph glyph-name="" unicode="/" d="M-13 -240 l47 0 l512 976 l-46 0 l-513 -976 Z" /><glyph glyph-name="" unicode="_" d="M44 -46 l480 0 l0 46 l-480 0 l0 -46 Z" /><glyph glyph-name="" unicode="{" d="M186 -210 l30 0 l0 37 q-36 0 -51 17 q-15 18 -15 52 l0 224 q1 43 -10 80 q-11 37 -49 64 q38 27 49 63 q11 37 10 80 l0 221 q0 39 15 55 q15 16 51 16 l0 37 l-30 0 q-33 -1 -53 -29 q-20 -27 -21 -71 l0 -217 q1 -51 -9 -83 q-11 -33 -51 -54 l0 -37 q39 -20 50 -52 q11 -32 10 -85 l0 -218 q1 -43 21 -71 q20 -28 53 -29 l0 0 Z" /><glyph glyph-name="" unicode="}" d="M38 -210 l30 0 q33 1 54 29 q20 28 21 71 l0 218 q-1 53 9 85 q11 32 51 52 l0 37 q-40 21 -51 54 q-10 32 -9 83 l0 217 q-1 44 -21 71 q-21 28 -54 29 l-30 0 l0 -37 q36 0 51 -16 q15 -16 15 -55 l0 -221 q-1 -43 10 -80 q11 -36 49 -63 q-38 -27 -49 -64 q-11 -37 -10 -80 l0 -224 q0 -34 -15 -52 q-15 -17 -51 -17 l0 -37 Z" /><glyph glyph-name="" unicode="[" d="M78 -200 l145 0 l0 37 l-104 0 l0 862 l104 0 l0 37 l-145 0 l0 -936 Z" /><glyph glyph-name="" unicode="]" d="M49 -200 l144 0 l0 936 l-144 0 l0 -37 l103 0 l0 -862 l-103 0 l0 -37 Z" /><glyph glyph-name="" unicode="(" d="M269 -213 l0 34 q-68 9 -113 113 q-44 104 -46 326 q2 224 46 328 q45 105 113 114 l0 34 q-87 -7 -143 -120 q-56 -113 -58 -356 q2 -242 58 -355 q56 -112 143 -118 l0 0 Z" /><glyph glyph-name="" unicode=")" d="M42 -213 q87 6 144 118 q56 113 58 355 q-2 243 -58 356 q-57 113 -144 120 l0 -34 q69 -9 114 -114 q44 -104 46 -328 q-2 -222 -46 -326 q-45 -104 -114 -113 l0 -34 Z" /><glyph glyph-name="" unicode="&#x2014;" d="M0 185 l800 0 l0 46 l-800 0 l0 -46 Z" /><glyph glyph-name="" unicode="&#x2013;" d="M58 185 l400 0 l0 46 l-400 0 l0 -46 Z" /><glyph glyph-name="" unicode="-" d="M58 185 l280 0 l0 46 l-280 0 l0 -46 Z" /><glyph glyph-name="" unicode="­" d="M58 185 l280 0 l0 46 l-280 0 l0 -46 Z" /><glyph glyph-name="" unicode="«" d="M222 76 l43 0 l-122 147 l122 147 l-43 0 l-121 -147 l121 -147 ZM356 76 l43 0 l-121 147 l121 147 l-43 0 l-122 -147 l122 -147 Z" /><glyph glyph-name="" unicode="»" d="M100 76 l42 0 l122 147 l-122 147 l-42 0 l121 -147 l-121 -147 ZM233 76 l44 0 l121 147 l-121 147 l-44 0 l122 -147 l-122 -147 Z" /><glyph glyph-name="" unicode="&#x2039;" d="M174 76 l43 0 l-122 147 l122 147 l-43 0 l-121 -147 l121 -147 Z" /><glyph glyph-name="" unicode="&#x203a;" d="M68 76 l42 0 l122 147 l-122 147 l-42 0 l121 -147 l-121 -147 Z" /><glyph glyph-name="" unicode="&#x201e;" d="M58 -155 l85 241 l-53 0 l-68 -241 l36 0 ZM187 -155 l85 241 l-53 0 l-68 -241 l36 0 Z" /><glyph glyph-name="" unicode="&#x201c;" d="M131 608 l-85 -241 l53 0 l68 241 l-36 0 ZM252 608 l-85 -241 l53 0 l68 241 l-36 0 Z" /><glyph glyph-name="" unicode="&#x201d;" d="M54 367 l85 241 l-53 0 l-68 -241 l36 0 ZM178 367 l85 241 l-53 0 l-68 -241 l36 0 Z" /><glyph glyph-name="" unicode="&#x2018;" d="M123 608 l-85 -241 l53 0 l68 241 l-36 0 Z" /><glyph glyph-name="" unicode="&#x2019;" d="M71 367 l85 241 l-53 0 l-68 -241 l36 0 Z" /><glyph glyph-name="" unicode="&#x201a;" d="M60 -155 l85 241 l-53 0 l-68 -241 l36 0 Z" /><glyph glyph-name="" unicode=" " d="" /><glyph glyph-name="" unicode="¢" d="M268 446 q33 0 63 -11 q30 -12 53 -33 l0 49 q-23 17 -51 26 q-27 10 -57 11 l0 73 l-32 0 l0 -74 q-82 -11 -135 -68 q-52 -57 -54 -139 q2 -82 54 -139 q53 -57 135 -68 l0 -73 l32 0 l0 72 q30 1 58 11 q27 9 50 26 l0 48 q-23 -20 -53 -32 q-30 -11 -63 -11 q-71 2 -118 49 q-46 46 -48 117 q2 71 48 118 q47 46 118 48 l0 0 Z" /><glyph glyph-name="" unicode="¤" d="M97 119 l40 40 q47 -37 105 -37 q58 0 105 37 l40 -40 l26 28 l-39 39 q37 47 37 105 q0 57 -37 104 l39 39 l-27 27 l-39 -40 q-47 38 -105 38 q-57 0 -104 -38 l-40 40 l-26 -28 l39 -39 q-37 -46 -37 -104 q0 -57 37 -104 l-40 -39 l26 -28 ZM149 198 q-37 40 -37 92 q0 52 37 92 q41 38 93 38 q52 1 92 -37 q38 -40 38 -92 q1 -53 -37 -93 q-41 -39 -93 -39 q-52 1 -93 39 l0 0 Z" /><glyph glyph-name="" unicode="$" d="M409 153 q-19 135 -149 170 q-131 34 -150 136 q2 51 36 76 q33 25 80 25 q38 0 68 -16 q29 -15 47 -40 l38 31 q-20 27 -53 46 q-32 19 -74 25 l0 67 l-46 0 l0 -66 q-60 -6 -101 -44 q-41 -39 -43 -107 q19 -131 150 -165 q130 -35 149 -140 q-2 -54 -40 -82 q-38 -29 -94 -29 q-55 1 -93 27 q-39 26 -55 69 l-44 -25 q21 -49 66 -81 q44 -31 105 -37 l0 -64 l46 0 l0 64 q66 8 111 48 q44 40 46 112 l0 0 Z" /><glyph glyph-name="" unicode="&#x20ac;" d="M376 40 q-87 1 -152 48 q-65 47 -93 125 l132 -4 l190 38 l-261 6 l-69 -14 q-4 14 -5 30 q-2 15 -2 31 q0 24 4 46 l169 -4 l207 38 l-287 6 l-84 -16 q24 84 91 136 q68 52 160 54 q44 0 85 -14 q41 -15 75 -42 l15 47 q-38 27 -83 42 q-45 15 -92 15 q-115 -2 -197 -71 q-82 -68 -105 -177 l-62 -12 l59 -1 q-3 -23 -3 -47 q0 -36 8 -71 l-64 -13 l68 -2 q30 -99 109 -159 q79 -61 187 -63 q48 0 95 16 q46 16 86 44 l0 62 q-37 -35 -83 -55 q-47 -19 -98 -19 l0 0 Z" /><glyph glyph-name="" unicode="&#x192;" d="M287 571 q10 0 21 -4 q11 -3 19 -10 l5 38 q-8 5 -21 9 q-14 4 -28 4 q-44 -1 -78 -30 q-34 -28 -42 -73 l-17 -105 l-67 0 l-6 -38 l67 0 l-88 -562 l42 0 l89 562 l115 0 l5 38 l-114 0 l16 99 q6 32 28 52 q23 19 54 20 l0 0 Z" /><glyph glyph-name="" unicode="£" d="M142 36 l0 242 l149 0 l0 34 l-149 0 l0 120 q1 62 37 100 q35 37 96 38 q42 -1 76 -25 q34 -25 46 -65 l36 15 q-18 50 -61 81 q-44 31 -97 32 q-77 -1 -123 -49 q-46 -48 -47 -127 l0 -120 l-64 0 l0 -34 l64 0 l0 -278 l341 0 l0 36 l-304 0 Z" /><glyph glyph-name="" unicode="¥" d="M293 288 l207 312 l-46 0 l-182 -277 l-182 277 l-46 0 l207 -312 l0 -15 l-170 0 l0 -31 l170 0 l0 -88 l-170 0 l0 -31 l170 0 l0 -123 l42 0 l0 123 l172 0 l0 31 l-172 0 l0 88 l172 0 l0 31 l-172 0 l0 15 Z" /><glyph glyph-name="" unicode="&#x2248;" d="M335 256 q48 1 77 36 q29 35 29 90 l-35 0 q0 -41 -20 -66 q-21 -24 -54 -25 q-24 1 -39 13 q-16 12 -30 30 q-21 26 -43 42 q-23 17 -55 17 q-49 -1 -79 -35 q-31 -34 -31 -92 l36 0 q0 40 20 66 q19 25 53 26 q22 0 38 -12 q16 -12 31 -30 q17 -21 41 -40 q24 -19 61 -20 l0 0 ZM335 103 q48 1 77 36 q29 34 29 89 l-35 0 q0 -41 -20 -66 q-21 -24 -54 -25 q-24 1 -39 13 q-16 12 -30 30 q-20 27 -43 43 q-23 17 -55 17 q-49 -1 -79 -35 q-31 -35 -31 -92 l36 0 q0 39 20 65 q19 25 53 26 q22 0 38 -12 q16 -12 31 -30 q17 -21 41 -40 q24 -18 61 -19 l0 0 Z" /><glyph glyph-name="" unicode="~" d="M325 145 q48 1 78 36 q29 35 28 90 l-35 0 q0 -41 -20 -66 q-21 -24 -54 -25 q-23 0 -39 13 q-15 12 -30 30 q-20 26 -43 42 q-23 17 -55 17 q-49 -1 -79 -35 q-30 -35 -30 -92 l35 0 q1 40 21 66 q20 25 53 26 q21 0 37 -12 q16 -12 32 -31 q16 -21 40 -39 q24 -19 61 -20 l0 0 Z" /><glyph glyph-name="" unicode="÷" d="M300 322 q14 0 24 10 q11 9 11 24 q0 15 -11 24 q-10 10 -24 10 q-14 0 -24 -10 q-10 -9 -11 -24 q1 -15 11 -24 q10 -10 24 -10 l0 0 ZM60 206 l480 0 l0 28 l-480 0 l0 -28 ZM300 50 q14 0 24 10 q11 9 11 24 q0 15 -11 24 q-10 10 -24 10 q-14 0 -24 -10 q-10 -9 -11 -24 q1 -15 11 -24 q10 -10 24 -10 l0 0 Z" /><glyph glyph-name="" unicode="&#x2205;" d="M517 393 l34 34 l-17 18 l-35 -35 q-32 29 -72 46 q-41 16 -88 16 q-102 -3 -169 -70 q-67 -67 -70 -169 q0 -47 16 -87 q17 -41 46 -73 l-35 -35 l17 -17 l35 35 q32 -29 73 -46 q40 -16 87 -16 q102 3 169 70 q67 67 70 169 q0 46 -16 87 q-16 41 -45 73 l0 0 ZM139 233 q2 85 58 142 q57 56 142 58 q39 0 73 -13 q34 -14 60 -37 l-283 -283 q-23 27 -37 61 q-13 34 -13 72 l0 0 ZM339 33 q-38 0 -72 13 q-34 14 -61 37 l283 282 q23 -26 37 -60 q13 -34 13 -72 q-2 -85 -58 -142 q-57 -56 -142 -58 l0 0 Z" /><glyph glyph-name="" unicode="=" d="M60 270 l480 0 l0 33 l-480 0 l0 -33 ZM60 121 l480 0 l0 33 l-480 0 l0 -33 Z" /><glyph glyph-name="" unicode="&gt;" d="M84 509 l0 -41 l401 -202 l-401 -203 l0 -42 l441 223 l0 44 l-441 221 Z" /><glyph glyph-name="" unicode="&#x2265;" d="M108 537 l0 -41 l400 -194 l-400 -194 l0 -42 l441 214 l0 44 l-441 213 ZM108 0 l441 0 l0 31 l-441 0 l0 -31 Z" /><glyph glyph-name="" unicode="&#x221e;" d="M165 122 q34 0 72 22 q37 22 74 63 q36 -41 74 -63 q38 -22 72 -22 q45 1 74 32 q29 30 31 79 q-2 49 -31 79 q-29 30 -74 31 q-34 0 -72 -22 q-38 -22 -74 -63 q-37 41 -74 63 q-38 22 -72 22 q-44 -1 -73 -31 q-30 -31 -32 -79 q2 -48 32 -79 q29 -31 73 -32 l0 0 ZM165 156 q-29 1 -49 22 q-21 22 -23 55 q2 33 23 55 q20 21 49 22 q27 0 59 -20 q32 -20 65 -57 q-33 -37 -65 -57 q-32 -20 -59 -20 l0 0 ZM457 156 q-27 0 -59 20 q-32 20 -65 57 q33 37 65 57 q32 20 59 20 q30 -1 50 -22 q20 -22 22 -55 q-2 -33 -22 -55 q-20 -21 -50 -22 l0 0 Z" /><glyph glyph-name="" unicode="&#x222b;" d="M92 -151 q26 0 46 17 q21 17 26 47 l98 615 q3 14 12 22 q9 8 20 8 q13 0 19 -9 q6 -10 3 -31 l33 0 q9 35 -6 55 q-14 20 -43 20 q-26 0 -47 -17 q-21 -18 -26 -48 l-98 -615 q-3 -14 -11 -21 q-9 -8 -20 -8 q-14 0 -20 9 q-6 10 -2 30 l-34 0 q-9 -34 6 -54 q15 -20 44 -20 l0 0 Z" /><glyph glyph-name="" unicode="&lt;" d="M525 509 l-441 -221 l0 -44 l441 -223 l0 42 l-401 203 l401 202 l0 41 Z" /><glyph glyph-name="" unicode="&#x2264;" d="M549 537 l-441 -213 l0 -44 l441 -214 l0 42 l-400 194 l400 194 l0 41 ZM108 0 l441 0 l0 31 l-441 0 l0 -31 Z" /><glyph glyph-name="" unicode="¬" d="M518 98 l36 0 l0 242 l-470 0 l0 -37 l434 0 l0 -205 Z" /><glyph glyph-name="" unicode="µ" d="M364 400 l0 -246 q-1 -51 -36 -85 q-34 -34 -86 -35 q-51 1 -85 35 q-34 34 -35 85 l0 246 l-46 0 l0 -600 l37 0 l0 247 q21 -26 52 -40 q30 -15 66 -15 q42 0 77 20 q35 20 56 54 l0 -66 l46 0 l0 400 l-46 0 Z" /><glyph glyph-name="" unicode="&#x2212;" d="M60 206 l426 0 l0 45 l-426 0 l0 -45 Z" /><glyph glyph-name="" unicode="×" d="M491 277 l-161 162 l-30 -30 l-30 30 l-160 -162 l29 -29 l-29 -29 l160 -162 l30 30 l30 -30 l161 162 l-29 29 l29 29 Z" /><glyph glyph-name="" unicode="&#x2260;" d="M540 270 l0 33 l-137 0 l85 99 l-35 0 l-85 -99 l-308 0 l0 -33 l280 0 l-99 -116 l-181 0 l0 -33 l153 0 l-102 -119 l35 0 l102 119 l292 0 l0 33 l-264 0 l99 116 l165 0 Z" /><glyph glyph-name="" unicode="&#x2202;" d="M149 562 l0 -35 q65 8 113 -38 q47 -47 67 -132 q-78 38 -149 7 q-71 -32 -107 -125 q-35 -100 0 -165 q35 -65 125 -67 q79 3 130 74 q51 71 53 181 q-2 138 -66 223 q-65 84 -166 77 l0 0 ZM338 262 q-2 -95 -41 -157 q-40 -62 -99 -64 q-65 2 -90 54 q-24 53 4 132 q33 85 94 109 q61 24 129 -20 q3 -27 3 -54 l0 0 Z" /><glyph glyph-name="" unicode="%" d="M161 370 q43 1 72 35 q28 34 29 84 q-1 50 -29 84 q-29 34 -72 35 q-44 -1 -73 -35 q-29 -34 -30 -84 q1 -50 30 -84 q29 -34 73 -35 l0 0 ZM62 0 l50 0 l414 600 l-50 0 l-414 -600 ZM161 408 q-28 1 -46 24 q-18 22 -19 57 q1 35 19 57 q18 23 46 24 q26 -1 45 -24 q18 -22 19 -57 q-1 -35 -19 -57 q-19 -23 -45 -24 l0 0 ZM428 -8 q44 1 72 35 q29 34 30 84 q-1 50 -30 84 q-28 34 -72 35 q-43 -1 -72 -35 q-29 -34 -30 -84 q1 -50 30 -84 q29 -34 72 -35 l0 0 ZM428 30 q-27 1 -45 24 q-18 22 -19 57 q1 35 19 57 q18 23 45 24 q27 -1 45 -24 q18 -22 19 -57 q-1 -35 -19 -57 q-18 -23 -45 -24 l0 0 Z" /><glyph glyph-name="" unicode="&#x2030;" d="M161 370 q43 1 72 35 q28 34 29 84 q-1 50 -29 84 q-29 34 -72 35 q-44 -1 -73 -35 q-29 -34 -30 -84 q1 -50 30 -84 q29 -34 73 -35 l0 0 ZM62 0 l50 0 l414 600 l-50 0 l-414 -600 ZM161 408 q-28 1 -46 24 q-18 22 -19 57 q1 35 19 57 q18 23 46 24 q26 -1 45 -24 q18 -22 19 -57 q-1 -35 -19 -57 q-19 -23 -45 -24 l0 0 ZM428 -8 q44 1 72 35 q29 34 30 84 q-1 50 -30 84 q-28 34 -72 35 q-43 -1 -72 -35 q-29 -34 -30 -84 q1 -50 30 -84 q29 -34 72 -35 l0 0 ZM673 -8 q43 1 72 35 q28 34 29 84 q-1 50 -29 84 q-29 34 -72 35 q-44 -1 -73 -35 q-29 -34 -30 -84 q1 -50 30 -84 q29 -34 73 -35 l0 0 ZM428 30 q-27 1 -45 24 q-18 22 -19 57 q1 35 19 57 q18 23 45 24 q27 -1 45 -24 q18 -22 19 -57 q-1 -35 -19 -57 q-18 -23 -45 -24 l0 0 ZM672 30 q-27 1 -45 24 q-18 22 -19 57 q1 35 19 57 q18 23 45 24 q27 -1 45 -24 q18 -22 19 -57 q-1 -35 -19 -57 q-18 -23 -45 -24 l0 0 Z" /><glyph glyph-name="" unicode="+" d="M310 0 l44 0 l0 226 l226 0 l0 44 l-226 0 l0 226 l-44 0 l0 -226 l-226 0 l0 -44 l226 0 l0 -226 Z" /><glyph glyph-name="" unicode="±" d="M348 339 l0 144 l-42 0 l0 -144 l-254 0 l0 -41 l254 0 l0 -144 l42 0 l0 144 l254 0 l0 41 l-254 0 ZM52 0 l550 0 l0 38 l-550 0 l0 -38 Z" /><glyph glyph-name="" unicode="&#x220f;" d="M553 562 l-501 0 l0 -35 l56 0 l0 -623 l36 0 l0 623 l317 0 l0 -623 l35 0 l0 623 l57 0 l0 35 Z" /><glyph glyph-name="" unicode="&#x221a;" d="M213 -62 l23 0 l314 656 l-31 13 l-291 -607 l-85 260 l-75 0 l0 -34 l51 0 l94 -288 Z" /><glyph glyph-name="" unicode="&#x2211;" d="M84 -95 l452 0 l0 37 l-386 0 l288 292 l-288 291 l386 0 l0 37 l-452 0 l0 -24 l303 -304 l-303 -305 l0 -24 Z" /><glyph glyph-name="" unicode="&#x25ca;" d="M325 42 l241 241 l-241 241 l-241 -242 l241 -240 ZM326 96 l-187 186 l187 188 l186 -187 l-186 -187 Z" /><glyph glyph-name="" unicode="&#xf8ff;" d="M388 0 q129 3 215 89 q86 86 89 215 q-3 129 -89 215 q-86 86 -215 89 q-129 -3 -215 -89 q-86 -86 -89 -215 q3 -129 89 -215 q86 -86 215 -89 l0 0 ZM388 29 q-116 3 -194 81 q-78 78 -81 194 q3 117 81 195 q78 77 194 80 q117 -3 195 -80 q77 -78 80 -195 q-3 -116 -80 -194 q-78 -78 -195 -81 l0 0 ZM547 174 q3 0 6 1 q2 1 4 3 q4 5 4 10 q0 6 -4 10 l-105 106 l105 106 q5 4 5 10 q0 6 -5 10 q-4 5 -10 5 q-5 0 -10 -5 l-116 -116 q-4 -4 -4 -10 q0 -5 4 -10 l116 -116 q2 -2 5 -3 q3 -1 5 -1 l0 0 ZM229 174 q6 0 10 4 q4 4 4 10 l0 232 q0 6 -4 10 q-4 4 -10 4 q-6 0 -10 -4 q-5 -4 -5 -10 l0 -232 q0 -6 5 -10 q4 -4 10 -4 l0 0 ZM388 174 q6 0 10 4 q4 4 4 10 l0 232 q0 6 -4 10 q-4 4 -10 4 q-6 0 -10 -4 q-5 -4 -5 -10 l0 -232 q0 -6 5 -10 q4 -4 10 -4 l0 0 ZM272 290 l73 0 q6 0 10 4 q4 4 4 10 q0 6 -4 10 q-4 4 -10 4 l-73 0 q-6 0 -10 -4 q-5 -4 -5 -10 q0 -6 5 -10 q4 -4 10 -4 l0 0 Z" /><glyph glyph-name="" unicode="|" d="M103 -120 l33 0 l0 720 l-33 0 l0 -720 Z" /><glyph glyph-name="" unicode="¦" d="M103 312 l33 0 l0 288 l-33 0 l0 -288 ZM103 -120 l33 0 l0 288 l-33 0 l0 -288 Z" /><glyph glyph-name="" unicode="@" d="M416 119 l0 174 q-2 63 -44 104 q-43 41 -108 42 q-88 -2 -145 -64 q-57 -61 -59 -155 q2 -94 66 -156 q64 -62 162 -64 l128 0 l0 32 l-128 0 q-84 2 -139 54 q-55 53 -57 134 q2 80 50 132 q48 52 122 54 q51 -1 84 -33 q34 -32 35 -80 l0 -27 q-13 20 -35 32 q-22 13 -46 13 q-44 -1 -73 -29 q-29 -28 -30 -71 q1 -44 30 -72 q29 -28 73 -29 q22 0 45 12 q22 12 36 30 l0 -33 l33 0 ZM310 140 q-32 1 -53 20 q-20 20 -21 51 q1 31 21 51 q21 19 53 20 q28 0 47 -15 q20 -15 26 -39 l0 -34 q-6 -24 -26 -39 q-19 -15 -47 -15 l0 0 Z" /><glyph glyph-name="" unicode="&amp;" d="M496 328 l-58 0 l0 107 l-46 0 l0 -107 l-133 0 q-53 1 -87 34 q-35 32 -36 84 q2 50 35 78 q33 28 79 28 l129 0 l0 48 l-136 0 q-65 -1 -108 -43 q-44 -41 -46 -109 q0 -45 22 -82 q21 -36 57 -59 q-39 -22 -62 -60 q-22 -38 -23 -85 q2 -72 53 -116 q52 -45 130 -46 q78 1 125 47 q46 46 47 119 l0 116 l58 0 l0 46 ZM265 42 q-58 1 -97 34 q-39 33 -40 87 q1 51 35 85 q34 33 85 34 l144 0 l0 -116 q-1 -55 -35 -89 q-34 -34 -92 -35 l0 0 Z" /><glyph glyph-name="" unicode="¶" d="M264 -120 l29 0 l0 720 l-59 0 q-67 0 -104 -34 q-37 -34 -38 -100 q1 -65 38 -100 q37 -34 104 -34 l30 0 l0 -452 ZM367 -120 l29 0 l0 720 l-29 0 l0 -720 Z" /><glyph glyph-name="" unicode="©" d="M363 -8 q131 3 218 90 q87 87 90 218 q-3 131 -90 218 q-87 87 -218 90 q-131 -3 -218 -90 q-87 -87 -90 -218 q3 -131 90 -218 q87 -87 218 -90 l0 0 ZM363 22 q-118 3 -197 81 q-78 79 -81 197 q3 118 81 197 q79 78 197 81 q119 -3 197 -81 q78 -79 81 -197 q-3 -118 -81 -197 q-78 -78 -197 -81 l0 0 ZM370 117 q61 1 107 35 q45 33 64 87 l-42 0 q-18 -37 -52 -59 q-34 -22 -77 -22 q-59 1 -99 41 q-40 39 -42 100 q2 61 42 100 q40 39 99 40 q43 0 77 -22 q34 -22 52 -59 l42 0 q-19 54 -64 88 q-46 33 -107 34 q-77 -2 -128 -53 q-51 -51 -53 -128 q2 -78 53 -129 q51 -51 128 -53 l0 0 Z" /><glyph glyph-name="" unicode="®" d="M363 608 q-131 -3 -218 -90 q-87 -87 -90 -218 q3 -131 90 -218 q87 -87 218 -90 q131 3 218 90 q87 87 90 218 q-3 131 -90 218 q-87 87 -218 90 l0 0 ZM363 22 q-118 3 -197 81 q-78 79 -81 197 q3 118 81 197 q79 78 197 81 q119 -3 197 -81 q78 -79 81 -197 q-3 -118 -81 -197 q-78 -78 -197 -81 l0 0 ZM472 369 q-1 38 -26 62 q-25 25 -63 26 l-100 0 l0 -314 l28 0 l0 139 l63 0 l76 -139 l32 0 l-77 142 q30 7 48 30 q18 23 19 54 l0 0 ZM311 428 l72 0 q25 -1 42 -17 q17 -17 18 -42 q-1 -25 -18 -41 q-17 -17 -42 -18 l-72 0 l0 118 Z" /><glyph glyph-name="" unicode="§" d="M411 192 q16 15 24 33 q9 17 9 38 q-20 104 -156 128 q-137 25 -157 103 q2 41 40 61 q38 20 88 20 q40 0 73 -12 q32 -11 52 -31 l26 21 q-25 24 -64 40 q-40 15 -89 15 q-64 0 -113 -29 q-48 -29 -51 -86 q0 -22 9 -39 q9 -18 24 -31 q-33 -27 -33 -70 q20 -104 157 -128 q136 -25 156 -103 q-2 -43 -45 -65 q-43 -22 -103 -22 q-62 1 -104 22 q-41 20 -57 51 l-32 -17 q20 -38 71 -64 q50 -25 121 -26 q75 0 130 32 q54 32 57 89 q0 22 -9 40 q-9 17 -24 30 l0 0 ZM131 354 q0 30 24 49 q75 -34 160 -57 q84 -23 91 -82 q0 -31 -25 -51 q-75 34 -159 57 q-84 23 -91 84 l0 0 Z" /><glyph glyph-name="" unicode="&#x2122;" d="M44 572 l78 0 l0 -254 l31 0 l0 254 l79 0 l0 28 l-188 0 l0 -28 ZM530 600 l-106 -158 l-106 158 l-34 0 l0 -282 l32 0 l0 229 l108 -159 l109 162 l0 -232 l31 0 l0 282 l-34 0 Z" /><glyph glyph-name="" unicode="°" d="M207 394 q45 1 76 31 q30 31 31 76 q-1 45 -31 76 q-31 30 -76 31 q-45 -1 -76 -31 q-30 -31 -31 -76 q1 -45 31 -76 q31 -30 76 -31 l0 0 ZM207 422 q-34 1 -56 23 q-22 22 -23 56 q1 34 23 56 q22 22 56 23 q34 -1 56 -23 q22 -22 23 -56 q-1 -34 -23 -56 q-22 -22 -56 -23 l0 0 Z" /><glyph glyph-name="" unicode="&#x212e;" d="M385 -7 q83 1 153 33 q70 31 117 86 l-49 0 q-40 -47 -97 -74 q-57 -27 -124 -28 q-61 1 -115 25 q-54 24 -94 66 q-3 4 -5 9 q-2 5 -2 10 l0 168 q0 3 4 3 l554 0 l0 8 q-4 132 -100 219 q-97 87 -242 90 q-145 -3 -242 -90 q-96 -87 -100 -219 q4 -130 100 -216 q97 -87 242 -90 l0 0 ZM173 308 q-2 0 -3 2 q-1 2 -1 4 l0 164 q0 6 2 12 q2 5 6 9 q41 42 94 66 q54 24 114 25 q62 -1 115 -24 q53 -24 93 -64 q4 -4 6 -9 q2 -6 2 -11 l0 -168 q0 -2 0 -4 q-1 -2 -3 -2 l-425 0 Z" /><glyph glyph-name="" unicode="&#x2113;" d="M275 -4 q56 0 101 29 q44 28 76 85 l-27 22 q-18 -35 -54 -64 q-36 -29 -86 -31 q-45 0 -80 33 q-35 33 -37 105 l0 21 q94 81 151 161 q56 80 57 162 q0 56 -28 96 q-28 40 -88 42 q-52 2 -95 -42 q-44 -44 -47 -160 l0 -243 q-17 -15 -36 -29 q-19 -14 -39 -30 l17 -33 q15 12 30 24 q15 12 29 21 l0 -10 q2 -62 40 -109 q37 -47 116 -50 l0 0 ZM168 247 l0 215 q2 88 30 123 q29 34 59 33 q43 -1 61 -29 q18 -29 17 -74 q-2 -69 -49 -135 q-47 -66 -118 -133 l0 0 Z" /><glyph glyph-name="" unicode="^" d="M524 158 l-222 442 l-44 0 l-222 -442 l41 0 l203 402 l203 -402 l41 0 Z" /><glyph glyph-name="" unicode="&#x2020;" d="M432 371 l-143 0 l0 165 l-34 0 l0 -165 l-139 0 l0 -33 l139 0 l0 -474 l34 0 l0 474 l143 0 l0 33 Z" /><glyph glyph-name="" unicode="&#x2021;" d="M432 338 l0 33 l-143 0 l0 165 l-34 0 l0 -165 l-139 0 l0 -33 l139 0 l0 -274 l-139 0 l0 -33 l139 0 l0 -167 l34 0 l0 167 l143 0 l0 33 l-143 0 l0 274 l143 0 Z" /><glyph glyph-name="" unicode="&#x308;" d="M-235 477 q15 0 26 11 q11 10 11 25 q0 16 -11 26 q-11 11 -26 11 q-15 0 -26 -11 q-11 -10 -11 -26 q0 -15 11 -25 q11 -11 26 -11 l0 0 ZM-98 477 q15 0 26 11 q11 10 11 25 q0 16 -11 26 q-11 11 -26 11 q-15 0 -26 -11 q-11 -10 -11 -26 q0 -15 11 -25 q11 -11 26 -11 l0 0 Z" /><glyph glyph-name="" unicode="&#x307;" d="M-120 467 q15 0 25 11 q11 10 11 25 q0 16 -11 26 q-10 11 -25 11 q-15 0 -26 -11 q-11 -10 -11 -26 q0 -15 11 -25 q11 -11 26 -11 l0 0 Z" /><glyph glyph-name="" unicode="&#x300;" d="M-26 453 l-85 147 l-58 0 l108 -147 l35 0 Z" /><glyph glyph-name="" unicode="&#x301;" d="M-194 453 l35 0 l108 147 l-58 0 l-85 -147 Z" /><glyph glyph-name="" unicode="&#x30b;" d="M-166 453 l35 0 l107 147 l-58 0 l-84 -147 ZM-36 453 l35 0 l107 147 l-58 0 l-84 -147 Z" /><glyph glyph-name="" unicode="&#x302;" d="M-211 453 l63 113 l62 -113 l40 0 l-78 147 l-49 0 l-78 -147 l40 0 Z" /><glyph glyph-name="" unicode="&#x30c;" d="M-173 453 l49 0 l78 147 l-40 0 l-62 -113 l-63 113 l-40 0 l78 -147 Z" /><glyph glyph-name="" unicode="&#x306;" d="M-279 456 q56 1 91 32 q36 32 37 85 l-31 0 q-1 -36 -27 -61 q-27 -24 -70 -25 q-42 1 -69 25 q-27 25 -28 61 l-31 0 q1 -53 37 -85 q35 -31 91 -32 l0 0 Z" /><glyph glyph-name="" unicode="&#x30a;" d="M-80 440 q33 1 55 23 q22 23 23 55 q-1 33 -23 55 q-22 22 -55 23 q-33 -1 -55 -23 q-22 -22 -23 -55 q1 -32 23 -55 q22 -22 55 -23 l0 0 ZM-80 468 q-21 1 -35 15 q-14 14 -14 35 q0 22 14 36 q14 14 35 15 q22 -1 36 -15 q14 -14 14 -36 q0 -21 -14 -35 q-14 -14 -36 -15 l0 0 Z" /><glyph glyph-name="" unicode="&#x303;" d="M-113 498 q38 1 59 29 q21 27 21 70 l-36 0 q0 -30 -12 -46 q-12 -17 -32 -17 q-15 0 -24 7 q-10 7 -17 19 q-13 18 -30 30 q-17 12 -41 12 q-37 -1 -58 -28 q-21 -27 -21 -71 l36 0 q0 28 12 45 q11 17 32 18 q12 0 22 -6 q9 -6 18 -20 q11 -18 28 -30 q18 -12 43 -12 l0 0 Z" /><glyph glyph-name="" unicode="&#x304;" d="M-265 487 l210 0 l0 34 l-210 0 l0 -34 Z" /><glyph glyph-name="" unicode="&#x312;" d="M-54 669 l-85 -145 l58 0 l62 145 l-35 0 Z" /><glyph glyph-name="" unicode="&#x323;" d="M-72 -200 q15 0 25 11 q11 10 11 26 q0 15 -11 26 q-10 10 -25 11 q-15 -1 -26 -11 q-11 -11 -11 -26 q0 -16 11 -26 q11 -11 26 -11 l0 0 Z" /><glyph glyph-name="" unicode="&#x326;" d="M-133 -107 l85 145 l-58 0 l-62 -145 l35 0 Z" /><glyph glyph-name="" unicode="&#x327;" d="M-115 -208 q34 1 56 24 q22 22 23 56 q-1 40 -30 60 q-28 20 -72 12 l26 56 l-30 0 l-34 -69 l25 -17 q37 12 61 0 q23 -12 24 -42 q-1 -21 -14 -35 q-14 -14 -35 -15 q-18 0 -36 9 q-19 9 -29 22 l-27 -13 q13 -21 39 -34 q26 -14 53 -14 l0 0 Z" /><glyph glyph-name="" unicode="&#x328;" d="M-106 -208 q29 0 53 9 q24 10 44 30 l-16 24 q-15 -17 -33 -25 q-19 -9 -42 -9 q-28 0 -42 16 q-14 15 -14 41 q1 40 29 70 q27 29 63 52 l-27 9 q-42 -29 -70 -60 q-28 -32 -29 -75 q0 -38 23 -59 q22 -21 61 -23 l0 0 Z" /><glyph glyph-name="" unicode="&#x335;" d="M-369 189 l221 0 l0 45 l-221 0 l0 -45 Z" /><glyph glyph-name="" unicode="&#x336;" d="M-600 191 l563 0 l0 34 l-563 0 l0 -34 Z" /><glyph glyph-name="" unicode="&#x337;" d="M-340 113 l27 -23 l189 203 l-27 23 l-189 -203 Z" /><glyph glyph-name="" unicode="&#x338;" d="M-481 -2 l36 -22 l437 626 l-35 23 l-438 -627 Z" /><glyph glyph-name="" unicode="´" d="M5 453 l35 0 l108 147 l-58 0 l-85 -147 Z" /><glyph glyph-name="" unicode="&#x2d8;" d="M239 456 q56 1 91 32 q36 32 37 85 l-31 0 q-1 -36 -27 -61 q-27 -24 -70 -25 q-42 1 -69 25 q-27 25 -28 61 l-31 0 q1 -53 37 -85 q35 -31 91 -32 l0 0 Z" /><glyph glyph-name="" unicode="&#x2c7;" d="M124 453 l49 0 l78 147 l-40 0 l-62 -113 l-63 113 l-40 0 l78 -147 Z" /><glyph glyph-name="" unicode="¸" d="M128 -208 q34 1 56 24 q22 22 23 56 q-1 40 -30 60 q-28 20 -72 12 l26 56 l-30 0 l-34 -69 l25 -17 q37 12 61 0 q23 -12 24 -42 q-1 -21 -14 -35 q-14 -14 -35 -15 q-18 0 -36 9 q-19 9 -29 22 l-27 -13 q13 -21 39 -34 q26 -14 53 -14 l0 0 Z" /><glyph glyph-name="" unicode="&#x2c6;" d="M86 453 l63 113 l62 -113 l40 0 l-78 147 l-49 0 l-78 -147 l40 0 Z" /><glyph glyph-name="" unicode="¨" d="M98 477 q15 0 26 11 q11 10 11 25 q0 16 -11 26 q-11 11 -26 11 q-15 0 -26 -11 q-11 -10 -11 -26 q0 -15 11 -25 q11 -11 26 -11 l0 0 ZM235 477 q15 0 26 11 q11 10 11 25 q0 16 -11 26 q-11 11 -26 11 q-15 0 -26 -11 q-11 -10 -11 -26 q0 -15 11 -25 q11 -11 26 -11 l0 0 Z" /><glyph glyph-name="" unicode="&#x2d9;" d="M121 467 q15 0 25 11 q11 10 11 25 q0 16 -11 26 q-10 11 -25 11 q-15 0 -26 -11 q-11 -10 -11 -26 q0 -15 11 -25 q11 -11 26 -11 l0 0 Z" /><glyph glyph-name="" unicode="`" d="M173 453 l-85 147 l-58 0 l108 -147 l35 0 Z" /><glyph glyph-name="" unicode="&#x2dd;" d="M5 453 l35 0 l108 147 l-58 0 l-85 -147 Z" /><glyph glyph-name="" unicode="¯" d="M55 487 l210 0 l0 34 l-210 0 l0 -34 Z" /><glyph glyph-name="" unicode="&#x2db;" d="M137 -208 q29 0 53 9 q24 10 44 30 l-16 24 q-15 -17 -33 -25 q-19 -9 -42 -9 q-28 0 -42 16 q-14 15 -14 41 q1 40 29 70 q27 29 63 52 l-27 9 q-42 -29 -70 -60 q-28 -32 -29 -75 q0 -38 23 -59 q22 -21 61 -23 l0 0 Z" /><glyph glyph-name="" unicode="&#x2da;" d="M80 440 q33 1 55 23 q22 23 23 55 q-1 33 -23 55 q-22 22 -55 23 q-33 -1 -55 -23 q-22 -22 -23 -55 q1 -32 23 -55 q22 -22 55 -23 l0 0 ZM80 468 q-21 1 -35 15 q-14 14 -14 35 q0 22 14 36 q14 14 35 15 q22 -1 36 -15 q14 -14 14 -36 q0 -21 -14 -35 q-14 -14 -36 -15 l0 0 Z" /><glyph glyph-name="" unicode="&#x2dc;" d="M223 498 q38 1 59 29 q21 27 21 70 l-36 0 q0 -30 -12 -46 q-12 -17 -32 -17 q-15 0 -24 7 q-10 7 -17 19 q-13 18 -30 30 q-17 12 -41 12 q-37 -1 -58 -28 q-21 -27 -21 -71 l36 0 q0 28 12 45 q11 17 32 18 q12 0 22 -6 q9 -6 18 -20 q11 -18 28 -30 q18 -12 43 -12 l0 0 Z" /></font>
</defs>
</svg>
