<?xml version="1.0" standalone="no"?><!DOCTYPE svg PUBLIC "-//W3C//DTD SVG 1.1//EN" "http://www.w3.org/Graphics/SVG/1.1/DTD/svg11.dtd" ><svg xmlns="http://www.w3.org/2000/svg"><metadata></metadata><defs><font id="1.002;AMMP;Now-Bold" horiz-adv-x="990"><font-face font-family="Now" font-weight="700" font-stretch="normal" units-per-em="800" panose-1="0 0 8 0 0 0 0 0 0 0" ascent="720" descent="-240" x-height="0" bbox="-623 -262 951 885" underline-thickness="50" underline-position="-75" unicode-range="U+0020-fb02" /><missing-glyph horiz-adv-x="515" d="M71 0 l372 0 l0 600 l-372 0 l0 -600 ZM167 95 l0 410 l181 0 l0 -410 l-181 0 Z" /><glyph glyph-name="" unicode="A" d="M426 0 l141 0 l-216 600 l-148 0 l-216 -600 l141 0 l37 113 l224 0 l37 -113 ZM200 223 l77 238 l77 -238 l-154 0 Z" /><glyph glyph-name="" unicode="Á" d="M438 800 l-121 0 l-88 -149 l84 0 l125 149 ZM426 0 l141 0 l-216 600 l-148 0 l-216 -600 l141 0 l37 113 l224 0 l37 -113 ZM200 223 l77 238 l77 -238 l-154 0 Z" /><glyph glyph-name="" unicode="&#x102;" d="M278 644 q66 0 106 35 q39 35 40 106 l-72 0 q0 -27 -20 -48 q-19 -20 -54 -21 q-34 1 -54 21 q-20 21 -20 48 l-72 0 q1 -71 41 -106 q39 -35 105 -35 l0 0 ZM426 0 l141 0 l-216 600 l-148 0 l-216 -600 l141 0 l37 113 l224 0 l37 -113 ZM200 223 l77 238 l77 -238 l-154 0 Z" /><glyph glyph-name="" unicode="&#x1cd;" d="M316 651 l99 149 l-80 0 l-57 -78 l-57 78 l-80 0 l98 -149 l77 0 ZM426 0 l141 0 l-216 600 l-148 0 l-216 -600 l141 0 l37 113 l224 0 l37 -113 ZM200 223 l77 238 l77 -238 l-154 0 Z" /><glyph glyph-name="" unicode="Â" d="M278 729 l57 -78 l80 0 l-99 149 l-77 0 l-98 -149 l80 0 l57 78 ZM426 0 l141 0 l-216 600 l-148 0 l-216 -600 l141 0 l37 113 l224 0 l37 -113 ZM200 223 l77 238 l77 -238 l-154 0 Z" /><glyph glyph-name="" unicode="Ä" d="M194 670 q25 1 43 18 q17 17 18 42 q-1 26 -18 43 q-18 16 -43 17 q-25 -1 -42 -17 q-17 -17 -18 -43 q1 -25 18 -42 q17 -17 42 -18 l0 0 ZM362 670 q26 1 43 18 q16 17 17 42 q-1 26 -17 43 q-17 16 -43 17 q-25 -1 -42 -17 q-17 -17 -18 -43 q1 -25 18 -42 q17 -17 42 -18 l0 0 ZM426 0 l141 0 l-216 600 l-148 0 l-216 -600 l141 0 l37 113 l224 0 l37 -113 ZM200 223 l77 238 l77 -238 l-154 0 Z" /><glyph glyph-name="" unicode="À" d="M327 651 l-88 149 l-121 0 l125 -149 l84 0 ZM426 0 l141 0 l-216 600 l-148 0 l-216 -600 l141 0 l37 113 l224 0 l37 -113 ZM200 223 l77 238 l77 -238 l-154 0 Z" /><glyph glyph-name="" unicode="&#x100;" d="M399 744 l-241 0 l0 -80 l241 0 l0 80 ZM426 0 l141 0 l-216 600 l-148 0 l-216 -600 l141 0 l37 113 l224 0 l37 -113 ZM200 223 l77 238 l77 -238 l-154 0 Z" /><glyph glyph-name="" unicode="&#x104;" d="M574 -102 q-12 -20 -29 -32 q-17 -11 -37 -11 q-20 0 -32 13 q-12 12 -12 37 q1 33 29 54 q28 20 74 41 l-216 600 l-148 0 l-216 -600 l141 0 l37 113 l224 0 l37 -113 l41 0 q-35 -17 -58 -43 q-22 -26 -23 -63 q0 -41 26 -68 q26 -28 75 -33 q35 -2 68 11 q34 12 59 38 l-40 56 ZM200 223 l77 238 l77 -238 l-154 0 Z" /><glyph glyph-name="" unicode="Å" d="M426 0 l141 0 l-210 583 q11 14 17 30 q6 16 6 34 q-1 41 -28 68 q-27 27 -68 28 q-42 -1 -69 -28 q-28 -27 -29 -68 q0 -14 4 -27 q4 -14 11 -25 l-214 -595 l141 0 l37 113 l224 0 l37 -113 ZM284 693 q19 -1 32 -14 q13 -13 13 -32 q0 -21 -13 -33 q-13 -13 -32 -13 q-20 0 -32 13 q-12 12 -12 33 q0 19 12 32 q12 13 32 14 l0 0 ZM200 223 l77 238 l77 -238 l-154 0 Z" /><glyph glyph-name="" unicode="Ã" d="M229 708 q5 0 9 -3 q5 -2 9 -9 q16 -24 36 -35 q20 -12 45 -12 q49 1 73 37 q24 35 24 90 l-76 0 q0 -25 -5 -39 q-5 -15 -18 -15 q-6 0 -10 4 q-4 3 -7 9 q-13 19 -34 33 q-21 13 -49 14 q-45 -1 -70 -36 q-26 -35 -26 -92 l76 0 q0 24 5 39 q5 15 18 15 l0 0 ZM426 0 l141 0 l-216 600 l-148 0 l-216 -600 l141 0 l37 113 l224 0 l37 -113 ZM200 223 l77 238 l77 -238 l-154 0 Z" /><glyph glyph-name="" unicode="Æ" d="M721 487 l0 113 l-494 0 l-240 -600 l147 0 l47 125 l180 0 l0 -125 l360 0 l0 113 l-232 0 l0 136 l198 0 l0 102 l-198 0 l0 136 l232 0 ZM219 227 l99 262 l43 0 l0 -262 l-142 0 Z" /><glyph glyph-name="" unicode="B" d="M420 304 q34 18 54 50 q20 32 20 79 q-2 80 -53 123 q-50 44 -128 44 l-254 0 l0 -600 l277 0 q77 0 127 42 q49 42 51 122 q-1 55 -26 89 q-25 35 -68 51 l0 0 ZM362 419 q-1 -27 -19 -46 q-18 -18 -46 -19 l-106 0 l0 129 l106 0 q28 -1 46 -18 q18 -18 19 -46 l0 0 ZM317 117 l-126 0 l0 129 l126 0 q28 -1 46 -19 q18 -19 19 -46 q-1 -28 -19 -45 q-18 -18 -46 -19 l0 0 Z" /><glyph glyph-name="" unicode="C" d="M345 -8 q90 1 162 46 q72 44 111 119 l-114 59 q-22 -43 -64 -69 q-41 -25 -95 -26 q-77 2 -127 52 q-49 50 -51 127 q2 77 51 127 q50 50 127 52 q54 -1 95 -26 q42 -26 64 -69 l114 59 q-39 75 -111 119 q-72 45 -162 46 q-131 -3 -218 -90 q-87 -87 -90 -218 q3 -131 90 -218 q87 -87 218 -90 l0 0 Z" /><glyph glyph-name="" unicode="&#x106;" d="M296 651 l84 0 l125 149 l-121 0 l-88 -149 ZM345 -8 q90 1 162 46 q72 44 111 119 l-114 59 q-22 -43 -64 -69 q-41 -25 -95 -26 q-77 2 -127 52 q-49 50 -51 127 q2 77 51 127 q50 50 127 52 q54 -1 95 -26 q42 -26 64 -69 l114 59 q-39 75 -111 119 q-72 45 -162 46 q-131 -3 -218 -90 q-87 -87 -90 -218 q3 -131 90 -218 q87 -87 218 -90 l0 0 Z" /><glyph glyph-name="" unicode="&#x10c;" d="M306 651 l77 0 l99 149 l-80 0 l-57 -78 l-57 78 l-80 0 l98 -149 ZM345 -8 q90 1 162 46 q72 44 111 119 l-114 59 q-22 -43 -64 -69 q-41 -25 -95 -26 q-77 2 -127 52 q-49 50 -51 127 q2 77 51 127 q50 50 127 52 q54 -1 95 -26 q42 -26 64 -69 l114 59 q-39 75 -111 119 q-72 45 -162 46 q-131 -3 -218 -90 q-87 -87 -90 -218 q3 -131 90 -218 q87 -87 218 -90 l0 0 Z" /><glyph glyph-name="" unicode="Ç" d="M345 121 q-77 2 -127 52 q-49 50 -51 127 q2 77 51 127 q50 50 127 52 q54 -1 95 -26 q42 -26 64 -69 l114 59 q-39 75 -111 119 q-72 45 -162 46 q-131 -3 -218 -90 q-87 -87 -90 -218 q3 -122 80 -207 q77 -84 196 -99 l-38 -68 l45 -26 q26 13 44 8 q17 -6 18 -27 q0 -13 -9 -22 q-9 -9 -22 -9 q-11 0 -22 7 q-10 6 -16 15 l-56 -18 q10 -26 36 -44 q26 -17 58 -18 q38 1 63 26 q25 25 26 63 q-1 38 -27 58 q-26 21 -65 15 l23 39 q82 8 146 51 q65 44 101 113 l-114 59 q-22 -43 -64 -69 q-41 -25 -95 -26 l0 0 Z" /><glyph glyph-name="" unicode="&#x10a;" d="M345 651 q30 1 50 21 q20 20 21 49 q-1 30 -21 50 q-20 19 -50 20 q-29 -1 -49 -20 q-20 -20 -21 -50 q1 -29 21 -49 q20 -20 49 -21 l0 0 ZM345 -8 q90 1 162 46 q72 44 111 119 l-114 59 q-22 -43 -64 -69 q-41 -25 -95 -26 q-77 2 -127 52 q-49 50 -51 127 q2 77 51 127 q50 50 127 52 q54 -1 95 -26 q42 -26 64 -69 l114 59 q-39 75 -111 119 q-72 45 -162 46 q-131 -3 -218 -90 q-87 -87 -90 -218 q3 -131 90 -218 q87 -87 218 -90 l0 0 Z" /><glyph glyph-name="" unicode="D" d="M59 0 l198 0 q127 3 212 88 q85 84 88 212 q-3 128 -88 212 q-85 85 -212 88 l-198 0 l0 -600 ZM191 117 l0 366 l65 0 q73 -2 120 -52 q47 -51 49 -131 q-2 -80 -49 -130 q-47 -51 -120 -53 l-65 0 Z" /><glyph glyph-name="" unicode="Ð" d="M257 600 l-198 0 l0 -266 l-56 0 l0 -68 l56 0 l0 -266 l198 0 q127 3 212 88 q85 84 88 212 q-3 128 -88 212 q-85 85 -212 88 l0 0 ZM256 117 l-65 0 l0 149 l92 0 l0 68 l-92 0 l0 149 l65 0 q73 -2 120 -52 q47 -51 49 -131 q-2 -80 -49 -130 q-47 -51 -120 -53 l0 0 Z" /><glyph glyph-name="" unicode="&#x10e;" d="M217 651 l77 0 l99 149 l-80 0 l-57 -78 l-57 78 l-80 0 l98 -149 ZM59 0 l198 0 q127 3 212 88 q85 84 88 212 q-3 128 -88 212 q-85 85 -212 88 l-198 0 l0 -600 ZM191 117 l0 366 l65 0 q73 -2 120 -52 q47 -51 49 -131 q-2 -80 -49 -130 q-47 -51 -120 -53 l-65 0 Z" /><glyph glyph-name="" unicode="&#x110;" d="M257 600 l-198 0 l0 -266 l-56 0 l0 -68 l56 0 l0 -266 l198 0 q127 3 212 88 q85 84 88 212 q-3 128 -88 212 q-85 85 -212 88 l0 0 ZM256 117 l-65 0 l0 149 l92 0 l0 68 l-92 0 l0 149 l65 0 q73 -2 120 -52 q47 -51 49 -131 q-2 -80 -49 -130 q-47 -51 -120 -53 l0 0 Z" /><glyph glyph-name="" unicode="E" d="M425 484 l0 116 l-361 0 l0 -600 l361 0 l0 116 l-229 0 l0 126 l196 0 l0 116 l-196 0 l0 126 l229 0 Z" /><glyph glyph-name="" unicode="É" d="M405 800 l-121 0 l-88 -149 l84 0 l125 149 ZM425 484 l0 116 l-361 0 l0 -600 l361 0 l0 116 l-229 0 l0 126 l196 0 l0 116 l-196 0 l0 126 l229 0 Z" /><glyph glyph-name="" unicode="&#x11a;" d="M283 651 l99 149 l-80 0 l-57 -78 l-57 78 l-80 0 l98 -149 l77 0 ZM425 484 l0 116 l-361 0 l0 -600 l361 0 l0 116 l-229 0 l0 126 l196 0 l0 116 l-196 0 l0 126 l229 0 Z" /><glyph glyph-name="" unicode="Ê" d="M245 729 l57 -78 l80 0 l-99 149 l-77 0 l-98 -149 l80 0 l57 78 ZM425 484 l0 116 l-361 0 l0 -600 l361 0 l0 116 l-229 0 l0 126 l196 0 l0 116 l-196 0 l0 126 l229 0 Z" /><glyph glyph-name="" unicode="Ë" d="M161 670 q25 1 43 18 q17 17 18 42 q-1 26 -18 43 q-18 16 -43 17 q-25 -1 -42 -17 q-17 -17 -18 -43 q1 -25 18 -42 q17 -17 42 -18 l0 0 ZM329 670 q26 1 43 18 q16 17 17 42 q-1 26 -17 43 q-17 16 -43 17 q-25 -1 -42 -17 q-17 -17 -18 -43 q1 -25 18 -42 q17 -17 42 -18 l0 0 ZM425 484 l0 116 l-361 0 l0 -600 l361 0 l0 116 l-229 0 l0 126 l196 0 l0 116 l-196 0 l0 126 l229 0 Z" /><glyph glyph-name="" unicode="&#x116;" d="M245 651 q30 1 50 21 q20 20 21 49 q-1 30 -21 50 q-20 19 -50 20 q-29 -1 -49 -20 q-20 -20 -21 -50 q1 -29 21 -49 q20 -20 49 -21 l0 0 ZM425 484 l0 116 l-361 0 l0 -600 l361 0 l0 116 l-229 0 l0 126 l196 0 l0 116 l-196 0 l0 126 l229 0 Z" /><glyph glyph-name="" unicode="È" d="M294 651 l-88 149 l-121 0 l125 -149 l84 0 ZM425 484 l0 116 l-361 0 l0 -600 l361 0 l0 116 l-229 0 l0 126 l196 0 l0 116 l-196 0 l0 126 l229 0 Z" /><glyph glyph-name="" unicode="&#x112;" d="M366 744 l-241 0 l0 -80 l241 0 l0 80 ZM425 484 l0 116 l-361 0 l0 -600 l361 0 l0 116 l-229 0 l0 126 l196 0 l0 116 l-196 0 l0 126 l229 0 Z" /><glyph glyph-name="" unicode="&#x118;" d="M432 -102 q-12 -20 -29 -32 q-17 -11 -37 -11 q-20 0 -32 13 q-12 12 -12 37 q1 33 29 54 q28 20 74 41 l0 116 l-229 0 l0 126 l196 0 l0 116 l-196 0 l0 126 l229 0 l0 116 l-361 0 l0 -600 l261 0 q-35 -17 -58 -43 q-22 -26 -23 -63 q0 -41 26 -68 q26 -28 75 -33 q35 -2 68 11 q34 12 59 38 l-40 56 Z" /><glyph glyph-name="" unicode="F" d="M425 484 l0 116 l-361 0 l0 -600 l132 0 l0 242 l196 0 l0 116 l-196 0 l0 126 l229 0 Z" /><glyph glyph-name="" unicode="G" d="M345 329 l0 -103 l165 0 q-22 -48 -65 -76 q-43 -28 -99 -29 q-77 2 -127 52 q-50 50 -52 127 q2 77 52 127 q50 50 127 52 q54 -1 95 -26 q41 -26 64 -69 l114 59 q-40 75 -112 119 q-71 45 -161 46 q-131 -3 -218 -90 q-87 -87 -90 -218 q3 -131 90 -218 q87 -87 218 -90 q131 3 218 90 q87 87 90 218 l0 29 l-309 0 Z" /><glyph glyph-name="" unicode="&#x11e;" d="M346 644 q66 0 106 35 q39 35 40 106 l-72 0 q0 -27 -20 -48 q-19 -20 -54 -21 q-34 1 -54 21 q-20 21 -20 48 l-72 0 q1 -71 41 -106 q39 -35 105 -35 l0 0 ZM345 329 l0 -103 l165 0 q-22 -48 -65 -76 q-43 -28 -99 -29 q-77 2 -127 52 q-50 50 -52 127 q2 77 52 127 q50 50 127 52 q54 -1 95 -26 q41 -26 64 -69 l114 59 q-40 75 -112 119 q-71 45 -161 46 q-131 -3 -218 -90 q-87 -87 -90 -218 q3 -131 90 -218 q87 -87 218 -90 q131 3 218 90 q87 87 90 218 l0 29 l-309 0 Z" /><glyph glyph-name="" unicode="&#x122;" d="M345 329 l0 -103 l165 0 q-22 -48 -65 -76 q-43 -28 -99 -29 q-77 2 -127 52 q-50 50 -52 127 q2 77 52 127 q50 50 127 52 q54 -1 95 -26 q41 -26 64 -69 l114 59 q-40 75 -112 119 q-71 45 -161 46 q-131 -3 -218 -90 q-87 -87 -90 -218 q3 -131 90 -218 q87 -87 218 -90 q131 3 218 90 q87 87 90 218 l0 29 l-309 0 ZM235 -200 l61 0 l105 152 l-110 0 l-56 -152 Z" /><glyph glyph-name="" unicode="&#x120;" d="M346 651 q30 1 50 21 q20 20 21 49 q-1 30 -21 50 q-20 19 -50 20 q-29 -1 -49 -20 q-20 -20 -21 -50 q1 -29 21 -49 q20 -20 49 -21 l0 0 ZM345 329 l0 -103 l165 0 q-22 -48 -65 -76 q-43 -28 -99 -29 q-77 2 -127 52 q-50 50 -52 127 q2 77 52 127 q50 50 127 52 q54 -1 95 -26 q41 -26 64 -69 l114 59 q-40 75 -112 119 q-71 45 -161 46 q-131 -3 -218 -90 q-87 -87 -90 -218 q3 -131 90 -218 q87 -87 218 -90 q131 3 218 90 q87 87 90 218 l0 29 l-309 0 Z" /><glyph glyph-name="" unicode="H" d="M435 600 l0 -241 l-244 0 l0 241 l-132 0 l0 -600 l132 0 l0 242 l244 0 l0 -242 l131 0 l0 600 l-131 0 Z" /><glyph glyph-name="" unicode="&#x126;" d="M613 499 l-47 0 l0 101 l-131 0 l0 -101 l-244 0 l0 101 l-132 0 l0 -101 l-45 0 l0 -52 l45 0 l0 -447 l132 0 l0 242 l244 0 l0 -242 l131 0 l0 447 l47 0 l0 52 ZM435 359 l-244 0 l0 88 l244 0 l0 -88 Z" /><glyph glyph-name="" unicode="I" d="M64 0 l132 0 l0 600 l-132 0 l0 -600 Z" /><glyph glyph-name="" unicode="Í" d="M80 651 l84 0 l125 149 l-121 0 l-88 -149 ZM64 0 l132 0 l0 600 l-132 0 l0 -600 Z" /><glyph glyph-name="" unicode="&#x1cf;" d="M90 651 l77 0 l99 149 l-80 0 l-57 -78 l-57 78 l-80 0 l98 -149 ZM64 0 l132 0 l0 600 l-132 0 l0 -600 Z" /><glyph glyph-name="" unicode="Î" d="M72 651 l57 78 l57 -78 l80 0 l-99 149 l-77 0 l-98 -149 l80 0 ZM64 0 l132 0 l0 600 l-132 0 l0 -600 Z" /><glyph glyph-name="" unicode="Ï" d="M45 670 q25 1 43 18 q17 17 18 42 q-1 26 -18 43 q-18 16 -43 17 q-25 -1 -42 -17 q-17 -17 -18 -43 q1 -25 18 -42 q17 -17 42 -18 l0 0 ZM213 670 q26 1 43 18 q16 17 17 42 q-1 26 -17 43 q-17 16 -43 17 q-25 -1 -42 -17 q-17 -17 -18 -43 q1 -25 18 -42 q17 -17 42 -18 l0 0 ZM64 0 l132 0 l0 600 l-132 0 l0 -600 Z" /><glyph glyph-name="" unicode="&#x130;" d="M129 651 q30 1 50 21 q20 20 21 49 q-1 30 -21 50 q-20 19 -50 20 q-29 -1 -49 -20 q-20 -20 -21 -50 q1 -29 21 -49 q20 -20 49 -21 l0 0 ZM64 0 l132 0 l0 600 l-132 0 l0 -600 Z" /><glyph glyph-name="" unicode="Ì" d="M178 651 l-88 149 l-121 0 l125 -149 l84 0 ZM64 0 l132 0 l0 600 l-132 0 l0 -600 Z" /><glyph glyph-name="" unicode="&#x12a;" d="M9 664 l241 0 l0 80 l-241 0 l0 -80 ZM64 0 l132 0 l0 600 l-132 0 l0 -600 Z" /><glyph glyph-name="" unicode="&#x12e;" d="M203 -102 q-12 -20 -29 -32 q-17 -11 -37 -11 q-20 0 -32 13 q-12 12 -12 37 q1 33 29 54 q28 20 74 41 l0 600 l-132 0 l0 -600 l32 0 q-35 -17 -58 -43 q-22 -26 -23 -63 q0 -41 26 -68 q26 -28 75 -33 q35 -2 68 11 q34 12 59 38 l-40 56 Z" /><glyph glyph-name="" unicode="J" d="M405 600 l-329 0 l0 -117 l197 0 l0 -312 q-1 -28 -17 -45 q-17 -17 -42 -18 q-23 0 -38 15 q-16 14 -20 38 l-130 -38 q10 -61 58 -96 q47 -34 130 -35 q93 1 142 44 q49 43 49 118 l0 446 Z" /><glyph glyph-name="" unicode="K" d="M434 0 l176 0 l-289 333 l259 267 l-170 0 l-196 -212 l-23 0 l0 212 l-132 0 l0 -600 l132 0 l0 274 l19 0 l224 -274 Z" /><glyph glyph-name="" unicode="&#x136;" d="M321 333 l259 267 l-170 0 l-196 -212 l-23 0 l0 212 l-132 0 l0 -600 l132 0 l0 274 l19 0 l224 -274 l176 0 l-289 333 ZM189 -200 l61 0 l105 152 l-110 0 l-56 -152 Z" /><glyph glyph-name="" unicode="L" d="M191 117 l0 483 l-132 0 l0 -600 l331 0 l0 117 l-199 0 Z" /><glyph glyph-name="" unicode="&#x139;" d="M285 800 l-121 0 l-88 -149 l84 0 l125 149 ZM191 117 l0 483 l-132 0 l0 -600 l331 0 l0 117 l-199 0 Z" /><glyph glyph-name="" unicode="&#x13d;" d="M191 600 l-132 0 l0 -600 l331 0 l0 117 l-199 0 l0 483 ZM445 600 l-106 0 l-68 -242 l66 0 l108 242 Z" /><glyph glyph-name="" unicode="&#x13b;" d="M191 117 l0 483 l-132 0 l0 -600 l331 0 l0 117 l-199 0 ZM114 -200 l61 0 l105 152 l-110 0 l-56 -152 Z" /><glyph glyph-name="" unicode="&#x141;" d="M191 117 l0 203 l102 107 l-54 45 l-48 -50 l0 178 l-132 0 l0 -317 l-103 -108 l52 -47 l51 54 l0 -182 l331 0 l0 117 l-199 0 Z" /><glyph glyph-name="" unicode="M" d="M582 600 l-191 -415 l-189 415 l-143 0 l0 -600 l132 0 l0 358 l162 -358 l76 0 l163 357 l0 -357 l132 0 l0 600 l-142 0 Z" /><glyph glyph-name="" unicode="N" d="M490 600 l0 -397 l-295 397 l-136 0 l0 -600 l132 0 l0 398 l294 -398 l136 0 l0 600 l-131 0 Z" /><glyph glyph-name="" unicode="&#x143;" d="M503 800 l-121 0 l-88 -149 l84 0 l125 149 ZM490 600 l0 -397 l-295 397 l-136 0 l0 -600 l132 0 l0 398 l294 -398 l136 0 l0 600 l-131 0 Z" /><glyph glyph-name="" unicode="&#x147;" d="M381 651 l99 149 l-80 0 l-57 -78 l-57 78 l-80 0 l98 -149 l77 0 ZM490 600 l0 -397 l-295 397 l-136 0 l0 -600 l132 0 l0 398 l294 -398 l136 0 l0 600 l-131 0 Z" /><glyph glyph-name="" unicode="&#x145;" d="M490 600 l0 -397 l-295 397 l-136 0 l0 -600 l132 0 l0 398 l294 -398 l136 0 l0 600 l-131 0 ZM227 -200 l61 0 l105 152 l-110 0 l-56 -152 Z" /><glyph glyph-name="" unicode="&#x14a;" d="M490 600 l0 -397 l-295 397 l-136 0 l0 -600 l132 0 l0 398 l294 -398 l0 -59 q-1 -50 -17 -62 q-17 -13 -43 -12 l0 -86 q85 -1 140 33 q54 35 56 121 l0 665 l-131 0 Z" /><glyph glyph-name="" unicode="Ñ" d="M294 708 q5 0 9 -3 q5 -2 9 -9 q16 -24 36 -35 q20 -12 45 -12 q49 1 73 37 q24 35 24 90 l-76 0 q0 -25 -5 -39 q-5 -15 -18 -15 q-6 0 -10 4 q-4 3 -7 9 q-13 19 -34 33 q-21 13 -49 14 q-45 -1 -70 -36 q-26 -35 -26 -92 l76 0 q0 24 5 39 q5 15 18 15 l0 0 ZM490 600 l0 -397 l-295 397 l-136 0 l0 -600 l132 0 l0 398 l294 -398 l136 0 l0 600 l-131 0 Z" /><glyph glyph-name="" unicode="O" d="M345 -8 q131 3 218 90 q87 87 90 218 q-3 131 -90 218 q-87 87 -218 90 q-131 -3 -218 -90 q-87 -87 -90 -218 q3 -131 90 -218 q87 -87 218 -90 l0 0 ZM345 121 q-77 2 -127 52 q-49 50 -51 127 q2 77 51 127 q50 50 127 52 q78 -2 128 -52 q49 -50 51 -127 q-2 -77 -51 -127 q-50 -50 -128 -52 l0 0 Z" /><glyph glyph-name="" unicode="Ó" d="M296 651 l84 0 l125 149 l-121 0 l-88 -149 ZM345 -8 q131 3 218 90 q87 87 90 218 q-3 131 -90 218 q-87 87 -218 90 q-131 -3 -218 -90 q-87 -87 -90 -218 q3 -131 90 -218 q87 -87 218 -90 l0 0 ZM345 121 q-77 2 -127 52 q-49 50 -51 127 q2 77 51 127 q50 50 127 52 q78 -2 128 -52 q49 -50 51 -127 q-2 -77 -51 -127 q-50 -50 -128 -52 l0 0 Z" /><glyph glyph-name="" unicode="&#x1d1;" d="M306 651 l77 0 l99 149 l-80 0 l-57 -78 l-57 78 l-80 0 l98 -149 ZM345 -8 q131 3 218 90 q87 87 90 218 q-3 131 -90 218 q-87 87 -218 90 q-131 -3 -218 -90 q-87 -87 -90 -218 q3 -131 90 -218 q87 -87 218 -90 l0 0 ZM345 121 q-77 2 -127 52 q-49 50 -51 127 q2 77 51 127 q50 50 127 52 q78 -2 128 -52 q49 -50 51 -127 q-2 -77 -51 -127 q-50 -50 -128 -52 l0 0 Z" /><glyph glyph-name="" unicode="Ô" d="M288 651 l57 78 l57 -78 l80 0 l-99 149 l-77 0 l-98 -149 l80 0 ZM345 -8 q131 3 218 90 q87 87 90 218 q-3 131 -90 218 q-87 87 -218 90 q-131 -3 -218 -90 q-87 -87 -90 -218 q3 -131 90 -218 q87 -87 218 -90 l0 0 ZM345 121 q-77 2 -127 52 q-49 50 -51 127 q2 77 51 127 q50 50 127 52 q78 -2 128 -52 q49 -50 51 -127 q-2 -77 -51 -127 q-50 -50 -128 -52 l0 0 Z" /><glyph glyph-name="" unicode="Ö" d="M261 670 q25 1 43 18 q17 17 18 42 q-1 26 -18 43 q-18 16 -43 17 q-25 -1 -42 -17 q-17 -17 -18 -43 q1 -25 18 -42 q17 -17 42 -18 l0 0 ZM429 670 q26 1 43 18 q16 17 17 42 q-1 26 -17 43 q-17 16 -43 17 q-25 -1 -42 -17 q-17 -17 -18 -43 q1 -25 18 -42 q17 -17 42 -18 l0 0 ZM345 -8 q131 3 218 90 q87 87 90 218 q-3 131 -90 218 q-87 87 -218 90 q-131 -3 -218 -90 q-87 -87 -90 -218 q3 -131 90 -218 q87 -87 218 -90 l0 0 ZM345 121 q-77 2 -127 52 q-49 50 -51 127 q2 77 51 127 q50 50 127 52 q78 -2 128 -52 q49 -50 51 -127 q-2 -77 -51 -127 q-50 -50 -128 -52 l0 0 Z" /><glyph glyph-name="" unicode="Ò" d="M394 651 l-88 149 l-121 0 l125 -149 l84 0 ZM345 -8 q131 3 218 90 q87 87 90 218 q-3 131 -90 218 q-87 87 -218 90 q-131 -3 -218 -90 q-87 -87 -90 -218 q3 -131 90 -218 q87 -87 218 -90 l0 0 ZM345 121 q-77 2 -127 52 q-49 50 -51 127 q2 77 51 127 q50 50 127 52 q78 -2 128 -52 q49 -50 51 -127 q-2 -77 -51 -127 q-50 -50 -128 -52 l0 0 Z" /><glyph glyph-name="" unicode="&#x150;" d="M220 651 l83 0 l124 149 l-120 0 l-87 -149 ZM381 651 l83 0 l124 149 l-120 0 l-87 -149 ZM345 -8 q131 3 218 90 q87 87 90 218 q-3 131 -90 218 q-87 87 -218 90 q-131 -3 -218 -90 q-87 -87 -90 -218 q3 -131 90 -218 q87 -87 218 -90 l0 0 ZM345 121 q-77 2 -127 52 q-49 50 -51 127 q2 77 51 127 q50 50 127 52 q78 -2 128 -52 q49 -50 51 -127 q-2 -77 -51 -127 q-50 -50 -128 -52 l0 0 Z" /><glyph glyph-name="" unicode="&#x14c;" d="M225 664 l241 0 l0 80 l-241 0 l0 -80 ZM345 -8 q131 3 218 90 q87 87 90 218 q-3 131 -90 218 q-87 87 -218 90 q-131 -3 -218 -90 q-87 -87 -90 -218 q3 -131 90 -218 q87 -87 218 -90 l0 0 ZM345 121 q-77 2 -127 52 q-49 50 -51 127 q2 77 51 127 q50 50 127 52 q78 -2 128 -52 q49 -50 51 -127 q-2 -77 -51 -127 q-50 -50 -128 -52 l0 0 Z" /><glyph glyph-name="" unicode="Ø" d="M556 525 l54 77 l-78 47 l-51 -73 q-31 16 -65 24 q-34 8 -71 8 q-131 -3 -218 -90 q-87 -87 -90 -218 q0 -66 26 -124 q25 -57 70 -100 l-54 -78 l78 -46 l50 72 q32 -15 66 -23 q35 -9 72 -9 q131 3 218 90 q87 87 90 218 q0 67 -26 125 q-26 57 -71 100 l0 0 ZM167 300 q2 77 51 127 q50 50 127 52 q17 0 32 -3 q16 -2 30 -7 l-199 -285 q-20 23 -30 53 q-11 29 -11 63 l0 0 ZM345 121 q-33 0 -63 11 l200 286 q20 -23 31 -53 q11 -30 11 -65 q-2 -77 -51 -127 q-50 -50 -128 -52 l0 0 Z" /><glyph glyph-name="" unicode="Õ" d="M395 649 q49 1 73 37 q24 35 24 90 l-76 0 q0 -25 -5 -39 q-5 -15 -18 -15 q-6 0 -10 4 q-4 3 -7 9 q-13 19 -34 33 q-21 13 -49 14 q-45 -1 -70 -36 q-26 -35 -26 -92 l76 0 q0 24 5 39 q5 15 18 15 q5 0 9 -3 q5 -2 9 -9 q16 -24 36 -35 q20 -12 45 -12 l0 0 ZM345 -8 q131 3 218 90 q87 87 90 218 q-3 131 -90 218 q-87 87 -218 90 q-131 -3 -218 -90 q-87 -87 -90 -218 q3 -131 90 -218 q87 -87 218 -90 l0 0 ZM345 121 q-77 2 -127 52 q-49 50 -51 127 q2 77 51 127 q50 50 127 52 q78 -2 128 -52 q49 -50 51 -127 q-2 -77 -51 -127 q-50 -50 -128 -52 l0 0 Z" /><glyph glyph-name="" unicode="&#x152;" d="M785 487 l0 113 l-339 0 l0 -8 q-24 8 -49 12 q-25 4 -52 4 q-131 -3 -218 -90 q-87 -87 -90 -218 q3 -131 90 -218 q87 -87 218 -90 q27 0 52 4 q25 4 49 12 l0 -8 l339 0 l0 113 l-220 0 l0 130 l186 0 l0 114 l-186 0 l0 130 l220 0 ZM345 119 q-78 2 -128 53 q-50 50 -52 128 q2 78 52 128 q50 51 128 53 q29 0 54 -8 q26 -9 47 -23 l0 -300 q-21 -14 -47 -23 q-25 -8 -54 -8 l0 0 Z" /><glyph glyph-name="" unicode="P" d="M314 600 l-255 0 l0 -600 l132 0 l0 243 l123 0 q77 2 127 50 q50 49 52 126 q-2 77 -52 128 q-50 51 -127 53 l0 0 ZM293 352 l-102 0 l0 132 l102 0 q32 0 53 -18 q20 -18 21 -48 q-1 -30 -21 -48 q-21 -18 -53 -18 l0 0 Z" /><glyph glyph-name="" unicode="Þ" d="M318 512 l-126 0 l0 88 l-127 0 l0 -600 l127 0 l0 156 l126 0 q76 2 126 51 q50 48 52 123 q-2 78 -52 129 q-50 51 -126 53 l0 0 ZM313 269 l-121 0 l0 130 l121 0 q28 0 47 -18 q18 -18 19 -47 q-1 -28 -19 -46 q-19 -18 -47 -19 l0 0 Z" /><glyph glyph-name="" unicode="Q" d="M676 95 l-60 0 l-75 -33 q52 43 82 104 q29 61 30 134 q-3 131 -90 218 q-87 87 -218 90 q-131 -3 -218 -90 q-87 -87 -90 -218 q3 -131 90 -218 q87 -87 218 -90 q18 0 36 2 q17 2 34 6 l261 0 l0 95 ZM167 300 q2 77 51 127 q50 50 127 52 q78 -2 128 -52 q49 -50 51 -127 q-2 -77 -51 -127 q-50 -50 -128 -52 q-77 2 -127 52 q-49 50 -51 127 l0 0 Z" /><glyph glyph-name="" unicode="R" d="M372 247 q54 17 87 62 q33 45 34 107 q-2 78 -51 130 q-49 52 -128 54 l-255 0 l0 -600 l132 0 l0 232 l53 0 l148 -232 l148 0 l-168 247 ZM294 341 l-103 0 l0 142 l103 0 q32 -1 52 -20 q20 -20 21 -51 q-1 -32 -21 -51 q-20 -19 -52 -20 l0 0 Z" /><glyph glyph-name="" unicode="&#x154;" d="M432 800 l-121 0 l-88 -149 l84 0 l125 149 ZM372 247 q54 17 87 62 q33 45 34 107 q-2 78 -51 130 q-49 52 -128 54 l-255 0 l0 -600 l132 0 l0 232 l53 0 l148 -232 l148 0 l-168 247 ZM294 341 l-103 0 l0 142 l103 0 q32 -1 52 -20 q20 -20 21 -51 q-1 -32 -21 -51 q-20 -19 -52 -20 l0 0 Z" /><glyph glyph-name="" unicode="&#x158;" d="M310 651 l99 149 l-80 0 l-57 -78 l-57 78 l-80 0 l98 -149 l77 0 ZM372 247 q54 17 87 62 q33 45 34 107 q-2 78 -51 130 q-49 52 -128 54 l-255 0 l0 -600 l132 0 l0 232 l53 0 l148 -232 l148 0 l-168 247 ZM294 341 l-103 0 l0 142 l103 0 q32 -1 52 -20 q20 -20 21 -51 q-1 -32 -21 -51 q-20 -19 -52 -20 l0 0 Z" /><glyph glyph-name="" unicode="&#x156;" d="M372 247 q54 17 87 62 q33 45 34 107 q-2 78 -51 130 q-49 52 -128 54 l-255 0 l0 -600 l132 0 l0 232 l53 0 l148 -232 l148 0 l-168 247 ZM294 341 l-103 0 l0 142 l103 0 q32 -1 52 -20 q20 -20 21 -51 q-1 -32 -21 -51 q-20 -19 -52 -20 l0 0 ZM161 -200 l61 0 l105 152 l-110 0 l-56 -152 Z" /><glyph glyph-name="" unicode="S" d="M244 -8 q86 1 146 47 q59 46 61 131 q-17 153 -138 180 q-121 27 -138 91 q1 25 17 38 q16 12 41 12 q26 0 51 -14 q24 -13 47 -38 l88 84 q-33 39 -81 62 q-48 22 -104 23 q-74 0 -132 -43 q-57 -44 -60 -134 q17 -140 139 -167 q121 -27 138 -93 q0 -25 -20 -40 q-19 -15 -54 -15 q-42 0 -72 21 q-31 21 -48 57 l-109 -68 q30 -58 89 -95 q60 -38 139 -39 l0 0 Z" /><glyph glyph-name="" unicode="&#x15a;" d="M187 651 l84 0 l125 149 l-121 0 l-88 -149 ZM244 -8 q86 1 146 47 q59 46 61 131 q-17 153 -138 180 q-121 27 -138 91 q1 25 17 38 q16 12 41 12 q26 0 51 -14 q24 -13 47 -38 l88 84 q-33 39 -81 62 q-48 22 -104 23 q-74 0 -132 -43 q-57 -44 -60 -134 q17 -140 139 -167 q121 -27 138 -93 q0 -25 -20 -40 q-19 -15 -54 -15 q-42 0 -72 21 q-31 21 -48 57 l-109 -68 q30 -58 89 -95 q60 -38 139 -39 l0 0 Z" /><glyph glyph-name="" unicode="&#x160;" d="M197 651 l77 0 l99 149 l-80 0 l-57 -78 l-57 78 l-80 0 l98 -149 ZM244 -8 q86 1 146 47 q59 46 61 131 q-17 153 -138 180 q-121 27 -138 91 q1 25 17 38 q16 12 41 12 q26 0 51 -14 q24 -13 47 -38 l88 84 q-33 39 -81 62 q-48 22 -104 23 q-74 0 -132 -43 q-57 -44 -60 -134 q17 -140 139 -167 q121 -27 138 -93 q0 -25 -20 -40 q-19 -15 -54 -15 q-42 0 -72 21 q-31 21 -48 57 l-109 -68 q30 -58 89 -95 q60 -38 139 -39 l0 0 Z" /><glyph glyph-name="" unicode="&#x15e;" d="M451 170 q-17 153 -138 180 q-121 27 -138 91 q1 25 17 38 q16 12 41 12 q26 0 51 -14 q24 -13 47 -38 l88 84 q-33 39 -81 62 q-48 22 -104 23 q-74 0 -132 -43 q-57 -44 -60 -134 q17 -140 139 -167 q121 -27 138 -93 q0 -25 -20 -40 q-19 -15 -54 -15 q-42 0 -72 21 q-31 21 -48 57 l-109 -68 q27 -51 77 -87 q50 -36 117 -45 l-38 -69 l45 -26 q26 13 44 8 q17 -6 18 -27 q0 -13 -9 -22 q-9 -9 -22 -9 q-11 0 -22 7 q-10 6 -16 15 l-56 -18 q10 -26 36 -44 q26 -17 58 -18 q38 1 63 26 q25 25 26 63 q-1 38 -27 58 q-26 21 -65 15 l24 40 q78 7 129 53 q51 46 53 124 l0 0 Z" /><glyph glyph-name="" unicode="&#x218;" d="M244 -8 q86 1 146 47 q59 46 61 131 q-17 153 -138 180 q-121 27 -138 91 q1 25 17 38 q16 12 41 12 q26 0 51 -14 q24 -13 47 -38 l88 84 q-33 39 -81 62 q-48 22 -104 23 q-74 0 -132 -43 q-57 -44 -60 -134 q17 -140 139 -167 q121 -27 138 -93 q0 -25 -20 -40 q-19 -15 -54 -15 q-42 0 -72 21 q-31 21 -48 57 l-109 -68 q30 -58 89 -95 q60 -38 139 -39 l0 0 ZM192 -201 l105 152 l-110 0 l-56 -152 l61 0 Z" /><glyph glyph-name="" unicode="T" d="M429 600 l-434 0 l0 -117 l152 0 l0 -483 l131 0 l0 483 l151 0 l0 117 Z" /><glyph glyph-name="" unicode="&#x166;" d="M429 483 l0 117 l-434 0 l0 -117 l152 0 l0 -149 l-75 0 l0 -68 l75 0 l0 -266 l131 0 l0 266 l74 0 l0 68 l-74 0 l0 149 l151 0 Z" /><glyph glyph-name="" unicode="&#x164;" d="M250 651 l99 149 l-80 0 l-57 -78 l-57 78 l-80 0 l98 -149 l77 0 ZM429 600 l-434 0 l0 -117 l152 0 l0 -483 l131 0 l0 483 l151 0 l0 117 Z" /><glyph glyph-name="" unicode="&#x162;" d="M278 0 l0 483 l151 0 l0 117 l-434 0 l0 -117 l152 0 l0 -483 l36 0 l-41 -74 l45 -26 q26 13 44 8 q17 -6 18 -27 q0 -13 -9 -22 q-9 -9 -22 -9 q-11 0 -22 7 q-10 6 -16 15 l-56 -18 q10 -26 36 -44 q26 -17 58 -18 q38 1 63 26 q25 25 26 63 q-1 38 -27 58 q-26 21 -65 15 l27 46 l36 0 Z" /><glyph glyph-name="" unicode="&#x21a;" d="M429 600 l-434 0 l0 -117 l152 0 l0 -483 l131 0 l0 483 l151 0 l0 117 ZM101 -200 l61 0 l105 152 l-110 0 l-56 -152 Z" /><glyph glyph-name="" unicode="U" d="M305 -8 q109 2 178 58 q70 55 72 142 l0 408 l-132 0 l0 -383 q-1 -47 -34 -77 q-33 -30 -84 -31 q-51 1 -83 31 q-33 30 -34 77 l0 383 l-132 0 l0 -408 q2 -87 72 -142 q70 -56 177 -58 l0 0 Z" /><glyph glyph-name="" unicode="Ú" d="M256 651 l84 0 l125 149 l-121 0 l-88 -149 ZM305 -8 q109 2 178 58 q70 55 72 142 l0 408 l-132 0 l0 -383 q-1 -47 -34 -77 q-33 -30 -84 -31 q-51 1 -83 31 q-33 30 -34 77 l0 383 l-132 0 l0 -408 q2 -87 72 -142 q70 -56 177 -58 l0 0 Z" /><glyph glyph-name="" unicode="&#x1d3;" d="M266 651 l77 0 l99 149 l-80 0 l-57 -78 l-57 78 l-80 0 l98 -149 ZM305 -8 q109 2 178 58 q70 55 72 142 l0 408 l-132 0 l0 -383 q-1 -47 -34 -77 q-33 -30 -84 -31 q-51 1 -83 31 q-33 30 -34 77 l0 383 l-132 0 l0 -408 q2 -87 72 -142 q70 -56 177 -58 l0 0 Z" /><glyph glyph-name="" unicode="Û" d="M248 651 l57 78 l57 -78 l80 0 l-99 149 l-77 0 l-98 -149 l80 0 ZM305 -8 q109 2 178 58 q70 55 72 142 l0 408 l-132 0 l0 -383 q-1 -47 -34 -77 q-33 -30 -84 -31 q-51 1 -83 31 q-33 30 -34 77 l0 383 l-132 0 l0 -408 q2 -87 72 -142 q70 -56 177 -58 l0 0 Z" /><glyph glyph-name="" unicode="Ü" d="M221 670 q25 1 43 18 q17 17 18 42 q-1 26 -18 43 q-18 16 -43 17 q-25 -1 -42 -17 q-17 -17 -18 -43 q1 -25 18 -42 q17 -17 42 -18 l0 0 ZM389 670 q26 1 43 18 q16 17 17 42 q-1 26 -17 43 q-17 16 -43 17 q-25 -1 -42 -17 q-17 -17 -18 -43 q1 -25 18 -42 q17 -17 42 -18 l0 0 ZM305 -8 q109 2 178 58 q70 55 72 142 l0 408 l-132 0 l0 -383 q-1 -47 -34 -77 q-33 -30 -84 -31 q-51 1 -83 31 q-33 30 -34 77 l0 383 l-132 0 l0 -408 q2 -87 72 -142 q70 -56 177 -58 l0 0 Z" /><glyph glyph-name="" unicode="Ù" d="M354 651 l-88 149 l-121 0 l125 -149 l84 0 ZM305 -8 q109 2 178 58 q70 55 72 142 l0 408 l-132 0 l0 -383 q-1 -47 -34 -77 q-33 -30 -84 -31 q-51 1 -83 31 q-33 30 -34 77 l0 383 l-132 0 l0 -408 q2 -87 72 -142 q70 -56 177 -58 l0 0 Z" /><glyph glyph-name="" unicode="&#x170;" d="M180 651 l83 0 l124 149 l-120 0 l-87 -149 ZM341 651 l83 0 l124 149 l-120 0 l-87 -149 ZM305 -8 q109 2 178 58 q70 55 72 142 l0 408 l-132 0 l0 -383 q-1 -47 -34 -77 q-33 -30 -84 -31 q-51 1 -83 31 q-33 30 -34 77 l0 383 l-132 0 l0 -408 q2 -87 72 -142 q70 -56 177 -58 l0 0 Z" /><glyph glyph-name="" unicode="&#x16a;" d="M185 664 l241 0 l0 80 l-241 0 l0 -80 ZM305 -8 q109 2 178 58 q70 55 72 142 l0 408 l-132 0 l0 -383 q-1 -47 -34 -77 q-33 -30 -84 -31 q-51 1 -83 31 q-33 30 -34 77 l0 383 l-132 0 l0 -408 q2 -87 72 -142 q70 -56 177 -58 l0 0 Z" /><glyph glyph-name="" unicode="&#x172;" d="M423 600 l0 -383 q-1 -47 -34 -77 q-33 -30 -84 -31 q-51 1 -83 31 q-33 30 -34 77 l0 383 l-132 0 l0 -408 q2 -85 69 -140 q67 -55 171 -60 q-14 -13 -21 -31 q-8 -17 -8 -38 q0 -41 26 -68 q26 -28 75 -33 q35 -2 68 11 q34 12 59 38 l-40 56 q-12 -20 -29 -32 q-17 -11 -37 -11 q-20 0 -32 13 q-12 12 -12 37 q0 25 16 42 q16 17 44 32 q68 23 109 71 q40 49 41 113 l0 408 l-132 0 Z" /><glyph glyph-name="" unicode="&#x16e;" d="M305 632 q41 1 68 29 q27 27 28 69 q-1 41 -28 68 q-27 27 -68 28 q-42 -1 -69 -28 q-28 -27 -29 -68 q1 -42 29 -69 q27 -28 69 -29 l0 0 ZM305 684 q-20 0 -32 13 q-12 12 -12 33 q0 19 12 32 q12 13 32 14 q19 -1 32 -14 q13 -13 13 -32 q0 -21 -13 -33 q-13 -13 -32 -13 l0 0 ZM305 -8 q109 2 178 58 q70 55 72 142 l0 408 l-132 0 l0 -383 q-1 -47 -34 -77 q-33 -30 -84 -31 q-51 1 -83 31 q-33 30 -34 77 l0 383 l-132 0 l0 -408 q2 -87 72 -142 q70 -56 177 -58 l0 0 Z" /><glyph glyph-name="" unicode="V" d="M420 600 l-143 -429 l-143 429 l-147 0 l216 -600 l148 0 l216 600 l-147 0 Z" /><glyph glyph-name="" unicode="W" d="M697 600 l-107 -416 l-115 416 l-128 0 l-114 -418 l-108 418 l-139 0 l164 -600 l152 0 l109 422 l109 -422 l152 0 l164 600 l-139 0 Z" /><glyph glyph-name="" unicode="&#x1e82;" d="M572 800 l-121 0 l-88 -149 l84 0 l125 149 ZM697 600 l-107 -416 l-115 416 l-128 0 l-114 -418 l-108 418 l-139 0 l164 -600 l152 0 l109 422 l109 -422 l152 0 l164 600 l-139 0 Z" /><glyph glyph-name="" unicode="&#x174;" d="M412 729 l57 -78 l80 0 l-99 149 l-77 0 l-98 -149 l80 0 l57 78 ZM697 600 l-107 -416 l-115 416 l-128 0 l-114 -418 l-108 418 l-139 0 l164 -600 l152 0 l109 422 l109 -422 l152 0 l164 600 l-139 0 Z" /><glyph glyph-name="" unicode="&#x1e84;" d="M328 670 q25 1 43 18 q17 17 18 42 q-1 26 -18 43 q-18 16 -43 17 q-25 -1 -42 -17 q-17 -17 -18 -43 q1 -25 18 -42 q17 -17 42 -18 l0 0 ZM496 670 q26 1 43 18 q16 17 17 42 q-1 26 -17 43 q-17 16 -43 17 q-25 -1 -42 -17 q-17 -17 -18 -43 q1 -25 18 -42 q17 -17 42 -18 l0 0 ZM697 600 l-107 -416 l-115 416 l-128 0 l-114 -418 l-108 418 l-139 0 l164 -600 l152 0 l109 422 l109 -422 l152 0 l164 600 l-139 0 Z" /><glyph glyph-name="" unicode="&#x1e80;" d="M461 651 l-88 149 l-121 0 l125 -149 l84 0 ZM697 600 l-107 -416 l-115 416 l-128 0 l-114 -418 l-108 418 l-139 0 l164 -600 l152 0 l109 422 l109 -422 l152 0 l164 600 l-139 0 Z" /><glyph glyph-name="" unicode="X" d="M544 0 l-207 310 l196 290 l-151 0 l-116 -182 l-116 182 l-151 0 l196 -291 l-208 -309 l152 0 l127 201 l127 -201 l151 0 Z" /><glyph glyph-name="" unicode="Y" d="M539 600 l-147 0 l-128 -203 l-128 203 l-149 0 l211 -318 l0 -282 l132 0 l0 283 l209 317 Z" /><glyph glyph-name="" unicode="Ý" d="M424 800 l-121 0 l-88 -149 l84 0 l125 149 ZM539 600 l-147 0 l-128 -203 l-128 203 l-149 0 l211 -318 l0 -282 l132 0 l0 283 l209 317 Z" /><glyph glyph-name="" unicode="&#x176;" d="M264 729 l57 -78 l80 0 l-99 149 l-77 0 l-98 -149 l80 0 l57 78 ZM539 600 l-147 0 l-128 -203 l-128 203 l-149 0 l211 -318 l0 -282 l132 0 l0 283 l209 317 Z" /><glyph glyph-name="" unicode="&#x178;" d="M180 670 q25 1 43 18 q17 17 18 42 q-1 26 -18 43 q-18 16 -43 17 q-25 -1 -42 -17 q-17 -17 -18 -43 q1 -25 18 -42 q17 -17 42 -18 l0 0 ZM348 670 q26 1 43 18 q16 17 17 42 q-1 26 -17 43 q-17 16 -43 17 q-25 -1 -42 -17 q-17 -17 -18 -43 q1 -25 18 -42 q17 -17 42 -18 l0 0 ZM539 600 l-147 0 l-128 -203 l-128 203 l-149 0 l211 -318 l0 -282 l132 0 l0 283 l209 317 Z" /><glyph glyph-name="" unicode="&#x1ef2;" d="M313 651 l-88 149 l-121 0 l125 -149 l84 0 ZM539 600 l-147 0 l-128 -203 l-128 203 l-149 0 l211 -318 l0 -282 l132 0 l0 283 l209 317 Z" /><glyph glyph-name="" unicode="Z" d="M483 600 l-435 0 l0 -117 l230 0 l-255 -483 l460 0 l0 117 l-253 0 l253 483 Z" /><glyph glyph-name="" unicode="&#x179;" d="M426 800 l-121 0 l-88 -149 l84 0 l125 149 ZM483 600 l-435 0 l0 -117 l230 0 l-255 -483 l460 0 l0 117 l-253 0 l253 483 Z" /><glyph glyph-name="" unicode="&#x17d;" d="M304 651 l99 149 l-80 0 l-57 -78 l-57 78 l-80 0 l98 -149 l77 0 ZM483 600 l-435 0 l0 -117 l230 0 l-255 -483 l460 0 l0 117 l-253 0 l253 483 Z" /><glyph glyph-name="" unicode="&#x17b;" d="M266 651 q30 1 50 21 q20 20 21 49 q-1 30 -21 50 q-20 19 -50 20 q-29 -1 -49 -20 q-20 -20 -21 -50 q1 -29 21 -49 q20 -20 49 -21 l0 0 ZM483 600 l-435 0 l0 -117 l230 0 l-255 -483 l460 0 l0 117 l-253 0 l253 483 Z" /><glyph glyph-name="" unicode="a" d="M505 104 q-13 -1 -24 7 q-10 8 -11 32 l0 257 l-127 0 l0 -35 q-22 20 -51 32 q-28 11 -63 11 q-85 -2 -141 -60 q-55 -59 -57 -148 q2 -89 57 -147 q56 -59 141 -61 q44 0 78 18 q35 18 59 50 q19 -31 51 -49 q31 -19 72 -19 q10 0 19 3 q8 2 15 5 l0 104 l-18 0 ZM254 105 q-41 1 -67 28 q-27 26 -28 67 q1 41 28 67 q26 27 67 28 q40 -1 67 -28 q27 -26 28 -67 q-1 -41 -28 -67 q-27 -27 -67 -28 l0 0 Z" /><glyph glyph-name="" unicode="á" d="M411 600 l-121 0 l-88 -149 l84 0 l125 149 ZM505 104 q-13 -1 -24 7 q-10 8 -11 32 l0 257 l-127 0 l0 -35 q-22 20 -51 32 q-28 11 -63 11 q-85 -2 -141 -60 q-55 -59 -57 -148 q2 -89 57 -147 q56 -59 141 -61 q44 0 78 18 q35 18 59 50 q19 -31 51 -49 q31 -19 72 -19 q10 0 19 3 q8 2 15 5 l0 104 l-18 0 ZM254 105 q-41 1 -67 28 q-27 26 -28 67 q1 41 28 67 q26 27 67 28 q40 -1 67 -28 q27 -26 28 -67 q-1 -41 -28 -67 q-27 -27 -67 -28 l0 0 Z" /><glyph glyph-name="" unicode="&#x103;" d="M251 444 q66 0 106 35 q39 35 40 106 l-72 0 q0 -27 -20 -48 q-19 -20 -54 -21 q-34 1 -54 21 q-20 21 -20 48 l-72 0 q1 -71 41 -106 q39 -35 105 -35 l0 0 ZM505 104 q-13 -1 -24 7 q-10 8 -11 32 l0 257 l-127 0 l0 -35 q-22 20 -51 32 q-28 11 -63 11 q-85 -2 -141 -60 q-55 -59 -57 -148 q2 -89 57 -147 q56 -59 141 -61 q44 0 78 18 q35 18 59 50 q19 -31 51 -49 q31 -19 72 -19 q10 0 19 3 q8 2 15 5 l0 104 l-18 0 ZM254 105 q-41 1 -67 28 q-27 26 -28 67 q1 41 28 67 q26 27 67 28 q40 -1 67 -28 q27 -26 28 -67 q-1 -41 -28 -67 q-27 -27 -67 -28 l0 0 Z" /><glyph glyph-name="" unicode="&#x1ce;" d="M289 451 l99 149 l-80 0 l-57 -78 l-57 78 l-80 0 l98 -149 l77 0 ZM505 104 q-13 -1 -24 7 q-10 8 -11 32 l0 257 l-127 0 l0 -35 q-22 20 -51 32 q-28 11 -63 11 q-85 -2 -141 -60 q-55 -59 -57 -148 q2 -89 57 -147 q56 -59 141 -61 q44 0 78 18 q35 18 59 50 q19 -31 51 -49 q31 -19 72 -19 q10 0 19 3 q8 2 15 5 l0 104 l-18 0 ZM254 105 q-41 1 -67 28 q-27 26 -28 67 q1 41 28 67 q26 27 67 28 q40 -1 67 -28 q27 -26 28 -67 q-1 -41 -28 -67 q-27 -27 -67 -28 l0 0 Z" /><glyph glyph-name="" unicode="â" d="M251 529 l57 -78 l80 0 l-99 149 l-77 0 l-98 -149 l80 0 l57 78 ZM505 104 q-13 -1 -24 7 q-10 8 -11 32 l0 257 l-127 0 l0 -35 q-22 20 -51 32 q-28 11 -63 11 q-85 -2 -141 -60 q-55 -59 -57 -148 q2 -89 57 -147 q56 -59 141 -61 q44 0 78 18 q35 18 59 50 q19 -31 51 -49 q31 -19 72 -19 q10 0 19 3 q8 2 15 5 l0 104 l-18 0 ZM254 105 q-41 1 -67 28 q-27 26 -28 67 q1 41 28 67 q26 27 67 28 q40 -1 67 -28 q27 -26 28 -67 q-1 -41 -28 -67 q-27 -27 -67 -28 l0 0 Z" /><glyph glyph-name="" unicode="ä" d="M167 470 q25 1 43 18 q17 17 18 42 q-1 26 -18 43 q-18 16 -43 17 q-25 -1 -42 -17 q-17 -17 -18 -43 q1 -25 18 -42 q17 -17 42 -18 l0 0 ZM335 470 q26 1 43 18 q16 17 17 42 q-1 26 -17 43 q-17 16 -43 17 q-25 -1 -42 -17 q-17 -17 -18 -43 q1 -25 18 -42 q17 -17 42 -18 l0 0 ZM505 104 q-13 -1 -24 7 q-10 8 -11 32 l0 257 l-127 0 l0 -35 q-22 20 -51 32 q-28 11 -63 11 q-85 -2 -141 -60 q-55 -59 -57 -148 q2 -89 57 -147 q56 -59 141 -61 q44 0 78 18 q35 18 59 50 q19 -31 51 -49 q31 -19 72 -19 q10 0 19 3 q8 2 15 5 l0 104 l-18 0 ZM254 105 q-41 1 -67 28 q-27 26 -28 67 q1 41 28 67 q26 27 67 28 q40 -1 67 -28 q27 -26 28 -67 q-1 -41 -28 -67 q-27 -27 -67 -28 l0 0 Z" /><glyph glyph-name="" unicode="à" d="M300 451 l-88 149 l-121 0 l125 -149 l84 0 ZM505 104 q-13 -1 -24 7 q-10 8 -11 32 l0 257 l-127 0 l0 -35 q-22 20 -51 32 q-28 11 -63 11 q-85 -2 -141 -60 q-55 -59 -57 -148 q2 -89 57 -147 q56 -59 141 -61 q44 0 78 18 q35 18 59 50 q19 -31 51 -49 q31 -19 72 -19 q10 0 19 3 q8 2 15 5 l0 104 l-18 0 ZM254 105 q-41 1 -67 28 q-27 26 -28 67 q1 41 28 67 q26 27 67 28 q40 -1 67 -28 q27 -26 28 -67 q-1 -41 -28 -67 q-27 -27 -67 -28 l0 0 Z" /><glyph glyph-name="" unicode="&#x101;" d="M372 544 l-241 0 l0 -80 l241 0 l0 80 ZM505 104 q-13 -1 -24 7 q-10 8 -11 32 l0 257 l-127 0 l0 -35 q-22 20 -51 32 q-28 11 -63 11 q-85 -2 -141 -60 q-55 -59 -57 -148 q2 -89 57 -147 q56 -59 141 -61 q44 0 78 18 q35 18 59 50 q19 -31 51 -49 q31 -19 72 -19 q10 0 19 3 q8 2 15 5 l0 104 l-18 0 ZM254 105 q-41 1 -67 28 q-27 26 -28 67 q1 41 28 67 q26 27 67 28 q40 -1 67 -28 q27 -26 28 -67 q-1 -41 -28 -67 q-27 -27 -67 -28 l0 0 Z" /><glyph glyph-name="" unicode="&#x105;" d="M529 -102 q-12 -20 -29 -32 q-17 -11 -37 -11 q-20 0 -32 13 q-12 12 -12 37 q1 33 27 53 q26 20 70 39 l7 3 l0 104 l-18 0 q-13 -1 -24 7 q-10 8 -11 32 l0 257 l-127 0 l0 -35 q-22 20 -51 32 q-28 11 -63 11 q-85 -2 -141 -60 q-55 -59 -57 -148 q2 -89 57 -147 q56 -59 141 -61 q44 0 78 18 q35 18 59 50 q11 -19 28 -33 q16 -15 36 -23 q-38 -18 -63 -44 q-25 -27 -26 -66 q0 -41 26 -68 q26 -28 75 -33 q35 -2 68 11 q34 12 59 38 l-40 56 ZM254 105 q-41 1 -67 28 q-27 26 -28 67 q1 41 28 67 q26 27 67 28 q40 -1 67 -28 q27 -26 28 -67 q-1 -41 -28 -67 q-27 -27 -67 -28 l0 0 Z" /><glyph glyph-name="" unicode="å" d="M251 432 q41 1 68 29 q27 27 28 69 q-1 41 -28 68 q-27 27 -68 28 q-42 -1 -69 -28 q-28 -27 -29 -68 q1 -42 29 -69 q27 -28 69 -29 l0 0 ZM251 576 q19 -1 32 -14 q13 -13 13 -32 q0 -21 -13 -33 q-13 -13 -32 -13 q-20 0 -32 13 q-12 12 -12 33 q0 19 12 32 q12 13 32 14 l0 0 ZM505 104 q-13 -1 -24 7 q-10 8 -11 32 l0 257 l-127 0 l0 -35 q-22 20 -51 32 q-28 11 -63 11 q-85 -2 -141 -60 q-55 -59 -57 -148 q2 -89 57 -147 q56 -59 141 -61 q44 0 78 18 q35 18 59 50 q19 -31 51 -49 q31 -19 72 -19 q10 0 19 3 q8 2 15 5 l0 104 l-18 0 ZM254 105 q-41 1 -67 28 q-27 26 -28 67 q1 41 28 67 q26 27 67 28 q40 -1 67 -28 q27 -26 28 -67 q-1 -41 -28 -67 q-27 -27 -67 -28 l0 0 Z" /><glyph glyph-name="" unicode="ã" d="M202 508 q5 0 9 -3 q5 -2 9 -9 q16 -24 36 -35 q20 -12 45 -12 q49 1 73 37 q24 35 24 90 l-76 0 q0 -25 -5 -39 q-5 -15 -18 -15 q-6 0 -10 4 q-4 3 -7 9 q-13 19 -34 33 q-21 13 -49 14 q-45 -1 -70 -36 q-26 -35 -26 -92 l76 0 q0 24 5 39 q5 15 18 15 l0 0 ZM505 104 q-13 -1 -24 7 q-10 8 -11 32 l0 257 l-127 0 l0 -35 q-22 20 -51 32 q-28 11 -63 11 q-85 -2 -141 -60 q-55 -59 -57 -148 q2 -89 57 -147 q56 -59 141 -61 q44 0 78 18 q35 18 59 50 q19 -31 51 -49 q31 -19 72 -19 q10 0 19 3 q8 2 15 5 l0 104 l-18 0 ZM254 105 q-41 1 -67 28 q-27 26 -28 67 q1 41 28 67 q26 27 67 28 q40 -1 67 -28 q27 -26 28 -67 q-1 -41 -28 -67 q-27 -27 -67 -28 l0 0 Z" /><glyph glyph-name="" unicode="æ" d="M726 201 q-1 95 -59 151 q-58 56 -156 57 q-43 0 -79 -12 q-36 -11 -65 -33 q-25 21 -60 33 q-36 11 -80 11 q-69 0 -115 -27 q-47 -26 -62 -74 l110 -31 q3 19 20 30 q18 10 46 9 q28 -1 45 -16 q18 -14 18 -42 l0 -19 l-107 0 q-70 0 -110 -33 q-40 -32 -41 -91 q0 -56 38 -89 q38 -32 110 -33 q48 0 90 17 q42 17 75 49 q30 -32 74 -49 q43 -17 97 -17 q84 1 137 40 q52 40 68 106 l-123 0 q-8 -24 -30 -37 q-21 -14 -54 -14 q-43 0 -66 25 q-23 24 -27 67 l306 0 l0 22 ZM513 311 q32 0 52 -14 q19 -15 29 -41 l-166 0 q10 26 31 40 q20 15 54 15 l0 0 ZM211 82 q-21 0 -34 10 q-14 9 -14 28 q0 20 14 31 q14 11 37 11 l80 0 q2 -13 5 -25 q-13 -26 -37 -40 q-24 -15 -51 -15 l0 0 Z" /><glyph glyph-name="" unicode="b" d="M301 408 q-34 0 -63 -11 q-28 -12 -51 -32 l0 320 l-128 0 l0 -685 l128 -1 l0 36 q23 -20 51 -32 q29 -11 63 -11 q85 2 140 61 q55 58 57 147 q-2 89 -57 148 q-55 58 -140 60 l0 0 ZM276 105 q-41 1 -67 28 q-27 26 -28 67 q1 41 28 67 q26 27 67 28 q41 -1 67 -28 q27 -26 28 -67 q-1 -41 -28 -67 q-26 -27 -67 -28 l0 0 Z" /><glyph glyph-name="" unicode="c" d="M254 -8 q91 1 148 48 q57 46 71 122 l-132 0 q-10 -26 -33 -41 q-23 -15 -54 -16 q-42 2 -68 28 q-26 26 -27 67 q1 41 27 67 q26 26 68 28 q31 -1 54 -16 q23 -15 33 -41 l132 0 q-14 76 -71 123 q-57 46 -148 47 q-102 -2 -162 -59 q-60 -57 -61 -149 q1 -92 61 -149 q60 -57 162 -59 l0 0 Z" /><glyph glyph-name="" unicode="&#x107;" d="M184 452 l84 0 l125 149 l-121 0 l-88 -149 ZM254 -8 q91 1 148 48 q57 46 71 122 l-132 0 q-10 -26 -33 -41 q-23 -15 -54 -16 q-42 2 -68 28 q-26 26 -27 67 q1 41 27 67 q26 26 68 28 q31 -1 54 -16 q23 -15 33 -41 l132 0 q-14 76 -71 123 q-57 46 -148 47 q-102 -2 -162 -59 q-60 -57 -61 -149 q1 -92 61 -149 q60 -57 162 -59 l0 0 Z" /><glyph glyph-name="" unicode="&#x10d;" d="M194 452 l77 0 l99 149 l-80 0 l-57 -78 l-57 78 l-80 0 l98 -149 ZM254 -8 q91 1 148 48 q57 46 71 122 l-132 0 q-10 -26 -33 -41 q-23 -15 -54 -16 q-42 2 -68 28 q-26 26 -27 67 q1 41 27 67 q26 26 68 28 q31 -1 54 -16 q23 -15 33 -41 l132 0 q-14 76 -71 123 q-57 46 -148 47 q-102 -2 -162 -59 q-60 -57 -61 -149 q1 -92 61 -149 q60 -57 162 -59 l0 0 Z" /><glyph glyph-name="" unicode="ç" d="M254 105 q-42 2 -68 28 q-26 26 -27 67 q1 41 27 67 q26 26 68 28 q31 -1 54 -16 q23 -15 33 -41 l132 0 q-14 76 -71 123 q-57 46 -148 47 q-102 -2 -162 -59 q-60 -57 -61 -149 q1 -81 49 -136 q47 -55 130 -69 l-39 -70 l45 -26 q26 13 44 8 q17 -6 18 -27 q0 -13 -9 -22 q-9 -9 -22 -9 q-11 0 -22 7 q-10 6 -16 15 l-56 -18 q10 -26 36 -44 q26 -17 58 -18 q38 1 63 26 q25 25 26 63 q-1 38 -27 58 q-26 21 -65 15 l23 39 q86 5 139 51 q54 46 67 119 l-132 0 q-10 -26 -33 -41 q-23 -15 -54 -16 l0 0 Z" /><glyph glyph-name="" unicode="&#x10b;" d="M233 452 q30 1 50 21 q20 20 21 49 q-1 30 -21 50 q-20 19 -50 20 q-29 -1 -49 -20 q-20 -20 -21 -50 q1 -29 21 -49 q20 -20 49 -21 l0 0 ZM254 -8 q91 1 148 48 q57 46 71 122 l-132 0 q-10 -26 -33 -41 q-23 -15 -54 -16 q-42 2 -68 28 q-26 26 -27 67 q1 41 27 67 q26 26 68 28 q31 -1 54 -16 q23 -15 33 -41 l132 0 q-14 76 -71 123 q-57 46 -148 47 q-102 -2 -162 -59 q-60 -57 -61 -149 q1 -92 61 -149 q60 -57 162 -59 l0 0 Z" /><glyph glyph-name="" unicode="d" d="M343 685 l0 -320 q-22 20 -51 32 q-28 11 -63 11 q-85 -2 -141 -60 q-55 -59 -57 -148 q2 -89 57 -147 q56 -59 141 -61 q35 0 63 11 q29 12 51 32 l0 -36 l127 1 l0 685 l-127 0 ZM254 105 q-41 1 -67 28 q-27 26 -28 67 q1 41 28 67 q26 27 67 28 q40 -1 67 -28 q27 -26 28 -67 q-1 -41 -28 -67 q-27 -27 -67 -28 l0 0 Z" /><glyph glyph-name="" unicode="ð" d="M318 569 l34 44 l-57 44 l-40 -51 q-63 28 -135 28 l-26 -101 q22 1 45 -2 q24 -4 47 -12 l-30 -38 l58 -44 l36 46 q18 -15 34 -35 q16 -21 29 -47 q-14 4 -28 5 q-15 2 -30 2 q-96 -2 -159 -60 q-63 -59 -65 -148 q2 -89 65 -147 q63 -59 159 -61 q97 2 159 61 q63 58 65 147 q-1 125 -44 219 q-43 95 -117 150 l0 0 ZM255 105 q-41 1 -67 28 q-27 26 -28 67 q1 41 28 67 q26 27 67 28 q41 -1 67 -28 q27 -26 28 -67 q-1 -41 -28 -67 q-26 -27 -67 -28 l0 0 Z" /><glyph glyph-name="" unicode="&#x10f;" d="M343 365 q-22 20 -51 32 q-28 11 -63 11 q-85 -2 -141 -60 q-55 -59 -57 -148 q2 -89 57 -147 q56 -59 141 -61 q35 0 63 11 q29 12 51 32 l0 -36 l127 1 l0 685 l-127 0 l0 -320 ZM587 685 l-68 -242 l66 0 l108 242 l-106 0 ZM254 105 q-41 1 -67 28 q-27 26 -28 67 q1 41 28 67 q26 27 67 28 q40 -1 67 -28 q27 -26 28 -67 q-1 -41 -28 -67 q-27 -27 -67 -28 l0 0 Z" /><glyph glyph-name="" unicode="&#x111;" d="M521 557 l-51 0 l0 128 l-127 0 l0 -128 l-102 0 l0 -68 l102 0 l0 -124 q-22 20 -51 32 q-28 11 -63 11 q-85 -2 -141 -60 q-55 -59 -57 -148 q2 -89 57 -147 q56 -59 141 -61 q35 0 63 11 q29 12 51 32 l0 -36 l127 1 l0 489 l51 0 l0 68 ZM254 105 q-41 1 -67 28 q-27 26 -28 67 q1 41 28 67 q26 27 67 28 q40 -1 67 -28 q27 -26 28 -67 q-1 -41 -28 -67 q-27 -27 -67 -28 l0 0 Z" /><glyph glyph-name="" unicode="e" d="M466 201 q-1 95 -59 151 q-58 56 -156 57 q-98 -1 -158 -58 q-60 -56 -62 -151 q1 -95 62 -151 q60 -56 162 -57 q84 1 137 40 q52 40 68 106 l-123 0 q-8 -24 -30 -37 q-21 -14 -54 -14 q-43 0 -66 25 q-23 24 -27 67 l306 0 l0 22 ZM253 311 q32 0 52 -14 q19 -15 29 -41 l-166 0 q10 26 31 40 q20 15 54 15 l0 0 Z" /><glyph glyph-name="" unicode="é" d="M415 601 l-121 0 l-88 -149 l84 0 l125 149 ZM466 201 q-1 95 -59 151 q-58 56 -156 57 q-98 -1 -158 -58 q-60 -56 -62 -151 q1 -95 62 -151 q60 -56 162 -57 q84 1 137 40 q52 40 68 106 l-123 0 q-8 -24 -30 -37 q-21 -14 -54 -14 q-43 0 -66 25 q-23 24 -27 67 l306 0 l0 22 ZM253 311 q32 0 52 -14 q19 -15 29 -41 l-166 0 q10 26 31 40 q20 15 54 15 l0 0 Z" /><glyph glyph-name="" unicode="&#x11b;" d="M293 452 l99 149 l-80 0 l-57 -78 l-57 78 l-80 0 l98 -149 l77 0 ZM466 201 q-1 95 -59 151 q-58 56 -156 57 q-98 -1 -158 -58 q-60 -56 -62 -151 q1 -95 62 -151 q60 -56 162 -57 q84 1 137 40 q52 40 68 106 l-123 0 q-8 -24 -30 -37 q-21 -14 -54 -14 q-43 0 -66 25 q-23 24 -27 67 l306 0 l0 22 ZM253 311 q32 0 52 -14 q19 -15 29 -41 l-166 0 q10 26 31 40 q20 15 54 15 l0 0 Z" /><glyph glyph-name="" unicode="ê" d="M255 530 l57 -78 l80 0 l-99 149 l-77 0 l-98 -149 l80 0 l57 78 ZM466 201 q-1 95 -59 151 q-58 56 -156 57 q-98 -1 -158 -58 q-60 -56 -62 -151 q1 -95 62 -151 q60 -56 162 -57 q84 1 137 40 q52 40 68 106 l-123 0 q-8 -24 -30 -37 q-21 -14 -54 -14 q-43 0 -66 25 q-23 24 -27 67 l306 0 l0 22 ZM253 311 q32 0 52 -14 q19 -15 29 -41 l-166 0 q10 26 31 40 q20 15 54 15 l0 0 Z" /><glyph glyph-name="" unicode="ë" d="M171 471 q25 1 43 18 q17 17 18 42 q-1 26 -18 43 q-18 16 -43 17 q-25 -1 -42 -17 q-17 -17 -18 -43 q1 -25 18 -42 q17 -17 42 -18 l0 0 ZM339 471 q26 1 43 18 q16 17 17 42 q-1 26 -17 43 q-17 16 -43 17 q-25 -1 -42 -17 q-17 -17 -18 -43 q1 -25 18 -42 q17 -17 42 -18 l0 0 ZM466 201 q-1 95 -59 151 q-58 56 -156 57 q-98 -1 -158 -58 q-60 -56 -62 -151 q1 -95 62 -151 q60 -56 162 -57 q84 1 137 40 q52 40 68 106 l-123 0 q-8 -24 -30 -37 q-21 -14 -54 -14 q-43 0 -66 25 q-23 24 -27 67 l306 0 l0 22 ZM253 311 q32 0 52 -14 q19 -15 29 -41 l-166 0 q10 26 31 40 q20 15 54 15 l0 0 Z" /><glyph glyph-name="" unicode="&#x117;" d="M255 452 q30 1 50 21 q20 20 21 49 q-1 30 -21 50 q-20 19 -50 20 q-29 -1 -49 -20 q-20 -20 -21 -50 q1 -29 21 -49 q20 -20 49 -21 l0 0 ZM466 201 q-1 95 -59 151 q-58 56 -156 57 q-98 -1 -158 -58 q-60 -56 -62 -151 q1 -95 62 -151 q60 -56 162 -57 q84 1 137 40 q52 40 68 106 l-123 0 q-8 -24 -30 -37 q-21 -14 -54 -14 q-43 0 -66 25 q-23 24 -27 67 l306 0 l0 22 ZM253 311 q32 0 52 -14 q19 -15 29 -41 l-166 0 q10 26 31 40 q20 15 54 15 l0 0 Z" /><glyph glyph-name="" unicode="è" d="M304 452 l-88 149 l-121 0 l125 -149 l84 0 ZM466 201 q-1 95 -59 151 q-58 56 -156 57 q-98 -1 -158 -58 q-60 -56 -62 -151 q1 -95 62 -151 q60 -56 162 -57 q84 1 137 40 q52 40 68 106 l-123 0 q-8 -24 -30 -37 q-21 -14 -54 -14 q-43 0 -66 25 q-23 24 -27 67 l306 0 l0 22 ZM253 311 q32 0 52 -14 q19 -15 29 -41 l-166 0 q10 26 31 40 q20 15 54 15 l0 0 Z" /><glyph glyph-name="" unicode="&#x113;" d="M376 545 l-241 0 l0 -80 l241 0 l0 80 ZM466 201 q-1 95 -59 151 q-58 56 -156 57 q-98 -1 -158 -58 q-60 -56 -62 -151 q1 -95 62 -151 q60 -56 162 -57 q84 1 137 40 q52 40 68 106 l-123 0 q-8 -24 -30 -37 q-21 -14 -54 -14 q-43 0 -66 25 q-23 24 -27 67 l306 0 l0 22 ZM253 311 q32 0 52 -14 q19 -15 29 -41 l-166 0 q10 26 31 40 q20 15 54 15 l0 0 Z" /><glyph glyph-name="" unicode="&#x119;" d="M466 201 q-1 95 -59 151 q-58 56 -156 57 q-98 -1 -158 -58 q-60 -56 -62 -151 q1 -88 53 -142 q52 -55 142 -65 q-21 -16 -33 -36 q-12 -21 -12 -47 q0 -41 26 -68 q26 -28 75 -33 q35 -2 68 11 q34 12 59 38 l-40 56 q-12 -20 -29 -32 q-17 -11 -37 -11 q-20 0 -32 13 q-12 12 -12 37 q0 29 22 49 q22 19 59 36 q48 17 79 51 q30 34 41 81 l-123 0 q-8 -24 -30 -37 q-21 -14 -54 -14 q-43 0 -66 25 q-23 24 -27 67 l306 0 l0 22 ZM253 311 q32 0 52 -14 q19 -15 29 -41 l-166 0 q10 26 31 40 q20 15 54 15 l0 0 Z" /><glyph glyph-name="" unicode="f" d="M301 400 l-95 0 l0 120 q0 25 12 39 q12 14 33 14 l48 0 l0 100 q-8 5 -26 9 q-17 3 -38 3 q-66 -1 -110 -43 q-45 -42 -47 -107 l0 -135 l-67 0 l0 -99 l67 0 l0 -301 l128 0 l0 301 l95 0 l0 99 Z" /><glyph glyph-name="" unicode="g" d="M482 400 l-128 0 l0 -40 q-25 23 -56 35 q-32 13 -69 13 q-85 -2 -141 -60 q-55 -58 -57 -148 q2 -89 57 -147 q56 -59 141 -61 q38 0 70 13 q32 14 57 37 l0 -53 q-1 -56 -29 -87 q-28 -31 -77 -32 q-35 0 -60 18 q-24 17 -36 47 l-117 -47 q25 -62 80 -95 q54 -34 133 -34 q110 1 171 63 q61 62 62 174 l-1 404 ZM261 105 q-41 1 -67 28 q-27 26 -28 67 q1 41 28 67 q26 27 67 28 q41 -1 68 -28 q27 -26 28 -67 q-1 -41 -28 -67 q-27 -27 -68 -28 l0 0 Z" /><glyph glyph-name="" unicode="&#x11f;" d="M253 444 q66 0 106 35 q39 35 40 106 l-72 0 q0 -27 -20 -48 q-19 -20 -54 -21 q-34 1 -54 21 q-20 21 -20 48 l-72 0 q1 -71 41 -106 q39 -35 105 -35 l0 0 ZM482 400 l-128 0 l0 -40 q-25 23 -56 35 q-32 13 -69 13 q-85 -2 -141 -60 q-55 -58 -57 -148 q2 -89 57 -147 q56 -59 141 -61 q38 0 70 13 q32 14 57 37 l0 -53 q-1 -56 -29 -87 q-28 -31 -77 -32 q-35 0 -60 18 q-24 17 -36 47 l-117 -47 q25 -62 80 -95 q54 -34 133 -34 q110 1 171 63 q61 62 62 174 l-1 404 ZM261 105 q-41 1 -67 28 q-27 26 -28 67 q1 41 28 67 q26 27 67 28 q41 -1 68 -28 q27 -26 28 -67 q-1 -41 -28 -67 q-27 -27 -68 -28 l0 0 Z" /><glyph glyph-name="" unicode="&#x123;" d="M379 607 l-61 0 l-105 -152 l110 0 l56 152 ZM482 400 l-128 0 l0 -40 q-25 23 -56 35 q-32 13 -69 13 q-85 -2 -141 -60 q-55 -58 -57 -148 q2 -89 57 -147 q56 -59 141 -61 q38 0 70 13 q32 14 57 37 l0 -53 q-1 -56 -29 -87 q-28 -31 -77 -32 q-35 0 -60 18 q-24 17 -36 47 l-117 -47 q25 -62 80 -95 q54 -34 133 -34 q110 1 171 63 q61 62 62 174 l-1 404 ZM261 105 q-41 1 -67 28 q-27 26 -28 67 q1 41 28 67 q26 27 67 28 q41 -1 68 -28 q27 -26 28 -67 q-1 -41 -28 -67 q-27 -27 -68 -28 l0 0 Z" /><glyph glyph-name="" unicode="&#x121;" d="M253 451 q30 1 50 21 q20 20 21 49 q-1 30 -21 50 q-20 19 -50 20 q-29 -1 -49 -20 q-20 -20 -21 -50 q1 -29 21 -49 q20 -20 49 -21 l0 0 ZM482 400 l-128 0 l0 -40 q-25 23 -56 35 q-32 13 -69 13 q-85 -2 -141 -60 q-55 -58 -57 -148 q2 -89 57 -147 q56 -59 141 -61 q38 0 70 13 q32 14 57 37 l0 -53 q-1 -56 -29 -87 q-28 -31 -77 -32 q-35 0 -60 18 q-24 17 -36 47 l-117 -47 q25 -62 80 -95 q54 -34 133 -34 q110 1 171 63 q61 62 62 174 l-1 404 ZM261 105 q-41 1 -67 28 q-27 26 -28 67 q1 41 28 67 q26 27 67 28 q41 -1 68 -28 q27 -26 28 -67 q-1 -41 -28 -67 q-27 -27 -68 -28 l0 0 Z" /><glyph glyph-name="" unicode="h" d="M299 408 q-33 0 -62 -14 q-29 -14 -50 -39 l0 330 l-128 0 l0 -685 l128 0 l0 226 q1 27 19 48 q19 20 49 21 q27 -1 44 -18 q17 -18 17 -45 l0 -232 l128 0 l0 253 q-1 67 -42 111 q-41 43 -103 44 l0 0 Z" /><glyph glyph-name="" unicode="&#x127;" d="M299 408 q-33 0 -62 -14 q-29 -14 -50 -39 l0 138 l101 0 l0 68 l-101 0 l0 124 l-128 0 l0 -124 l-51 0 l0 -68 l51 0 l0 -493 l128 0 l0 226 q1 27 19 48 q19 20 49 21 q27 -1 44 -18 q17 -18 17 -45 l0 -232 l128 0 l0 253 q-1 67 -42 111 q-41 43 -103 44 l0 0 Z" /><glyph glyph-name="" unicode="i" d="M125 467 q29 1 49 21 q20 20 21 49 q-1 30 -21 50 q-20 19 -49 20 q-29 -1 -49 -20 q-20 -20 -21 -50 q1 -29 21 -49 q20 -20 49 -21 l0 0 ZM61 0 l127 0 l0 400 l-127 0 l0 -400 Z" /><glyph glyph-name="" unicode="&#x131;" d="M64 0 l128 0 l0 400 l-128 0 l0 -400 Z" /><glyph glyph-name="" unicode="í" d="M79 451 l84 0 l125 149 l-121 0 l-88 -149 ZM64 0 l128 0 l0 400 l-128 0 l0 -400 Z" /><glyph glyph-name="" unicode="&#x1d0;" d="M89 451 l77 0 l99 149 l-80 0 l-57 -78 l-57 78 l-80 0 l98 -149 ZM64 0 l128 0 l0 400 l-128 0 l0 -400 Z" /><glyph glyph-name="" unicode="î" d="M71 451 l57 78 l57 -78 l80 0 l-99 149 l-77 0 l-98 -149 l80 0 ZM64 0 l128 0 l0 400 l-128 0 l0 -400 Z" /><glyph glyph-name="" unicode="ï" d="M44 470 q25 1 43 18 q17 17 18 42 q-1 26 -18 43 q-18 16 -43 17 q-25 -1 -42 -17 q-17 -17 -18 -43 q1 -25 18 -42 q17 -17 42 -18 l0 0 ZM212 470 q26 1 43 18 q16 17 17 42 q-1 26 -17 43 q-17 16 -43 17 q-25 -1 -42 -17 q-17 -17 -18 -43 q1 -25 18 -42 q17 -17 42 -18 l0 0 ZM64 0 l128 0 l0 400 l-128 0 l0 -400 Z" /><glyph glyph-name="" unicode="ì" d="M177 451 l-88 149 l-121 0 l125 -149 l84 0 ZM64 0 l128 0 l0 400 l-128 0 l0 -400 Z" /><glyph glyph-name="" unicode="&#x12b;" d="M8 464 l241 0 l0 80 l-241 0 l0 -80 ZM64 0 l128 0 l0 400 l-128 0 l0 -400 Z" /><glyph glyph-name="" unicode="&#x12f;" d="M128 451 q30 1 50 21 q20 20 21 49 q-1 30 -21 50 q-20 19 -50 20 q-29 -1 -49 -20 q-20 -20 -21 -50 q1 -29 21 -49 q20 -20 49 -21 l0 0 ZM187 -102 q-12 -20 -29 -32 q-17 -11 -37 -11 q-20 0 -32 13 q-12 12 -12 37 q1 33 29 54 q28 20 74 41 l12 0 l0 400 l-128 0 l0 -400 l16 0 q-35 -17 -58 -43 q-22 -26 -23 -63 q0 -41 26 -68 q26 -28 75 -33 q35 -2 68 11 q34 12 59 38 l-40 56 Z" /><glyph glyph-name="" unicode="j" d="M125 467 q29 1 49 21 q20 20 21 49 q-1 30 -21 50 q-20 19 -49 20 q-29 -1 -49 -20 q-20 -20 -21 -50 q1 -29 21 -49 q20 -20 49 -21 l0 0 ZM32 -240 q65 1 110 44 q44 42 46 107 l0 489 l-127 0 l0 -474 q0 -25 -13 -39 q-12 -15 -32 -15 l-49 0 l0 -99 q9 -5 27 -9 q17 -4 38 -4 l0 0 Z" /><glyph glyph-name="" unicode="&#x237;" d="M30 -240 q66 1 110 44 q45 42 47 107 l0 489 l-127 0 l0 -474 q0 -25 -13 -39 q-12 -15 -33 -15 l-48 0 l0 -99 q9 -5 26 -9 q17 -4 38 -4 l0 0 Z" /><glyph glyph-name="" unicode="k" d="M499 0 l-190 219 l175 181 l-153 0 l-139 -144 l0 429 l-127 0 l0 -685 l127 0 l0 184 l141 -184 l166 0 Z" /><glyph glyph-name="" unicode="&#x137;" d="M309 219 l175 181 l-153 0 l-139 -144 l0 429 l-127 0 l0 -685 l127 0 l0 184 l141 -184 l166 0 l-190 219 ZM147 -200 l61 0 l105 152 l-110 0 l-56 -152 Z" /><glyph glyph-name="" unicode="l" d="M59 0 l128 0 l0 685 l-128 0 l0 -685 Z" /><glyph glyph-name="" unicode="&#x13a;" d="M74 736 l84 0 l125 149 l-121 0 l-88 -149 ZM59 0 l128 0 l0 685 l-128 0 l0 -685 Z" /><glyph glyph-name="" unicode="&#x13e;" d="M59 0 l128 0 l0 685 l-128 0 l0 -685 ZM300 443 l108 242 l-106 0 l-68 -242 l66 0 Z" /><glyph glyph-name="" unicode="&#x13c;" d="M59 0 l128 0 l0 685 l-128 0 l0 -685 ZM73 -200 l105 152 l-110 0 l-56 -152 l61 0 Z" /><glyph glyph-name="" unicode="&#x140;" d="M59 0 l128 0 l0 685 l-128 0 l0 -685 ZM260 244 q19 0 33 13 q13 13 14 33 q-1 19 -14 32 q-14 12 -33 13 q-19 -1 -31 -13 q-13 -13 -14 -32 q1 -20 14 -33 q12 -13 31 -13 l0 0 Z" /><glyph glyph-name="" unicode="&#x142;" d="M286 457 l-52 44 l-47 -49 l0 233 l-128 0 l0 -368 l-99 -104 l50 -45 l49 51 l0 -219 l128 0 l0 353 l99 104 Z" /><glyph glyph-name="" unicode="m" d="M536 408 q-43 0 -75 -18 q-32 -19 -51 -52 q-17 32 -46 51 q-30 19 -68 19 q-35 0 -62 -15 q-27 -15 -47 -42 l0 49 l-128 0 l0 -400 l128 0 l0 232 q0 23 14 42 q14 20 43 21 q27 -1 42 -18 q16 -18 16 -45 l0 -232 l128 0 l0 232 q0 23 14 42 q14 20 43 21 q27 -1 43 -18 q16 -18 16 -45 l0 -232 l127 0 l0 253 q0 71 -35 112 q-36 42 -102 43 l0 0 Z" /><glyph glyph-name="" unicode="n" d="M301 408 q-35 0 -64 -15 q-29 -15 -50 -42 l0 49 l-128 0 l0 -400 l128 0 l0 232 q1 28 20 45 q19 17 47 18 q28 -1 45 -18 q18 -17 18 -45 l0 -232 l127 0 l0 253 q-2 67 -42 111 q-40 43 -101 44 l0 0 Z" /><glyph glyph-name="" unicode="&#x144;" d="M414 600 l-121 0 l-88 -149 l84 0 l125 149 ZM301 408 q-35 0 -64 -15 q-29 -15 -50 -42 l0 49 l-128 0 l0 -400 l128 0 l0 232 q1 28 20 45 q19 17 47 18 q28 -1 45 -18 q18 -17 18 -45 l0 -232 l127 0 l0 253 q-2 67 -42 111 q-40 43 -101 44 l0 0 Z" /><glyph glyph-name="" unicode="&#x148;" d="M292 451 l99 149 l-80 0 l-57 -78 l-57 78 l-80 0 l98 -149 l77 0 ZM301 408 q-35 0 -64 -15 q-29 -15 -50 -42 l0 49 l-128 0 l0 -400 l128 0 l0 232 q1 28 20 45 q19 17 47 18 q28 -1 45 -18 q18 -17 18 -45 l0 -232 l127 0 l0 253 q-2 67 -42 111 q-40 43 -101 44 l0 0 Z" /><glyph glyph-name="" unicode="&#x146;" d="M301 408 q-35 0 -64 -15 q-29 -15 -50 -42 l0 49 l-128 0 l0 -400 l128 0 l0 232 q1 28 20 45 q19 17 47 18 q28 -1 45 -18 q18 -17 18 -45 l0 -232 l127 0 l0 253 q-2 67 -42 111 q-40 43 -101 44 l0 0 ZM141 -200 l61 0 l105 152 l-110 0 l-56 -152 Z" /><glyph glyph-name="" unicode="&#x14b;" d="M301 408 q-35 0 -64 -15 q-29 -15 -50 -42 l0 49 l-128 0 l0 -400 l128 0 l0 232 q1 28 19 45 q19 18 48 18 q28 0 45 -18 q17 -17 18 -45 l0 -305 q-1 -49 -17 -62 q-17 -12 -42 -11 l0 -76 q84 -1 134 33 q51 34 52 121 l0 321 q-2 67 -42 111 q-40 43 -101 44 l0 0 Z" /><glyph glyph-name="" unicode="ñ" d="M205 508 q5 0 9 -3 q5 -2 9 -9 q16 -24 36 -35 q20 -12 45 -12 q49 1 73 37 q24 35 24 90 l-76 0 q0 -25 -5 -39 q-5 -15 -18 -15 q-6 0 -10 4 q-4 3 -7 9 q-13 19 -34 33 q-21 13 -49 14 q-45 -1 -70 -36 q-26 -35 -26 -92 l76 0 q0 24 5 39 q5 15 18 15 l0 0 ZM301 408 q-35 0 -64 -15 q-29 -15 -50 -42 l0 49 l-128 0 l0 -400 l128 0 l0 232 q1 28 20 45 q19 17 47 18 q28 -1 45 -18 q18 -17 18 -45 l0 -232 l127 0 l0 253 q-2 67 -42 111 q-40 43 -101 44 l0 0 Z" /><glyph glyph-name="" unicode="o" d="M254 -8 q102 2 161 59 q60 57 61 149 q-1 92 -61 149 q-59 57 -161 59 q-102 -2 -162 -59 q-60 -57 -61 -149 q1 -92 61 -149 q60 -57 162 -59 l0 0 ZM254 105 q-42 2 -68 28 q-26 26 -27 67 q1 41 27 67 q26 26 68 28 q41 -2 68 -28 q26 -26 27 -67 q-1 -41 -27 -67 q-27 -26 -68 -28 l0 0 Z" /><glyph glyph-name="" unicode="ó" d="M205 451 l84 0 l125 149 l-121 0 l-88 -149 ZM254 -8 q102 2 161 59 q60 57 61 149 q-1 92 -61 149 q-59 57 -161 59 q-102 -2 -162 -59 q-60 -57 -61 -149 q1 -92 61 -149 q60 -57 162 -59 l0 0 ZM254 105 q-42 2 -68 28 q-26 26 -27 67 q1 41 27 67 q26 26 68 28 q41 -2 68 -28 q26 -26 27 -67 q-1 -41 -27 -67 q-27 -26 -68 -28 l0 0 Z" /><glyph glyph-name="" unicode="&#x1d2;" d="M215 451 l77 0 l99 149 l-80 0 l-57 -78 l-57 78 l-80 0 l98 -149 ZM254 -8 q102 2 161 59 q60 57 61 149 q-1 92 -61 149 q-59 57 -161 59 q-102 -2 -162 -59 q-60 -57 -61 -149 q1 -92 61 -149 q60 -57 162 -59 l0 0 ZM254 105 q-42 2 -68 28 q-26 26 -27 67 q1 41 27 67 q26 26 68 28 q41 -2 68 -28 q26 -26 27 -67 q-1 -41 -27 -67 q-27 -26 -68 -28 l0 0 Z" /><glyph glyph-name="" unicode="ô" d="M197 451 l57 78 l57 -78 l80 0 l-99 149 l-77 0 l-98 -149 l80 0 ZM254 -8 q102 2 161 59 q60 57 61 149 q-1 92 -61 149 q-59 57 -161 59 q-102 -2 -162 -59 q-60 -57 -61 -149 q1 -92 61 -149 q60 -57 162 -59 l0 0 ZM254 105 q-42 2 -68 28 q-26 26 -27 67 q1 41 27 67 q26 26 68 28 q41 -2 68 -28 q26 -26 27 -67 q-1 -41 -27 -67 q-27 -26 -68 -28 l0 0 Z" /><glyph glyph-name="" unicode="ö" d="M170 470 q25 1 43 18 q17 17 18 42 q-1 26 -18 43 q-18 16 -43 17 q-25 -1 -42 -17 q-17 -17 -18 -43 q1 -25 18 -42 q17 -17 42 -18 l0 0 ZM338 470 q26 1 43 18 q16 17 17 42 q-1 26 -17 43 q-17 16 -43 17 q-25 -1 -42 -17 q-17 -17 -18 -43 q1 -25 18 -42 q17 -17 42 -18 l0 0 ZM254 -8 q102 2 161 59 q60 57 61 149 q-1 92 -61 149 q-59 57 -161 59 q-102 -2 -162 -59 q-60 -57 -61 -149 q1 -92 61 -149 q60 -57 162 -59 l0 0 ZM254 105 q-42 2 -68 28 q-26 26 -27 67 q1 41 27 67 q26 26 68 28 q41 -2 68 -28 q26 -26 27 -67 q-1 -41 -27 -67 q-27 -26 -68 -28 l0 0 Z" /><glyph glyph-name="" unicode="ò" d="M303 451 l-88 149 l-121 0 l125 -149 l84 0 ZM254 -8 q102 2 161 59 q60 57 61 149 q-1 92 -61 149 q-59 57 -161 59 q-102 -2 -162 -59 q-60 -57 -61 -149 q1 -92 61 -149 q60 -57 162 -59 l0 0 ZM254 105 q-42 2 -68 28 q-26 26 -27 67 q1 41 27 67 q26 26 68 28 q41 -2 68 -28 q26 -26 27 -67 q-1 -41 -27 -67 q-27 -26 -68 -28 l0 0 Z" /><glyph glyph-name="" unicode="&#x151;" d="M129 451 l83 0 l124 149 l-120 0 l-87 -149 ZM290 451 l83 0 l124 149 l-120 0 l-87 -149 ZM254 -8 q102 2 161 59 q60 57 61 149 q-1 92 -61 149 q-59 57 -161 59 q-102 -2 -162 -59 q-60 -57 -61 -149 q1 -92 61 -149 q60 -57 162 -59 l0 0 ZM254 105 q-42 2 -68 28 q-26 26 -27 67 q1 41 27 67 q26 26 68 28 q41 -2 68 -28 q26 -26 27 -67 q-1 -41 -27 -67 q-27 -26 -68 -28 l0 0 Z" /><glyph glyph-name="" unicode="&#x14d;" d="M134 464 l241 0 l0 80 l-241 0 l0 -80 ZM254 -8 q102 2 161 59 q60 57 61 149 q-1 92 -61 149 q-59 57 -161 59 q-102 -2 -162 -59 q-60 -57 -61 -149 q1 -92 61 -149 q60 -57 162 -59 l0 0 ZM254 105 q-42 2 -68 28 q-26 26 -27 67 q1 41 27 67 q26 26 68 28 q41 -2 68 -28 q26 -26 27 -67 q-1 -41 -27 -67 q-27 -26 -68 -28 l0 0 Z" /><glyph glyph-name="" unicode="ø" d="M403 360 l29 42 l-52 32 l-30 -43 q-21 8 -45 13 q-25 4 -51 4 q-102 -2 -162 -59 q-60 -57 -61 -149 q0 -50 20 -91 q19 -41 55 -70 l-29 -41 l52 -31 l29 42 q44 -17 96 -17 q102 2 161 59 q60 57 61 149 q0 50 -19 91 q-19 41 -54 69 l0 0 ZM159 200 q1 41 27 67 q26 26 68 28 q14 0 27 -4 l-104 -149 q-8 12 -13 27 q-5 14 -5 31 l0 0 ZM254 105 q-14 0 -26 4 l103 148 q8 -12 13 -26 q5 -14 5 -31 q-1 -41 -27 -67 q-27 -26 -68 -28 l0 0 Z" /><glyph glyph-name="" unicode="õ" d="M304 449 q49 1 73 37 q24 35 24 90 l-76 0 q0 -25 -5 -39 q-5 -15 -18 -15 q-6 0 -10 4 q-4 3 -7 9 q-13 19 -34 33 q-21 13 -49 14 q-45 -1 -70 -36 q-26 -35 -26 -92 l76 0 q0 24 5 39 q5 15 18 15 q5 0 9 -3 q5 -2 9 -9 q16 -24 36 -35 q20 -12 45 -12 l0 0 ZM254 -8 q102 2 161 59 q60 57 61 149 q-1 92 -61 149 q-59 57 -161 59 q-102 -2 -162 -59 q-60 -57 -61 -149 q1 -92 61 -149 q60 -57 162 -59 l0 0 ZM254 105 q-42 2 -68 28 q-26 26 -27 67 q1 41 27 67 q26 26 68 28 q41 -2 68 -28 q26 -26 27 -67 q-1 -41 -27 -67 q-27 -26 -68 -28 l0 0 Z" /><glyph glyph-name="" unicode="&#x153;" d="M786 201 q-1 95 -59 151 q-58 56 -156 57 q-48 0 -88 -15 q-41 -15 -70 -43 q-29 27 -69 42 q-40 15 -90 15 q-102 -2 -162 -59 q-60 -57 -61 -149 q1 -92 61 -149 q60 -57 162 -59 q50 0 90 15 q40 15 69 42 q29 -27 71 -42 q41 -15 91 -15 q84 1 137 40 q52 40 68 106 l-123 0 q-8 -24 -30 -37 q-21 -14 -54 -14 q-43 0 -66 25 q-23 24 -27 67 l306 0 l0 22 ZM573 311 q32 0 52 -14 q19 -15 29 -41 l-166 0 q10 26 31 40 q20 15 54 15 l0 0 ZM254 105 q-42 2 -68 28 q-26 26 -27 67 q1 41 27 67 q26 26 68 28 q41 -2 68 -28 q26 -26 27 -67 q-1 -41 -27 -67 q-27 -26 -68 -28 l0 0 Z" /><glyph glyph-name="" unicode="p" d="M301 408 q-34 0 -63 -11 q-28 -12 -51 -32 l0 34 l-128 1 l0 -640 l128 -1 l0 276 q23 -20 51 -32 q29 -11 63 -11 q85 2 140 61 q55 58 57 147 q-2 89 -57 148 q-55 58 -140 60 l0 0 ZM276 105 q-41 1 -67 28 q-27 26 -28 67 q1 41 28 67 q26 27 67 28 q41 -1 67 -28 q27 -26 28 -67 q-1 -41 -28 -67 q-26 -27 -67 -28 l0 0 Z" /><glyph glyph-name="" unicode="þ" d="M305 408 q-34 0 -62 -11 q-28 -11 -51 -31 l0 247 l-127 0 l0 -853 l127 0 l0 274 q23 -20 51 -31 q28 -11 62 -11 q86 2 141 61 q54 58 56 147 q-2 89 -56 148 q-55 58 -141 60 l0 0 ZM287 105 q-41 1 -67 28 q-27 26 -28 67 q1 41 28 67 q26 27 67 28 q41 -1 67 -28 q27 -26 28 -67 q-1 -41 -28 -67 q-26 -27 -67 -28 l0 0 Z" /><glyph glyph-name="" unicode="q" d="M516 -128 q-21 0 -33 15 q-13 14 -13 39 l0 474 l-127 0 l0 -35 q-22 20 -51 32 q-28 11 -63 11 q-85 -2 -141 -60 q-55 -59 -57 -148 q2 -89 57 -147 q56 -59 141 -61 q35 0 63 11 q29 12 51 32 l0 -124 q2 -65 47 -107 q44 -43 110 -44 q15 0 29 3 q14 2 24 5 l0 104 l-37 0 ZM254 105 q-41 1 -67 28 q-27 26 -28 67 q1 41 28 67 q26 27 67 28 q40 -1 67 -28 q27 -26 28 -67 q-1 -41 -28 -67 q-27 -27 -67 -28 l0 0 Z" /><glyph glyph-name="" unicode="r" d="M299 408 q-35 0 -64 -17 q-28 -16 -48 -46 l0 55 l-128 0 l0 -400 l128 0 l0 191 q1 50 30 77 q30 27 78 27 q11 0 21 -1 q9 -1 16 -3 l0 113 q-7 2 -15 3 q-9 1 -18 1 l0 0 Z" /><glyph glyph-name="" unicode="&#x155;" d="M338 600 l-121 0 l-88 -149 l84 0 l125 149 ZM187 345 l0 55 l-128 0 l0 -400 l128 0 l0 191 q1 50 30 77 q30 27 78 27 q11 0 21 -1 q9 -1 16 -3 l0 113 q-7 2 -15 3 q-9 1 -18 1 q-35 0 -64 -17 q-28 -16 -48 -46 l0 0 Z" /><glyph glyph-name="" unicode="&#x159;" d="M216 451 l99 149 l-80 0 l-57 -78 l-57 78 l-80 0 l98 -149 l77 0 ZM299 408 q-35 0 -64 -17 q-28 -16 -48 -46 l0 55 l-128 0 l0 -400 l128 0 l0 191 q1 50 30 77 q30 27 78 27 q11 0 21 -1 q9 -1 16 -3 l0 113 q-7 2 -15 3 q-9 1 -18 1 l0 0 Z" /><glyph glyph-name="" unicode="&#x157;" d="M299 408 q-35 0 -64 -17 q-28 -16 -48 -46 l0 55 l-128 0 l0 -400 l128 0 l0 191 q1 50 30 77 q30 27 78 27 q11 0 21 -1 q9 -1 16 -3 l0 113 q-7 2 -15 3 q-9 1 -18 1 l0 0 ZM12 -200 l61 0 l105 152 l-110 0 l-56 -152 Z" /><glyph glyph-name="" unicode="s" d="M188 -8 q68 1 106 37 q38 36 39 93 q-2 59 -40 89 q-38 30 -83 45 q-22 9 -32 15 q-11 7 -11 18 q0 10 8 16 q8 7 24 7 q20 0 36 -9 q17 -8 26 -20 l64 72 q-23 23 -58 38 q-35 15 -77 15 q-69 -2 -109 -38 q-39 -37 -40 -90 q4 -59 46 -86 q42 -27 80 -38 q27 -10 38 -19 q10 -9 10 -19 q0 -12 -10 -18 q-9 -7 -25 -7 q-16 -1 -35 8 q-18 9 -32 34 l-94 -47 q20 -47 67 -71 q47 -25 102 -25 l0 0 Z" /><glyph glyph-name="" unicode="&#x15b;" d="M141 451 l84 0 l125 149 l-121 0 l-88 -149 ZM188 -8 q68 1 106 37 q38 36 39 93 q-2 59 -40 89 q-38 30 -83 45 q-22 9 -32 15 q-11 7 -11 18 q0 10 8 16 q8 7 24 7 q20 0 36 -9 q17 -8 26 -20 l64 72 q-23 23 -58 38 q-35 15 -77 15 q-69 -2 -109 -38 q-39 -37 -40 -90 q4 -59 46 -86 q42 -27 80 -38 q27 -10 38 -19 q10 -9 10 -19 q0 -12 -10 -18 q-9 -7 -25 -7 q-16 -1 -35 8 q-18 9 -32 34 l-94 -47 q20 -47 67 -71 q47 -25 102 -25 l0 0 Z" /><glyph glyph-name="" unicode="&#x161;" d="M151 451 l77 0 l99 149 l-80 0 l-57 -78 l-57 78 l-80 0 l98 -149 ZM188 -8 q68 1 106 37 q38 36 39 93 q-2 59 -40 89 q-38 30 -83 45 q-22 9 -32 15 q-11 7 -11 18 q0 10 8 16 q8 7 24 7 q20 0 36 -9 q17 -8 26 -20 l64 72 q-23 23 -58 38 q-35 15 -77 15 q-69 -2 -109 -38 q-39 -37 -40 -90 q4 -59 46 -86 q42 -27 80 -38 q27 -10 38 -19 q10 -9 10 -19 q0 -12 -10 -18 q-9 -7 -25 -7 q-16 -1 -35 8 q-18 9 -32 34 l-94 -47 q20 -47 67 -71 q47 -25 102 -25 l0 0 Z" /><glyph glyph-name="" unicode="&#x15f;" d="M333 122 q-2 59 -40 89 q-38 30 -83 45 q-22 9 -32 15 q-11 7 -11 18 q0 10 8 16 q8 7 24 7 q20 0 36 -9 q17 -8 26 -20 l64 72 q-23 23 -58 38 q-35 15 -77 15 q-69 -2 -109 -38 q-39 -37 -40 -90 q4 -59 46 -86 q42 -27 80 -38 q27 -10 38 -19 q10 -9 10 -19 q0 -12 -10 -18 q-9 -7 -25 -7 q-16 -1 -35 8 q-18 9 -32 34 l-94 -47 q16 -39 53 -63 q37 -24 83 -31 l-38 -68 l45 -26 q26 13 44 8 q17 -6 18 -27 q0 -13 -9 -22 q-9 -9 -22 -9 q-11 0 -22 7 q-10 6 -16 15 l-56 -18 q10 -26 36 -44 q26 -17 58 -18 q38 1 63 26 q25 25 26 63 q-1 38 -27 58 q-26 21 -65 15 l23 40 q57 8 88 42 q32 34 32 86 l0 0 Z" /><glyph glyph-name="" unicode="&#x219;" d="M188 -8 q68 1 106 37 q38 36 39 93 q-2 59 -40 89 q-38 30 -83 45 q-22 9 -32 15 q-11 7 -11 18 q0 10 8 16 q8 7 24 7 q20 0 36 -9 q17 -8 26 -20 l64 72 q-23 23 -58 38 q-35 15 -77 15 q-69 -2 -109 -38 q-39 -37 -40 -90 q4 -59 46 -86 q42 -27 80 -38 q27 -10 38 -19 q10 -9 10 -19 q0 -12 -10 -18 q-9 -7 -25 -7 q-16 -1 -35 8 q-18 9 -32 34 l-94 -47 q20 -47 67 -71 q47 -25 102 -25 l0 0 ZM137 -200 l105 152 l-110 0 l-56 -152 l61 0 Z" /><glyph glyph-name="" unicode="ß" d="M440 315 q21 23 33 51 q11 29 11 62 q-2 76 -57 123 q-55 48 -145 49 q-94 -2 -155 -54 q-60 -52 -62 -136 l0 -410 l127 0 l0 410 q1 35 27 57 q25 21 65 22 q35 0 57 -18 q22 -17 23 -45 q-1 -29 -22 -49 q-21 -20 -52 -21 l-11 0 l0 -104 l28 0 q36 -1 60 -23 q23 -22 24 -54 q-1 -29 -19 -45 q-19 -16 -44 -17 l-71 0 l0 -113 l96 0 q72 -3 118 45 q46 47 47 122 q0 46 -21 84 q-21 38 -57 64 l0 0 Z" /><glyph glyph-name="" unicode="t" d="M300 301 l0 99 l-95 0 l0 154 l-127 0 l0 -154 l-67 0 l0 -99 l67 0 l0 -158 q2 -65 47 -107 q44 -43 110 -44 q21 0 38 4 q18 4 26 9 l0 99 l-48 0 q-21 0 -33 15 q-13 14 -13 39 l0 143 l95 0 Z" /><glyph glyph-name="" unicode="&#x167;" d="M300 301 l0 99 l-95 0 l0 154 l-127 0 l0 -154 l-67 0 l0 -99 l67 0 l0 -67 l-62 0 l0 -68 l62 0 l0 -23 q2 -65 47 -107 q44 -43 110 -44 q21 0 38 4 q18 4 26 9 l0 99 l-48 0 q-21 0 -33 15 q-13 14 -13 39 l0 8 l91 0 l0 68 l-91 0 l0 67 l95 0 Z" /><glyph glyph-name="" unicode="&#x165;" d="M313 672 l-68 -242 l66 0 l108 242 l-106 0 ZM205 554 l-127 0 l0 -154 l-67 0 l0 -99 l67 0 l0 -158 q2 -65 47 -107 q44 -43 110 -44 q21 0 38 4 q18 4 26 9 l0 99 l-48 0 q-21 0 -33 15 q-13 14 -13 39 l0 143 l95 0 l0 99 l-95 0 l0 154 Z" /><glyph glyph-name="" unicode="&#x163;" d="M237 -46 l23 40 q13 2 23 4 q11 3 16 7 l0 99 l-48 0 q-21 0 -33 15 q-13 14 -13 39 l0 143 l95 0 l0 99 l-95 0 l0 154 l-127 0 l0 -154 l-67 0 l0 -99 l67 0 l0 -158 q1 -56 36 -96 q34 -40 88 -52 l-38 -69 l45 -26 q26 13 44 8 q17 -6 18 -27 q0 -13 -9 -22 q-9 -9 -22 -9 q-11 0 -22 7 q-10 6 -16 15 l-56 -18 q10 -26 36 -44 q26 -17 58 -18 q38 1 63 26 q25 25 26 63 q-1 38 -27 58 q-26 21 -65 15 l0 0 Z" /><glyph glyph-name="" unicode="&#x21b;" d="M300 301 l0 99 l-95 0 l0 154 l-127 0 l0 -154 l-67 0 l0 -99 l67 0 l0 -158 q2 -65 47 -107 q44 -43 110 -44 q21 0 38 4 q18 4 26 9 l0 99 l-48 0 q-21 0 -33 15 q-13 14 -13 39 l0 143 l95 0 ZM123 -200 l61 0 l105 152 l-110 0 l-56 -152 Z" /><glyph glyph-name="" unicode="u" d="M238 -8 q91 1 139 44 q49 43 49 117 l0 247 l-127 0 l0 -230 q-1 -29 -17 -47 q-17 -17 -44 -18 q-26 1 -43 18 q-16 18 -17 47 l0 230 l-128 0 l0 -247 q0 -74 49 -117 q48 -43 139 -44 l0 0 Z" /><glyph glyph-name="" unicode="ú" d="M192 451 l84 0 l125 149 l-121 0 l-88 -149 ZM238 -8 q91 1 139 44 q49 43 49 117 l0 247 l-127 0 l0 -230 q-1 -29 -17 -47 q-17 -17 -44 -18 q-26 1 -43 18 q-16 18 -17 47 l0 230 l-128 0 l0 -247 q0 -74 49 -117 q48 -43 139 -44 l0 0 Z" /><glyph glyph-name="" unicode="&#x1d4;" d="M202 451 l77 0 l99 149 l-80 0 l-57 -78 l-57 78 l-80 0 l98 -149 ZM238 -8 q91 1 139 44 q49 43 49 117 l0 247 l-127 0 l0 -230 q-1 -29 -17 -47 q-17 -17 -44 -18 q-26 1 -43 18 q-16 18 -17 47 l0 230 l-128 0 l0 -247 q0 -74 49 -117 q48 -43 139 -44 l0 0 Z" /><glyph glyph-name="" unicode="û" d="M184 451 l57 78 l57 -78 l80 0 l-99 149 l-77 0 l-98 -149 l80 0 ZM238 -8 q91 1 139 44 q49 43 49 117 l0 247 l-127 0 l0 -230 q-1 -29 -17 -47 q-17 -17 -44 -18 q-26 1 -43 18 q-16 18 -17 47 l0 230 l-128 0 l0 -247 q0 -74 49 -117 q48 -43 139 -44 l0 0 Z" /><glyph glyph-name="" unicode="ü" d="M157 470 q25 1 43 18 q17 17 18 42 q-1 26 -18 43 q-18 16 -43 17 q-25 -1 -42 -17 q-17 -17 -18 -43 q1 -25 18 -42 q17 -17 42 -18 l0 0 ZM325 470 q26 1 43 18 q16 17 17 42 q-1 26 -17 43 q-17 16 -43 17 q-25 -1 -42 -17 q-17 -17 -18 -43 q1 -25 18 -42 q17 -17 42 -18 l0 0 ZM238 -8 q91 1 139 44 q49 43 49 117 l0 247 l-127 0 l0 -230 q-1 -29 -17 -47 q-17 -17 -44 -18 q-26 1 -43 18 q-16 18 -17 47 l0 230 l-128 0 l0 -247 q0 -74 49 -117 q48 -43 139 -44 l0 0 Z" /><glyph glyph-name="" unicode="ù" d="M290 451 l-88 149 l-121 0 l125 -149 l84 0 ZM238 -8 q91 1 139 44 q49 43 49 117 l0 247 l-127 0 l0 -230 q-1 -29 -17 -47 q-17 -17 -44 -18 q-26 1 -43 18 q-16 18 -17 47 l0 230 l-128 0 l0 -247 q0 -74 49 -117 q48 -43 139 -44 l0 0 Z" /><glyph glyph-name="" unicode="&#x171;" d="M116 451 l83 0 l124 149 l-120 0 l-87 -149 ZM277 451 l83 0 l124 149 l-120 0 l-87 -149 ZM238 -8 q91 1 139 44 q49 43 49 117 l0 247 l-127 0 l0 -230 q-1 -29 -17 -47 q-17 -17 -44 -18 q-26 1 -43 18 q-16 18 -17 47 l0 230 l-128 0 l0 -247 q0 -74 49 -117 q48 -43 139 -44 l0 0 Z" /><glyph glyph-name="" unicode="&#x16b;" d="M121 464 l241 0 l0 80 l-241 0 l0 -80 ZM238 -8 q91 1 139 44 q49 43 49 117 l0 247 l-127 0 l0 -230 q-1 -29 -17 -47 q-17 -17 -44 -18 q-26 1 -43 18 q-16 18 -17 47 l0 230 l-128 0 l0 -247 q0 -74 49 -117 q48 -43 139 -44 l0 0 Z" /><glyph glyph-name="" unicode="&#x173;" d="M426 153 l0 247 l-127 0 l0 -230 q-1 -29 -17 -47 q-17 -17 -44 -18 q-26 1 -43 18 q-16 18 -17 47 l0 230 l-128 0 l0 -247 q0 -70 43 -112 q42 -42 123 -48 q-14 -15 -23 -33 q-9 -18 -9 -40 q0 -41 26 -68 q26 -28 75 -33 q35 -2 68 11 q34 12 59 38 l-40 56 q-12 -20 -29 -32 q-17 -11 -37 -11 q-20 0 -32 13 q-12 12 -12 37 q0 25 16 42 q16 17 43 31 q24 9 44 22 q30 21 46 53 q15 33 15 74 l0 0 Z" /><glyph glyph-name="" unicode="&#x16f;" d="M241 432 q41 1 68 29 q27 27 28 69 q-1 41 -28 68 q-27 27 -68 28 q-42 -1 -69 -28 q-28 -27 -29 -68 q1 -42 29 -69 q27 -28 69 -29 l0 0 ZM241 484 q-20 0 -32 13 q-12 12 -12 33 q0 19 12 32 q12 13 32 14 q19 -1 32 -14 q13 -13 13 -32 q0 -21 -13 -33 q-13 -13 -32 -13 l0 0 ZM238 -8 q91 1 139 44 q49 43 49 117 l0 247 l-127 0 l0 -230 q-1 -29 -17 -47 q-17 -17 -44 -18 q-26 1 -43 18 q-16 18 -17 47 l0 230 l-128 0 l0 -247 q0 -74 49 -117 q48 -43 139 -44 l0 0 Z" /><glyph glyph-name="" unicode="v" d="M300 400 l-84 -263 l-85 263 l-136 0 l160 -400 l120 0 l162 400 l-137 0 Z" /><glyph glyph-name="" unicode="w" d="M546 400 l-68 -266 l-86 266 l-100 0 l-85 -265 l-67 265 l-145 0 l138 -400 l134 0 l75 226 l75 -226 l135 0 l136 400 l-142 0 Z" /><glyph glyph-name="" unicode="&#x1e83;" d="M503 600 l-121 0 l-88 -149 l84 0 l125 149 ZM546 400 l-68 -266 l-86 266 l-100 0 l-85 -265 l-67 265 l-145 0 l138 -400 l134 0 l75 226 l75 -226 l135 0 l136 400 l-142 0 Z" /><glyph glyph-name="" unicode="&#x175;" d="M343 529 l57 -78 l80 0 l-99 149 l-77 0 l-98 -149 l80 0 l57 78 ZM546 400 l-68 -266 l-86 266 l-100 0 l-85 -265 l-67 265 l-145 0 l138 -400 l134 0 l75 226 l75 -226 l135 0 l136 400 l-142 0 Z" /><glyph glyph-name="" unicode="&#x1e85;" d="M259 470 q25 1 43 18 q17 17 18 42 q-1 26 -18 43 q-18 16 -43 17 q-25 -1 -42 -17 q-17 -17 -18 -43 q1 -25 18 -42 q17 -17 42 -18 l0 0 ZM427 470 q26 1 43 18 q16 17 17 42 q-1 26 -17 43 q-17 16 -43 17 q-25 -1 -42 -17 q-17 -17 -18 -43 q1 -25 18 -42 q17 -17 42 -18 l0 0 ZM546 400 l-68 -266 l-86 266 l-100 0 l-85 -265 l-67 265 l-145 0 l138 -400 l134 0 l75 226 l75 -226 l135 0 l136 400 l-142 0 Z" /><glyph glyph-name="" unicode="&#x1e81;" d="M392 451 l-88 149 l-121 0 l125 -149 l84 0 ZM546 400 l-68 -266 l-86 266 l-100 0 l-85 -265 l-67 265 l-145 0 l138 -400 l134 0 l75 226 l75 -226 l135 0 l136 400 l-142 0 Z" /><glyph glyph-name="" unicode="x" d="M486 400 l-153 0 l-93 -110 l-93 110 l-152 0 l169 -200 l-169 -200 l154 0 l92 109 l92 -109 l153 0 l-169 199 l169 201 Z" /><glyph glyph-name="" unicode="y" d="M326 400 l-98 -265 l-100 265 l-133 0 l167 -409 l-94 -231 l134 0 l256 640 l-132 0 Z" /><glyph glyph-name="" unicode="ý" d="M386 600 l-121 0 l-88 -149 l84 0 l125 149 ZM326 400 l-98 -265 l-100 265 l-133 0 l167 -409 l-94 -231 l134 0 l256 640 l-132 0 Z" /><glyph glyph-name="" unicode="&#x177;" d="M226 529 l57 -78 l80 0 l-99 149 l-77 0 l-98 -149 l80 0 l57 78 ZM326 400 l-98 -265 l-100 265 l-133 0 l167 -409 l-94 -231 l134 0 l256 640 l-132 0 Z" /><glyph glyph-name="" unicode="ÿ" d="M142 470 q25 1 43 18 q17 17 18 42 q-1 26 -18 43 q-18 16 -43 17 q-25 -1 -42 -17 q-17 -17 -18 -43 q1 -25 18 -42 q17 -17 42 -18 l0 0 ZM310 470 q26 1 43 18 q16 17 17 42 q-1 26 -17 43 q-17 16 -43 17 q-25 -1 -42 -17 q-17 -17 -18 -43 q1 -25 18 -42 q17 -17 42 -18 l0 0 ZM326 400 l-98 -265 l-100 265 l-133 0 l167 -409 l-94 -231 l134 0 l256 640 l-132 0 Z" /><glyph glyph-name="" unicode="&#x1ef3;" d="M275 451 l-88 149 l-121 0 l125 -149 l84 0 ZM326 400 l-98 -265 l-100 265 l-133 0 l167 -409 l-94 -231 l134 0 l256 640 l-132 0 Z" /><glyph glyph-name="" unicode="z" d="M377 400 l-335 0 l0 -106 l146 0 l-167 -294 l350 0 l0 106 l-162 0 l168 294 Z" /><glyph glyph-name="" unicode="&#x17a;" d="M368 600 l-121 0 l-88 -149 l84 0 l125 149 ZM377 400 l-335 0 l0 -106 l146 0 l-167 -294 l350 0 l0 106 l-162 0 l168 294 Z" /><glyph glyph-name="" unicode="&#x17e;" d="M246 451 l99 149 l-80 0 l-57 -78 l-57 78 l-80 0 l98 -149 l77 0 ZM377 400 l-335 0 l0 -106 l146 0 l-167 -294 l350 0 l0 106 l-162 0 l168 294 Z" /><glyph glyph-name="" unicode="&#x17c;" d="M208 451 q30 1 50 21 q20 20 21 49 q-1 30 -21 50 q-20 19 -50 20 q-29 -1 -49 -20 q-20 -20 -21 -50 q1 -29 21 -49 q20 -20 49 -21 l0 0 ZM377 400 l-335 0 l0 -106 l146 0 l-167 -294 l350 0 l0 106 l-162 0 l168 294 Z" /><glyph glyph-name="" unicode="&#xfb01;" d="M206 520 q0 25 12 39 q12 14 33 14 l48 0 l0 100 q-8 5 -26 9 q-17 3 -38 3 q-66 -1 -110 -43 q-45 -42 -47 -107 l0 -135 l-67 0 l0 -99 l67 0 l0 -301 l128 0 l0 301 l95 0 l0 99 l-95 0 l0 120 ZM426 467 q29 1 49 21 q20 20 21 49 q-1 30 -21 50 q-20 19 -49 20 q-29 -1 -49 -20 q-20 -20 -21 -50 q1 -29 21 -49 q20 -20 49 -21 l0 0 ZM362 0 l127 0 l0 400 l-127 0 l0 -400 Z" /><glyph glyph-name="" unicode="&#xfb02;" d="M206 520 q0 25 12 39 q12 14 33 14 l48 0 l0 100 q-8 5 -26 9 q-17 3 -38 3 q-66 -1 -110 -43 q-45 -42 -47 -107 l0 -135 l-67 0 l0 -99 l67 0 l0 -301 l128 0 l0 301 l95 0 l0 99 l-95 0 l0 120 ZM360 685 l0 -685 l128 0 l0 685 l-128 0 Z" /><glyph glyph-name="" unicode="ª" d="M225 600 l0 -37 q-14 20 -36 31 q-22 11 -49 11 q-51 -1 -84 -37 q-34 -35 -35 -88 q1 -54 35 -89 q33 -35 84 -36 q27 0 49 11 q22 11 36 31 l0 -37 l61 0 l0 240 l-61 0 ZM153 408 q-31 1 -51 21 q-20 20 -21 51 q1 31 21 51 q20 20 51 21 q31 -1 51 -21 q20 -20 21 -51 q-1 -31 -21 -51 q-20 -20 -51 -21 l0 0 Z" /><glyph glyph-name="" unicode="º" d="M153 355 q57 1 94 36 q38 35 39 89 q-1 53 -39 88 q-37 36 -94 37 q-57 -1 -94 -37 q-37 -35 -38 -88 q1 -54 38 -89 q37 -35 94 -36 l0 0 ZM153 408 q-31 1 -51 21 q-20 20 -21 51 q1 31 21 51 q20 20 51 21 q31 -1 51 -21 q20 -20 21 -51 q-1 -31 -21 -51 q-20 -20 -51 -21 l0 0 Z" /><glyph glyph-name="" unicode="&#x394;" d="M396 600 l-148 0 l-241 -600 l630 0 l-241 600 ZM194 114 l129 338 l128 -338 l-257 0 Z" /><glyph glyph-name="" unicode="&#x3a9;" d="M41 0 l267 0 l0 80 q-47 23 -80 81 q-33 58 -34 140 q1 90 43 142 q42 51 112 52 q70 -1 108 -54 q39 -53 39 -139 q-1 -83 -32 -139 q-32 -56 -80 -83 l0 -80 l265 0 l0 106 l-93 0 l0 3 q35 37 57 96 q23 58 24 122 q-1 111 -75 192 q-74 80 -215 84 q-135 -3 -213 -80 q-78 -77 -80 -196 q2 -72 26 -130 q24 -58 52 -88 l0 -3 l-91 0 l0 -106 Z" /><glyph glyph-name="" unicode="&#x3bc;" d="M328 400 l0 -229 q-1 -29 -22 -48 q-21 -19 -54 -20 q-29 1 -48 20 q-19 19 -20 48 l0 229 l-127 0 l0 -600 l93 0 l0 206 q30 -14 64 -14 q34 0 63 13 q29 14 51 37 l0 -42 l127 0 l0 400 l-127 0 Z" /><glyph glyph-name="" unicode="&#x3c0;" d="M54 0 l116 0 q24 65 40 168 q16 104 19 182 l132 0 l0 -223 q0 -46 4 -80 q3 -33 12 -47 l115 0 q-5 21 -8 54 q-3 33 -3 80 l0 216 l67 0 l9 94 l-399 0 q-61 0 -99 -8 q-38 -7 -55 -21 l13 -74 q16 5 39 7 q23 2 56 2 q-2 -77 -18 -176 q-17 -100 -40 -174 l0 0 Z" /><glyph glyph-name="" unicode="0" d="M274 -8 q111 2 168 85 q56 84 56 223 q0 139 -56 223 q-57 83 -168 85 q-112 -2 -169 -85 q-56 -84 -56 -223 q0 -139 56 -223 q57 -83 169 -85 l0 0 ZM274 105 q-54 1 -76 54 q-22 52 -21 141 q-1 89 21 141 q22 53 76 54 q53 -1 75 -54 q22 -52 21 -141 q1 -89 -21 -141 q-22 -53 -75 -54 l0 0 Z" /><glyph glyph-name="" unicode="1" d="M116 0 l128 0 l0 600 l-219 0 l0 -113 l91 0 l0 -487 Z" /><glyph glyph-name="" unicode="2" d="M218 113 l94 117 q58 71 81 115 q23 43 22 93 q-2 76 -53 123 q-51 47 -131 48 q-85 -1 -142 -53 q-58 -52 -53 -137 l124 0 q-4 36 15 56 q19 20 50 20 q24 1 44 -14 q21 -15 22 -55 q2 -18 -11 -43 q-13 -24 -59 -82 l-235 -301 l440 0 l0 113 l-208 0 Z" /><glyph glyph-name="" unicode="3" d="M255 359 l192 241 l-406 0 l0 -113 l189 0 l-168 -220 l179 0 q34 0 54 -21 q20 -20 21 -55 q0 -34 -21 -56 q-20 -22 -56 -23 q-29 1 -50 16 q-20 16 -21 40 l-127 -2 q2 -75 58 -123 q56 -49 140 -51 q88 2 145 57 q56 55 58 138 q-2 85 -54 129 q-52 44 -133 43 l0 0 Z" /><glyph glyph-name="" unicode="4" d="M472 240 l-49 0 l0 360 l-162 0 l-250 -474 l284 0 l0 -126 l128 0 l0 126 l49 0 l0 114 ZM172 240 l123 243 l0 -243 l-123 0 Z" /><glyph glyph-name="" unicode="5" d="M281 406 q-35 0 -62 -11 q-27 -11 -48 -30 l10 120 l247 0 l0 113 l-348 0 l-26 -286 l101 -61 q18 19 43 30 q26 12 51 12 q40 -1 65 -26 q25 -26 26 -66 q-1 -41 -29 -66 q-28 -25 -76 -26 q-41 -1 -84 15 q-44 17 -84 66 l-23 0 l-9 -120 q35 -34 92 -56 q56 -21 115 -22 q101 2 163 61 q61 58 63 153 q-1 87 -52 143 q-50 55 -135 57 l0 0 Z" /><glyph glyph-name="" unicode="6" d="M303 412 q-5 1 -9 1 q-5 0 -10 0 l143 187 l-146 0 l-192 -265 q-20 -29 -33 -62 q-13 -33 -14 -70 q2 -91 66 -150 q63 -59 158 -61 q93 3 157 61 q64 58 67 150 q-2 82 -55 139 q-53 58 -132 70 l0 0 ZM266 102 q-46 0 -72 29 q-26 28 -26 71 q1 44 27 73 q26 28 71 30 q45 -1 72 -30 q26 -28 27 -73 q0 -43 -27 -71 q-27 -28 -72 -29 l0 0 Z" /><glyph glyph-name="" unicode="7" d="M27 600 l0 -113 l274 0 l-268 -487 l140 0 l268 506 l0 94 l-414 0 Z" /><glyph glyph-name="" unicode="8" d="M369 334 q23 21 37 50 q13 29 13 64 q-1 70 -50 114 q-48 45 -126 46 q-79 -1 -127 -46 q-49 -44 -50 -114 q0 -35 14 -64 q13 -29 37 -50 q-41 -24 -64 -63 q-23 -39 -23 -89 q2 -83 60 -135 q59 -53 153 -55 q94 2 153 55 q58 52 60 135 q0 50 -23 89 q-23 39 -64 63 l0 0 ZM174 437 q1 30 20 49 q19 19 49 20 q30 -1 49 -20 q19 -19 20 -49 q-1 -31 -20 -50 q-19 -19 -49 -20 q-30 1 -49 20 q-19 19 -20 50 l0 0 ZM243 104 q-37 1 -60 26 q-23 24 -24 62 q1 37 24 60 q23 23 60 24 q37 -1 60 -24 q23 -23 24 -60 q-1 -38 -24 -62 q-23 -25 -60 -26 l0 0 Z" /><glyph glyph-name="" unicode="9" d="M266 608 q-93 -3 -157 -61 q-64 -58 -67 -150 q2 -82 55 -139 q52 -58 132 -70 q11 -1 21 -1 l-145 -187 l146 0 l192 265 q20 29 33 62 q14 33 14 70 q-2 91 -66 150 q-63 59 -158 61 l0 0 ZM266 295 q-46 2 -72 30 q-27 29 -28 73 q1 43 28 71 q26 28 72 29 q45 0 71 -29 q26 -28 27 -71 q0 -44 -26 -73 q-26 -29 -72 -30 l0 0 Z" /><glyph glyph-name="" unicode="&#x2044;" d="M-22 0 l98 0 l418 600 l-98 0 l-418 -600 Z" /><glyph glyph-name="" unicode="½" d="M171 200 l0 400 l-146 0 l0 -75 l60 0 l0 -325 l86 0 ZM527 599 l-418 -600 l98 0 l418 600 l-98 0 ZM649 74 l63 78 q39 48 54 77 q16 29 15 62 q-1 50 -36 82 q-34 31 -87 32 q-57 -1 -95 -35 q-38 -35 -35 -92 l83 0 q-2 24 10 38 q12 13 33 13 q16 1 30 -9 q13 -10 14 -37 q1 -12 -8 -28 q-8 -17 -39 -55 l-156 -201 l293 0 l0 75 l-139 0 Z" /><glyph glyph-name="" unicode="¼" d="M171 200 l0 400 l-146 0 l0 -75 l60 0 l0 -325 l86 0 ZM541 598 l-418 -600 l98 0 l418 600 l-98 0 ZM799 160 l-33 0 l0 240 l-108 0 l-167 -316 l190 0 l0 -84 l85 0 l0 84 l33 0 l0 76 ZM599 160 l82 163 l0 -163 l-82 0 Z" /><glyph glyph-name="" unicode="¾" d="M309 327 q-1 56 -36 86 q-35 29 -89 29 l128 160 l-271 0 l0 -75 l126 0 l-112 -147 l120 0 q22 0 36 -14 q14 -13 14 -37 q0 -23 -14 -37 q-14 -15 -38 -15 q-19 0 -33 11 q-13 10 -14 26 l-85 -1 q2 -50 39 -82 q38 -33 93 -34 q59 1 97 38 q38 37 39 92 l0 0 ZM585 598 l-418 -600 l98 0 l418 600 l-98 0 ZM816 160 l-33 0 l0 240 l-108 0 l-167 -316 l190 0 l0 -84 l85 0 l0 84 l33 0 l0 76 ZM616 160 l82 163 l0 -163 l-82 0 Z" /><glyph glyph-name="" unicode="¹" d="M67 300 l60 0 l0 300 l-102 0 l0 -53 l42 0 l0 -247 Z" /><glyph glyph-name="" unicode="²" d="M145 369 l45 57 q28 35 39 55 q11 21 11 45 q-1 37 -26 60 q-25 22 -63 23 q-40 -1 -68 -26 q-28 -25 -26 -66 l60 0 q-2 17 7 27 q9 10 24 10 q12 0 22 -7 q9 -8 10 -27 q1 -9 -5 -20 q-6 -12 -28 -40 l-114 -145 l212 0 l0 54 l-100 0 Z" /><glyph glyph-name="" unicode="³" d="M152 483 l93 116 l-195 0 l0 -54 l91 0 l-81 -106 l86 0 q16 0 26 -10 q10 -10 10 -27 q0 -17 -10 -27 q-10 -11 -27 -11 q-14 0 -24 8 q-10 7 -10 19 l-61 -1 q1 -36 28 -60 q27 -23 67 -24 q43 1 70 28 q27 26 28 66 q-1 41 -26 62 q-25 21 -65 21 l0 0 Z" /><glyph glyph-name="" unicode="*" d="M123 379 l30 73 l31 -73 l54 32 l-48 62 l78 -11 l0 62 l-78 -10 l48 62 l-54 32 l-31 -74 l-30 74 l-53 -32 l47 -62 l-78 10 l0 -62 l78 11 l-47 -62 l53 -32 Z" /><glyph glyph-name="" unicode="\" d="M458 -240 l119 0 l-474 925 l-119 0 l474 -925 Z" /><glyph glyph-name="" unicode="·" d="M122 237 q21 0 36 15 q15 14 16 36 q-1 21 -16 36 q-15 14 -36 15 q-21 -1 -36 -15 q-14 -15 -15 -36 q1 -22 15 -36 q15 -15 36 -15 l0 0 Z" /><glyph glyph-name="" unicode="&#x2022;" d="M251 104 q68 2 115 47 q46 46 48 116 q-2 69 -48 115 q-47 47 -115 49 q-68 -2 -115 -49 q-47 -46 -49 -115 q2 -70 49 -116 q47 -45 115 -47 l0 0 Z" /><glyph glyph-name="" unicode=":" d="M144 267 q29 1 49 21 q20 20 21 50 q-1 29 -21 49 q-20 20 -49 21 q-29 -1 -49 -21 q-20 -20 -21 -49 q1 -30 21 -50 q20 -20 49 -21 l0 0 ZM144 -8 q29 1 49 21 q20 20 21 49 q-1 30 -21 50 q-20 20 -49 21 q-29 -1 -49 -21 q-20 -20 -21 -50 q1 -29 21 -49 q20 -20 49 -21 l0 0 Z" /><glyph glyph-name="" unicode="," d="M81 -142 l140 247 l-123 0 l-95 -247 l78 0 Z" /><glyph glyph-name="" unicode="&#x2026;" d="M135 -8 q31 1 52 22 q21 20 22 51 q-1 31 -22 52 q-21 20 -52 21 q-30 -1 -51 -21 q-20 -21 -21 -52 q1 -31 21 -51 q21 -21 51 -22 l0 0 ZM404 -8 q31 1 52 22 q21 20 22 51 q-1 31 -22 52 q-21 20 -52 21 q-30 -1 -51 -21 q-20 -21 -21 -52 q1 -31 21 -51 q21 -21 51 -22 l0 0 ZM673 -8 q31 1 52 22 q21 20 22 51 q-1 31 -22 52 q-21 20 -52 21 q-30 -1 -51 -21 q-20 -21 -21 -52 q1 -31 21 -51 q21 -21 51 -22 l0 0 Z" /><glyph glyph-name="" unicode="!" d="M93 208 l96 0 l16 407 l-127 0 l15 -407 ZM141 -8 q31 1 51 21 q19 20 20 49 q-1 30 -20 50 q-20 20 -51 21 q-29 -1 -49 -21 q-20 -20 -21 -50 q1 -29 21 -49 q20 -20 49 -21 l0 0 Z" /><glyph glyph-name="" unicode="¡" d="M141 259 q31 1 51 21 q19 20 20 50 q-1 29 -20 49 q-20 20 -51 21 q-29 -1 -49 -21 q-20 -20 -21 -49 q1 -30 21 -50 q20 -20 49 -21 l0 0 ZM78 -240 l127 0 l-16 432 l-96 0 l-15 -432 Z" /><glyph glyph-name="" unicode="#" d="M147 0 l89 0 l17 130 l132 0 l-18 -130 l89 0 l19 130 l112 0 l12 89 l-112 0 l21 147 l112 0 l14 88 l-114 0 l19 133 l-89 0 l-19 -133 l-130 0 l18 133 l-89 0 l-19 -133 l-111 0 l-15 -88 l114 0 l-22 -147 l-113 0 l-12 -89 l113 0 l-18 -130 ZM267 219 l20 147 l132 0 l-22 -147 l-130 0 Z" /><glyph glyph-name="" unicode="." d="M135 -8 q31 1 52 22 q21 20 22 51 q-1 31 -22 52 q-21 20 -52 21 q-30 -1 -51 -21 q-20 -21 -21 -52 q1 -31 21 -51 q21 -21 51 -22 l0 0 Z" /><glyph glyph-name="" unicode="?" d="M218 181 l114 0 l0 57 q9 45 71 65 q62 19 71 135 q-2 80 -57 132 q-56 52 -142 54 q-95 -2 -151 -61 q-56 -60 -49 -152 l112 0 q-7 44 18 73 q24 29 70 30 q38 -1 62 -22 q25 -22 26 -54 q-9 -76 -72 -85 q-64 -9 -73 -122 l0 -50 ZM278 -8 q30 1 50 20 q19 20 20 50 q-1 30 -20 50 q-20 20 -50 21 q-30 -1 -50 -21 q-20 -20 -21 -50 q1 -30 21 -50 q20 -19 50 -20 l0 0 Z" /><glyph glyph-name="" unicode="¿" d="M244 276 q30 1 50 20 q19 19 20 50 q-1 30 -20 50 q-20 19 -50 20 q-30 -1 -50 -20 q-19 -20 -20 -50 q1 -31 20 -50 q20 -19 50 -20 l0 0 ZM247 -208 q95 2 151 62 q56 60 49 152 l-113 0 q7 -45 -17 -74 q-25 -29 -70 -30 q-38 1 -62 22 q-25 22 -26 55 q9 76 73 85 q63 9 72 122 l0 40 l-114 0 l0 -47 q-9 -46 -71 -65 q-63 -20 -72 -135 q2 -81 58 -133 q56 -52 142 -54 l0 0 Z" /><glyph glyph-name="" unicode="&quot;" d="M87 336 l88 0 l16 272 l-120 0 l16 -272 ZM261 336 l88 0 l15 272 l-119 0 l16 -272 Z" /><glyph glyph-name="" unicode="&#39;" d="M87 368 l88 0 l16 240 l-120 0 l16 -240 Z" /><glyph glyph-name="" unicode=";" d="M147 267 q29 1 49 21 q20 20 21 50 q-1 29 -21 49 q-20 20 -49 21 q-29 -1 -49 -21 q-20 -20 -21 -49 q1 -30 21 -50 q20 -20 49 -21 l0 0 ZM99 -142 l140 247 l-123 0 l-95 -247 l78 0 Z" /><glyph glyph-name="" unicode="/" d="M-16 -240 l119 0 l474 925 l-119 0 l-474 -925 Z" /><glyph glyph-name="" unicode="_" d="M31 -87 l480 0 l0 87 l-480 0 l0 -87 Z" /><glyph glyph-name="" unicode="{" d="M203 -262 l58 0 l0 74 q-42 -1 -55 8 q-12 8 -11 32 l0 219 q0 49 -9 84 q-10 35 -33 59 q23 25 33 60 q9 35 9 83 l0 213 q-1 37 14 44 q14 6 52 4 l0 73 l-58 0 q-45 -1 -74 -37 q-29 -37 -30 -92 l0 -193 q1 -62 -12 -83 q-12 -22 -48 -35 l0 -74 q37 -13 49 -35 q12 -21 11 -83 l0 -193 q1 -55 30 -91 q29 -36 74 -37 l0 0 Z" /><glyph glyph-name="" unicode="}" d="M37 -262 l58 0 q45 1 74 37 q28 36 29 91 l0 193 q-1 62 12 83 q12 22 48 35 l0 74 q-36 13 -48 35 q-13 21 -12 83 l0 193 q-1 55 -29 92 q-29 36 -74 37 l-58 0 l0 -73 q38 2 52 -4 q14 -7 13 -44 l0 -213 q0 -48 10 -83 q10 -35 33 -60 q-23 -24 -33 -59 q-10 -35 -10 -84 l0 -219 q1 -24 -11 -32 q-12 -9 -54 -8 l0 -74 Z" /><glyph glyph-name="" unicode="[" d="M59 -200 l214 0 l0 70 l-103 0 l0 766 l103 0 l0 70 l-214 0 l0 -906 Z" /><glyph glyph-name="" unicode="]" d="M56 -200 l213 0 l0 906 l-213 0 l0 -70 l103 0 l0 -766 l-103 0 l0 -70 Z" /><glyph glyph-name="" unicode="(" d="M303 -237 l0 91 q-58 -2 -96 83 q-39 86 -40 297 q1 213 40 300 q38 86 96 83 l0 91 q-107 3 -176 -105 q-70 -108 -72 -369 q2 -260 72 -367 q69 -107 176 -104 l0 0 Z" /><glyph glyph-name="" unicode=")" d="M43 -237 q107 -3 176 104 q69 107 71 367 q-2 261 -71 369 q-69 108 -176 105 l0 -91 q58 3 97 -83 q38 -87 39 -300 q-1 -211 -39 -297 q-39 -85 -97 -83 l0 -91 Z" /><glyph glyph-name="" unicode="&#x2014;" d="M0 164 l800 0 l0 88 l-800 0 l0 -88 Z" /><glyph glyph-name="" unicode="&#x2013;" d="M63 164 l400 0 l0 88 l-400 0 l0 -88 Z" /><glyph glyph-name="" unicode="-" d="M63 164 l280 0 l0 88 l-280 0 l0 -88 Z" /><glyph glyph-name="" unicode="­" d="M63 164 l280 0 l0 88 l-280 0 l0 -88 Z" /><glyph glyph-name="" unicode="«" d="M210 76 l100 0 l-122 147 l122 147 l-100 0 l-122 -147 l122 -147 ZM401 76 l101 0 l-121 147 l121 147 l-101 0 l-122 -147 l122 -147 Z" /><glyph glyph-name="" unicode="»" d="M87 76 l100 0 l122 147 l-122 147 l-100 0 l122 -147 l-122 -147 ZM279 76 l101 0 l121 147 l-121 147 l-101 0 l121 -147 l-121 -147 Z" /><glyph glyph-name="" unicode="&#x2039;" d="M162 76 l100 0 l-122 147 l122 147 l-100 0 l-122 -147 l122 -147 Z" /><glyph glyph-name="" unicode="&#x203a;" d="M55 76 l100 0 l122 147 l-122 147 l-100 0 l122 -147 l-122 -147 Z" /><glyph glyph-name="" unicode="&#x201e;" d="M100 -156 l108 242 l-106 0 l-68 -242 l66 0 ZM277 -156 l108 242 l-106 0 l-68 -242 l66 0 Z" /><glyph glyph-name="" unicode="&#x201c;" d="M151 608 l-108 -242 l106 0 l68 242 l-66 0 ZM322 608 l-108 -242 l106 0 l68 242 l-66 0 Z" /><glyph glyph-name="" unicode="&#x201d;" d="M89 416 l108 242 l-106 0 l-68 -242 l66 0 ZM261 416 l108 242 l-106 0 l-68 -242 l66 0 Z" /><glyph glyph-name="" unicode="&#x2018;" d="M136 608 l-108 -242 l106 0 l68 242 l-66 0 Z" /><glyph glyph-name="" unicode="&#x2019;" d="M105 372 l108 242 l-106 0 l-68 -242 l66 0 Z" /><glyph glyph-name="" unicode="&#x201a;" d="M100 -156 l108 242 l-106 0 l-68 -242 l66 0 Z" /><glyph glyph-name="" unicode=" " d="" /><glyph glyph-name="" unicode="¢" d="M261 377 q23 0 45 -5 q22 -6 39 -19 l0 121 q-35 12 -74 14 l0 73 l-74 0 l0 -81 q-71 -21 -115 -74 q-44 -54 -45 -126 q1 -72 45 -126 q44 -53 115 -74 l0 -81 l74 0 l0 73 q39 2 74 14 l0 122 q-17 -14 -39 -20 q-22 -5 -45 -5 q-41 1 -68 28 q-27 28 -28 69 q1 42 28 69 q27 27 68 28 l0 0 Z" /><glyph glyph-name="" unicode="¤" d="M124 77 l44 44 q47 -28 101 -28 q54 0 101 28 l44 -44 l67 70 l-42 42 q28 48 28 102 q0 53 -28 101 l42 42 l-68 68 l-43 -43 q-47 28 -100 28 q-54 0 -101 -28 l-44 44 l-67 -70 l42 -42 q-28 -47 -28 -100 q0 -54 28 -101 l-42 -43 l66 -70 ZM196 218 q-29 31 -29 72 q1 40 30 72 q32 30 72 30 q41 0 72 -30 q30 -31 30 -72 q0 -40 -29 -72 q-32 -30 -73 -30 q-41 0 -73 30 l0 0 Z" /><glyph glyph-name="" unicode="$" d="M451 170 q-17 153 -138 180 q-121 27 -138 91 q1 25 17 38 q16 12 41 12 q26 0 51 -14 q24 -13 47 -38 l88 84 q-24 28 -56 48 q-31 19 -68 29 l0 64 l-113 0 l0 -62 q-58 -13 -98 -55 q-40 -43 -42 -116 q17 -140 139 -167 q121 -27 138 -93 q0 -25 -20 -40 q-19 -15 -54 -15 q-42 0 -72 21 q-31 21 -48 57 l-109 -68 q24 -46 66 -79 q43 -34 100 -48 l0 -63 l113 0 l0 61 q68 13 111 58 q44 44 45 115 l0 0 Z" /><glyph glyph-name="" unicode="&#x20ac;" d="M194 206 l201 0 l19 63 l-241 0 q-2 15 -2 31 q0 16 2 31 l260 0 l18 63 l-257 0 q25 46 70 73 q44 27 101 28 q27 0 55 -9 q28 -9 52 -26 l34 110 q-35 18 -71 28 q-37 10 -70 10 q-107 -2 -185 -60 q-78 -59 -109 -154 l-62 0 l0 -63 l49 0 q0 -8 0 -15 q-1 -8 -1 -16 q0 -8 1 -15 q0 -8 0 -16 l-49 0 l0 -63 l62 0 q31 -95 109 -154 q78 -58 185 -60 q32 0 67 9 q34 9 67 26 l0 133 q-26 -24 -63 -39 q-36 -16 -71 -16 q-57 1 -101 28 q-45 27 -70 73 l0 0 Z" /><glyph glyph-name="" unicode="&#x192;" d="M331 518 q10 0 21 -3 q11 -3 19 -9 l10 87 q-7 6 -24 10 q-17 5 -39 5 q-64 -1 -113 -41 q-49 -41 -61 -105 l-10 -62 l-67 0 l-15 -95 l67 0 l-80 -505 l114 0 l80 505 l107 0 l15 95 l-107 0 l7 45 q6 34 25 53 q20 20 51 20 l0 0 Z" /><glyph glyph-name="" unicode="£" d="M187 88 l0 162 l149 0 l0 81 l-149 0 l0 73 q1 51 28 79 q28 29 76 29 q41 -1 71 -29 q30 -28 30 -72 l93 40 q-15 69 -70 112 q-54 44 -124 45 q-89 -2 -143 -57 q-54 -56 -56 -147 l0 -73 l-64 0 l0 -81 l64 0 l0 -250 l399 0 l0 88 l-304 0 Z" /><glyph glyph-name="" unicode="¥" d="M547 600 l-117 0 l-140 -221 l-141 221 l-118 0 l193 -292 l-127 0 l0 -79 l137 0 l0 -57 l-136 0 l0 -74 l136 0 l0 -98 l111 0 l0 98 l137 0 l0 74 l-137 0 l0 57 l137 0 l0 79 l-128 0 l193 292 Z" /><glyph glyph-name="" unicode="&#x2248;" d="M326 250 q61 1 92 45 q32 44 34 113 l-87 0 q-2 -35 -14 -54 q-12 -18 -32 -18 q-15 1 -23 8 q-9 8 -15 16 q-24 30 -49 44 q-25 13 -57 13 q-65 -1 -100 -44 q-35 -44 -37 -117 l88 0 q1 32 12 52 q12 20 36 21 q7 0 15 -3 q8 -3 19 -14 q13 -16 41 -38 q29 -22 77 -24 l0 0 ZM326 71 q61 2 92 46 q32 44 34 112 l-87 0 q-2 -36 -14 -54 q-12 -19 -32 -19 q-15 1 -24 9 q-9 9 -14 16 q-25 31 -50 45 q-26 13 -56 13 q-64 -1 -100 -44 q-35 -44 -37 -119 l88 0 q1 33 12 52 q11 20 36 22 q11 0 19 -4 q7 -4 15 -13 q12 -16 41 -38 q29 -22 77 -24 l0 0 Z" /><glyph glyph-name="" unicode="~" d="M317 120 q61 2 96 46 q35 44 29 112 l-86 0 q2 -35 -12 -54 q-14 -19 -35 -19 q-13 0 -22 8 q-9 8 -16 17 q-20 29 -44 43 q-24 14 -60 14 q-69 -1 -105 -45 q-36 -44 -33 -116 l87 0 q0 28 12 50 q11 22 37 23 q7 0 15 -3 q8 -4 19 -14 q13 -15 41 -37 q29 -23 77 -25 l0 0 Z" /><glyph glyph-name="" unicode="÷" d="M287 319 q26 1 44 18 q18 17 19 44 q-1 26 -19 44 q-18 18 -44 19 q-26 -1 -43 -19 q-18 -18 -19 -44 q1 -27 19 -44 q17 -17 43 -18 l0 0 ZM47 188 l480 0 l0 64 l-480 0 l0 -64 ZM287 -4 q26 1 44 18 q18 18 19 45 q-1 26 -19 43 q-18 18 -44 19 q-26 -1 -43 -19 q-18 -17 -19 -43 q1 -27 19 -45 q17 -17 43 -18 l0 0 Z" /><glyph glyph-name="" unicode="&#x2205;" d="M511 384 l35 35 l-33 34 l-35 -35 q-32 26 -70 40 q-38 14 -82 14 q-102 -3 -169 -70 q-67 -67 -70 -169 q0 -44 15 -82 q14 -39 40 -70 l-35 -35 l33 -33 l35 35 q31 -26 70 -40 q38 -14 81 -14 q102 3 170 70 q67 67 70 169 q0 43 -14 82 q-15 38 -41 69 l0 0 ZM188 233 q1 59 40 98 q39 40 98 41 q23 0 43 -6 q21 -7 38 -19 l-194 -195 q-12 17 -18 38 q-7 20 -7 43 l0 0 ZM326 94 q-23 0 -43 7 q-20 6 -37 18 l194 194 q12 -17 19 -37 q6 -20 6 -43 q-1 -60 -40 -99 q-39 -39 -99 -40 l0 0 Z" /><glyph glyph-name="" unicode="=" d="M47 252 l480 0 l0 80 l-480 0 l0 -80 ZM47 92 l480 0 l0 80 l-480 0 l0 -80 Z" /><glyph glyph-name="" unicode="&gt;" d="M71 579 l0 -104 l346 -174 l-346 -175 l0 -105 l442 223 l0 113 l-442 222 Z" /><glyph glyph-name="" unicode="&#x2265;" d="M95 595 l0 -104 l336 -142 l-336 -143 l0 -105 l442 191 l0 113 l-442 190 ZM95 0 l442 0 l0 72 l-442 0 l0 -72 Z" /><glyph glyph-name="" unicode="&#x221e;" d="M175 99 q36 0 73 20 q38 19 74 55 q36 -36 73 -55 q38 -20 73 -20 q58 1 92 36 q33 35 36 98 q-3 63 -36 98 q-34 35 -92 35 q-35 0 -73 -19 q-37 -19 -73 -55 q-36 35 -74 55 q-37 19 -73 19 q-56 -1 -90 -37 q-35 -36 -38 -96 q3 -60 38 -97 q34 -36 90 -37 l0 0 ZM175 179 q-20 0 -34 15 q-13 15 -14 39 q1 24 14 39 q14 14 34 14 q20 0 44 -13 q23 -14 49 -40 q-26 -26 -49 -40 q-24 -14 -44 -14 l0 0 ZM468 179 q-20 0 -43 14 q-24 14 -50 40 q26 26 50 39 q23 14 43 14 q21 0 34 -14 q14 -13 14 -39 q0 -26 -14 -40 q-13 -14 -34 -14 l0 0 Z" /><glyph glyph-name="" unicode="&#x222b;" d="M94 -151 q35 1 60 23 q25 22 31 57 l92 584 q3 14 15 14 q10 0 10 -8 q0 -9 -4 -32 l62 0 q17 45 0 75 q-17 30 -57 31 q-35 -1 -60 -23 q-25 -22 -32 -57 l-92 -584 q-3 -14 -13 -14 q-11 0 -11 8 q-1 8 3 31 l-62 0 q-16 -45 1 -74 q16 -30 57 -31 l0 0 Z" /><glyph glyph-name="" unicode="&lt;" d="M513 579 l-442 -222 l0 -113 l442 -223 l0 105 l-346 175 l346 174 l0 104 Z" /><glyph glyph-name="" unicode="&#x2264;" d="M537 595 l-442 -190 l0 -113 l442 -191 l0 105 l-336 143 l336 142 l0 104 ZM95 0 l442 0 l0 72 l-442 0 l0 -72 Z" /><glyph glyph-name="" unicode="¬" d="M506 76 l80 0 l0 286 l-515 0 l0 -81 l435 0 l0 -205 Z" /><glyph glyph-name="" unicode="µ" d="M338 400 l0 -233 q-1 -34 -25 -56 q-24 -22 -61 -23 q-34 1 -56 23 q-22 22 -23 56 l0 233 l-110 0 l0 -600 l81 0 l0 212 q17 -10 36 -15 q19 -5 40 -5 q35 0 65 15 q30 14 53 39 l0 -46 l110 0 l0 400 l-110 0 Z" /><glyph glyph-name="" unicode="&#x2212;" d="M47 207 l462 0 l0 85 l-462 0 l0 -85 Z" /><glyph glyph-name="" unicode="×" d="M525 389 l-68 69 l-142 -141 l-141 141 l-69 -69 l141 -141 l-141 -141 l69 -69 l141 141 l142 -141 l68 69 l-141 141 l141 141 Z" /><glyph glyph-name="" unicode="&#x2260;" d="M527 252 l0 80 l-99 0 l65 76 l-69 0 l-65 -76 l-312 0 l0 -80 l243 0 l-68 -80 l-175 0 l0 -80 l106 0 l-72 -84 l69 0 l72 84 l305 0 l0 80 l-236 0 l68 80 l168 0 Z" /><glyph glyph-name="" unicode="&#x2202;" d="M135 570 l0 -88 q55 27 99 3 q44 -25 69 -89 q-75 18 -140 -20 q-66 -39 -102 -129 q-39 -109 5 -177 q44 -68 153 -70 q94 3 154 76 q60 73 63 186 q-2 159 -87 247 q-85 87 -214 61 l0 0 ZM324 262 q-2 -76 -32 -128 q-30 -52 -73 -54 q-42 2 -58 43 q-16 40 3 96 q27 70 68 92 q41 22 90 -5 q1 -11 2 -22 q0 -11 0 -22 l0 0 Z" /><glyph glyph-name="" unicode="%" d="M174 313 q55 2 92 43 q37 42 38 104 q-1 63 -38 105 q-37 41 -92 43 q-56 -2 -93 -43 q-38 -42 -39 -105 q1 -62 39 -104 q37 -41 93 -43 l0 0 ZM78 0 l131 0 l403 600 l-132 0 l-402 -600 ZM174 408 q-15 1 -25 15 q-11 15 -11 37 q0 23 11 38 q10 15 25 15 q13 0 24 -15 q10 -15 11 -38 q-1 -22 -11 -37 q-11 -14 -24 -15 l0 0 ZM517 -8 q56 2 93 43 q37 42 38 105 q-1 62 -38 104 q-37 41 -93 43 q-56 -2 -93 -43 q-37 -42 -38 -104 q1 -63 38 -105 q37 -41 93 -43 l0 0 ZM517 87 q-14 1 -24 15 q-10 15 -11 38 q1 22 11 37 q10 14 24 15 q14 -1 25 -15 q10 -15 11 -37 q-1 -23 -11 -38 q-11 -14 -25 -15 l0 0 Z" /><glyph glyph-name="" unicode="&#x2030;" d="M174 313 q55 2 92 43 q37 42 38 104 q-1 63 -38 105 q-37 41 -92 43 q-56 -2 -93 -43 q-38 -42 -39 -105 q1 -62 39 -104 q37 -41 93 -43 l0 0 ZM78 0 l131 0 l403 600 l-132 0 l-402 -600 ZM174 408 q-15 1 -25 15 q-11 15 -11 37 q0 23 11 38 q10 15 25 15 q13 0 24 -15 q10 -15 11 -38 q-1 -22 -11 -37 q-11 -14 -24 -15 l0 0 ZM517 -8 q56 2 93 43 q37 42 38 105 q-1 62 -38 104 q-37 41 -93 43 q-56 -2 -93 -43 q-37 -42 -38 -104 q1 -63 38 -105 q37 -41 93 -43 l0 0 ZM819 -8 q56 2 93 43 q38 42 39 105 q-1 62 -39 104 q-37 41 -93 43 q-56 -2 -93 -43 q-37 -42 -38 -104 q1 -63 38 -105 q37 -41 93 -43 l0 0 ZM517 87 q-14 1 -24 15 q-10 15 -11 38 q1 22 11 37 q10 14 24 15 q14 -1 25 -15 q10 -15 11 -37 q-1 -23 -11 -38 q-11 -14 -25 -15 l0 0 ZM819 87 q-14 1 -24 15 q-10 15 -11 38 q1 22 11 37 q10 14 24 15 q14 -1 24 -15 q11 -15 11 -37 q0 -23 -11 -38 q-10 -14 -24 -15 l0 0 Z" /><glyph glyph-name="" unicode="+" d="M271 0 l97 0 l0 199 l199 0 l0 98 l-199 0 l0 199 l-97 0 l0 -199 l-200 0 l0 -98 l200 0 l0 -199 Z" /><glyph glyph-name="" unicode="±" d="M361 370 l0 144 l-82 0 l0 -144 l-240 0 l0 -83 l240 0 l0 -144 l82 0 l0 144 l239 0 l0 83 l-239 0 ZM39 0 l561 0 l0 74 l-561 0 l0 -74 Z" /><glyph glyph-name="" unicode="&#x220f;" d="M586 562 l-547 0 l0 -87 l51 0 l0 -571 l88 0 l0 571 l270 0 l0 -571 l87 0 l0 571 l51 0 l0 87 Z" /><glyph glyph-name="" unicode="&#x221a;" d="M199 -62 l73 0 l310 647 l-73 31 l-266 -555 l-73 222 l-115 0 l0 -80 l58 0 l86 -265 Z" /><glyph glyph-name="" unicode="&#x2211;" d="M71 -94 l473 -1 l0 95 l-314 0 l243 234 l-243 233 l314 0 l0 95 l-473 0 l0 -78 l268 -250 l-268 -251 l0 -77 Z" /><glyph glyph-name="" unicode="&#x25ca;" d="M313 42 l241 241 l-241 241 l-242 -242 l242 -240 ZM313 180 l-103 102 l103 103 l102 -102 l-102 -103 Z" /><glyph glyph-name="" unicode="&#xf8ff;" d="M375 0 q129 3 215 89 q86 86 89 215 q-3 129 -89 215 q-86 86 -215 89 q-129 -3 -215 -89 q-86 -86 -89 -215 q3 -129 89 -215 q86 -86 215 -89 l0 0 ZM375 29 q-116 3 -194 81 q-78 78 -81 194 q3 117 81 195 q78 77 194 80 q117 -3 195 -80 q77 -78 80 -195 q-3 -116 -80 -194 q-78 -78 -195 -81 l0 0 ZM534 174 q6 0 11 4 q4 5 4 11 q0 5 -4 9 l-106 106 l106 106 q4 4 4 10 q0 6 -4 10 q-5 5 -10 5 q-6 0 -10 -5 l-116 -116 q-4 -4 -4 -10 q0 -5 4 -10 l116 -116 q2 -2 4 -3 q3 -1 5 -1 l0 0 ZM216 174 q6 0 10 4 q4 4 4 10 l0 232 q0 6 -4 10 q-4 4 -10 4 q-6 0 -10 -4 q-4 -4 -4 -10 l0 -232 q0 -6 4 -10 q4 -4 10 -4 l0 0 ZM375 174 q6 0 11 4 q4 4 4 10 l0 232 q0 6 -4 10 q-5 4 -11 4 q-6 0 -10 -4 q-4 -4 -4 -10 l0 -232 q0 -6 4 -10 q4 -4 10 -4 l0 0 ZM259 290 l73 0 q6 0 10 4 q4 4 4 10 q0 6 -4 10 q-4 4 -10 4 l-73 0 q-6 0 -10 -4 q-4 -4 -4 -10 q0 -6 4 -10 q4 -4 10 -4 l0 0 Z" /><glyph glyph-name="" unicode="|" d="M90 -120 l79 0 l0 720 l-79 0 l0 -720 Z" /><glyph glyph-name="" unicode="¦" d="M90 312 l79 0 l0 288 l-79 0 l0 -288 ZM90 -120 l79 0 l0 288 l-79 0 l0 -288 Z" /><glyph glyph-name="" unicode="@" d="M432 119 l0 174 q-2 63 -49 104 q-47 41 -120 42 q-92 -2 -153 -64 q-61 -61 -63 -154 q2 -95 66 -157 q64 -62 162 -64 l157 0 l0 73 l-157 0 q-66 1 -110 43 q-43 41 -45 105 q2 62 42 103 q40 40 101 42 q41 -1 68 -21 q27 -21 28 -52 l0 -8 q-14 12 -32 19 q-19 7 -38 7 q-41 -1 -68 -29 q-28 -28 -29 -71 q1 -44 29 -72 q27 -28 69 -29 q18 0 36 6 q18 7 33 18 l0 -15 l73 0 ZM321 171 q-19 0 -31 11 q-13 11 -13 29 q0 18 13 29 q12 11 31 11 q12 0 22 -5 q10 -6 16 -15 l0 -40 q-6 -9 -16 -14 q-10 -6 -22 -6 l0 0 Z" /><glyph glyph-name="" unicode="&amp;" d="M558 349 l-65 0 l0 86 l-128 0 l0 -86 l-81 0 q-35 1 -59 22 q-23 21 -24 53 q1 29 19 45 q19 16 43 18 l102 0 l0 112 l-126 0 q-73 3 -119 -44 q-46 -48 -47 -122 q0 -40 16 -74 q15 -34 43 -60 q-27 -24 -42 -56 q-16 -32 -16 -70 q2 -77 61 -125 q58 -48 148 -49 q94 2 151 54 q57 53 59 137 l0 53 l65 0 l0 106 ZM281 111 q-36 0 -61 17 q-25 17 -26 47 q1 27 22 47 q20 20 52 21 l97 0 l0 -53 q0 -35 -22 -57 q-22 -21 -62 -22 l0 0 Z" /><glyph glyph-name="" unicode="¶" d="M234 -120 l63 0 l0 720 l-75 0 q-67 0 -104 -34 q-38 -34 -39 -100 q1 -65 39 -100 q37 -34 104 -34 l12 0 l0 -452 ZM372 -120 l64 0 l0 720 l-64 0 l0 -720 Z" /><glyph glyph-name="" unicode="©" d="M345 -8 q131 3 218 90 q87 87 90 218 q-3 131 -90 218 q-87 87 -218 90 q-130 -3 -217 -90 q-88 -87 -91 -218 q3 -131 91 -218 q87 -87 217 -90 l0 0 ZM345 59 q-104 2 -171 70 q-68 67 -70 171 q2 104 70 171 q67 68 171 70 q104 -2 172 -70 q67 -67 69 -171 q-2 -104 -69 -171 q-68 -68 -172 -70 l0 0 ZM346 155 q61 1 99 33 q38 32 47 85 l-88 0 q-7 -18 -22 -29 q-15 -10 -36 -11 q-28 1 -45 20 q-18 18 -18 46 q0 28 18 46 q17 18 45 19 q21 0 36 -10 q15 -11 22 -29 l88 0 q-9 53 -47 84 q-38 32 -99 33 q-68 -1 -107 -40 q-40 -40 -41 -103 q1 -63 41 -103 q39 -40 107 -41 l0 0 Z" /><glyph glyph-name="" unicode="®" d="M345 608 q-130 -3 -217 -90 q-88 -87 -91 -218 q3 -131 91 -218 q87 -87 217 -90 q131 3 218 90 q87 87 90 218 q-3 131 -90 218 q-87 87 -218 90 l0 0 ZM345 59 q-104 2 -171 70 q-68 67 -70 171 q2 104 70 171 q67 68 171 70 q104 -2 172 -70 q67 -67 69 -171 q-2 -104 -69 -171 q-68 -68 -172 -70 l0 0 ZM461 360 q-1 40 -28 67 q-27 26 -68 27 l-105 0 l0 -308 l61 0 l0 120 l25 0 l67 -120 l69 0 l-72 131 q23 12 37 34 q14 22 14 49 l0 0 ZM321 393 l44 0 q15 0 24 -10 q10 -9 10 -23 q0 -15 -10 -24 q-10 -9 -24 -9 l-44 0 l0 66 Z" /><glyph glyph-name="" unicode="§" d="M449 213 q14 16 22 34 q8 19 8 39 q-19 113 -154 129 q-136 17 -155 66 q1 22 30 34 q28 12 69 12 q33 0 62 -9 q28 -8 48 -25 l62 52 q-30 29 -78 46 q-47 17 -100 17 q-73 0 -128 -34 q-55 -33 -58 -98 q0 -22 8 -40 q8 -17 22 -30 q-16 -16 -23 -35 q-7 -18 -7 -39 q19 -109 155 -126 q135 -16 154 -66 q-1 -25 -33 -38 q-32 -14 -80 -14 q-54 1 -91 17 q-37 17 -53 43 l-77 -48 q28 -44 86 -70 q57 -27 130 -28 q87 1 148 39 q60 38 63 98 q0 24 -8 42 q-8 19 -22 32 l0 0 ZM170 335 q0 17 17 29 q71 -19 133 -31 q62 -13 66 -46 q0 -8 -4 -16 q-5 -8 -13 -15 q-71 19 -133 32 q-62 13 -66 47 l0 0 Z" /><glyph glyph-name="" unicode="&#x2122;" d="M31 547 l70 0 l0 -227 l62 0 l0 227 l71 0 l0 53 l-203 0 l0 -53 ZM536 600 l-90 -132 l-88 132 l-67 0 l0 -280 l61 0 l0 185 l94 -139 l94 139 l0 -185 l60 0 l0 280 l-64 0 Z" /><glyph glyph-name="" unicode="°" d="M194 394 q46 1 77 31 q30 30 31 76 q-1 46 -31 76 q-31 30 -77 31 q-45 -1 -76 -31 q-30 -30 -31 -76 q1 -46 31 -76 q31 -30 76 -31 l0 0 ZM194 454 q-20 0 -33 13 q-13 13 -14 34 q1 21 14 34 q13 13 33 13 q21 0 34 -13 q14 -13 14 -34 q0 -21 -14 -34 q-13 -13 -34 -13 l0 0 Z" /><glyph glyph-name="" unicode="&#x212e;" d="M372 -7 q83 1 154 33 q70 31 116 86 l-48 0 q-41 -47 -97 -74 q-57 -27 -124 -28 q-62 1 -115 25 q-54 24 -95 66 q-3 4 -5 9 q-2 5 -2 10 l0 168 q0 3 5 3 l553 0 l0 8 q-4 132 -100 219 q-96 87 -242 90 q-145 -3 -242 -90 q-96 -87 -100 -219 q4 -130 100 -216 q97 -87 242 -90 l0 0 ZM161 308 q-2 0 -4 2 q-1 2 -1 4 l0 164 q0 6 2 12 q2 5 6 9 q41 42 94 66 q54 24 115 25 q61 -1 114 -24 q53 -24 94 -64 q4 -4 6 -9 q2 -6 2 -11 l0 -168 q0 -2 -1 -4 q0 -2 -2 -2 l-425 0 Z" /><glyph glyph-name="" unicode="&#x2113;" d="M272 -5 q57 -1 110 28 q53 29 92 97 l-50 50 q-21 -32 -52 -56 q-32 -24 -71 -25 q-35 0 -58 23 q-24 22 -26 64 l-1 27 q89 76 139 149 q50 73 51 150 q0 63 -32 107 q-33 44 -104 46 q-72 1 -120 -53 q-47 -54 -49 -172 l0 -206 q-18 -14 -37 -28 q-20 -14 -40 -29 l32 -62 q13 9 24 18 q11 8 23 16 q1 -2 1 -4 q0 -2 0 -4 q10 -58 50 -96 q40 -39 118 -40 l0 0 ZM216 306 l0 138 q1 75 19 104 q18 28 40 27 q27 0 39 -20 q12 -19 12 -52 q-1 -45 -31 -96 q-30 -50 -79 -101 l0 0 Z" /><glyph glyph-name="" unicode="^" d="M581 158 l-222 442 l-113 0 l-223 -442 l106 0 l173 345 l174 -345 l105 0 Z" /><glyph glyph-name="" unicode="&#x2020;" d="M443 400 l-132 0 l0 136 l-80 0 l0 -136 l-128 0 l0 -80 l128 0 l0 -456 l80 0 l0 456 l132 0 l0 80 Z" /><glyph glyph-name="" unicode="&#x2021;" d="M443 320 l0 80 l-132 0 l0 136 l-80 0 l0 -136 l-128 0 l0 -80 l128 0 l0 -233 l-128 0 l0 -80 l128 0 l0 -143 l80 0 l0 143 l132 0 l0 80 l-132 0 l0 233 l132 0 Z" /><glyph glyph-name="" unicode="&#x308;" d="M-277 470 q25 1 43 18 q17 17 18 42 q-1 26 -18 43 q-18 16 -43 17 q-25 -1 -42 -17 q-17 -17 -18 -43 q1 -25 18 -42 q17 -17 42 -18 l0 0 ZM-109 470 q26 1 43 18 q16 17 17 42 q-1 26 -17 43 q-17 16 -43 17 q-25 -1 -42 -17 q-17 -17 -18 -43 q1 -25 18 -42 q17 -17 42 -18 l0 0 Z" /><glyph glyph-name="" unicode="&#x307;" d="M-142 451 q30 1 50 21 q20 20 21 49 q-1 30 -21 50 q-20 19 -50 20 q-29 -1 -49 -20 q-20 -20 -21 -50 q1 -29 21 -49 q20 -20 49 -21 l0 0 Z" /><glyph glyph-name="" unicode="&#x300;" d="M-20 451 l-88 149 l-121 0 l125 -149 l84 0 Z" /><glyph glyph-name="" unicode="&#x301;" d="M-212 451 l84 0 l125 149 l-121 0 l-88 -149 Z" /><glyph glyph-name="" unicode="&#x30b;" d="M-323 451 l83 0 l124 149 l-120 0 l-87 -149 ZM-162 451 l83 0 l124 149 l-120 0 l-87 -149 Z" /><glyph glyph-name="" unicode="&#x302;" d="M-237 451 l57 78 l57 -78 l80 0 l-99 149 l-77 0 l-98 -149 l80 0 Z" /><glyph glyph-name="" unicode="&#x30c;" d="M-227 451 l77 0 l99 149 l-80 0 l-57 -78 l-57 78 l-80 0 l98 -149 Z" /><glyph glyph-name="" unicode="&#x306;" d="M-283 444 q66 0 106 35 q39 35 40 106 l-72 0 q0 -27 -20 -48 q-19 -20 -54 -21 q-34 1 -54 21 q-20 21 -20 48 l-72 0 q1 -71 41 -106 q39 -35 105 -35 l0 0 Z" /><glyph glyph-name="" unicode="&#x30a;" d="M-86 432 q41 1 68 29 q27 27 28 69 q-1 41 -28 68 q-27 27 -68 28 q-42 -1 -69 -28 q-28 -27 -29 -68 q1 -42 29 -69 q27 -28 69 -29 l0 0 ZM-86 484 q-20 0 -32 13 q-12 12 -12 33 q0 19 12 32 q12 13 32 14 q19 -1 32 -14 q13 -13 13 -32 q0 -21 -13 -33 q-13 -13 -32 -13 l0 0 Z" /><glyph glyph-name="" unicode="&#x303;" d="M-111 473 q49 1 73 37 q24 35 24 90 l-76 0 q0 -25 -5 -39 q-5 -15 -18 -15 q-6 0 -10 4 q-4 3 -7 9 q-13 19 -34 33 q-21 13 -49 14 q-45 -1 -70 -36 q-26 -35 -26 -92 l76 0 q0 24 5 39 q5 15 18 15 q5 0 9 -3 q5 -2 9 -9 q16 -24 36 -35 q20 -12 45 -12 l0 0 Z" /><glyph glyph-name="" unicode="&#x304;" d="M-268 464 l241 0 l0 80 l-241 0 l0 -80 Z" /><glyph glyph-name="" unicode="&#x312;" d="M-58 636 l-105 -152 l110 0 l56 152 l-61 0 Z" /><glyph glyph-name="" unicode="&#x323;" d="M-94 -200 q30 1 50 21 q20 20 21 49 q-1 30 -21 50 q-20 20 -50 21 q-29 -1 -49 -21 q-20 -20 -21 -50 q1 -29 21 -49 q20 -20 49 -21 l0 0 Z" /><glyph glyph-name="" unicode="&#x326;" d="M-137 -80 l105 152 l-110 0 l-56 -152 l61 0 Z" /><glyph glyph-name="" unicode="&#x327;" d="M-112 -208 q38 1 63 26 q25 25 26 63 q-1 38 -27 58 q-26 21 -65 15 l27 46 l-59 0 l-41 -74 l45 -26 q26 13 44 8 q17 -6 18 -27 q0 -13 -9 -22 q-9 -9 -22 -9 q-11 0 -22 7 q-10 6 -16 15 l-56 -18 q10 -26 36 -44 q26 -17 58 -18 l0 0 Z" /><glyph glyph-name="" unicode="&#x328;" d="M-113 -207 q35 -2 68 11 q34 12 59 38 l-40 56 q-12 -20 -29 -32 q-17 -11 -37 -11 q-20 0 -32 13 q-12 12 -12 37 q1 33 29 54 q28 20 74 41 l-58 18 q-50 -17 -86 -47 q-35 -29 -37 -77 q0 -41 26 -68 q26 -28 75 -33 l0 0 Z" /><glyph glyph-name="" unicode="&#x335;" d="M-415 166 l280 0 l0 68 l-280 0 l0 -68 Z" /><glyph glyph-name="" unicode="&#x336;" d="M-623 182 l599 0 l0 52 l-599 0 l0 -52 Z" /><glyph glyph-name="" unicode="&#x337;" d="M-422 88 l48 -43 l261 274 l-49 42 l-260 -273 Z" /><glyph glyph-name="" unicode="&#x338;" d="M-526 -2 l78 -46 l453 650 l-78 47 l-453 -651 Z" /><glyph glyph-name="" unicode="´" d="M30 451 l84 0 l125 149 l-121 0 l-88 -149 Z" /><glyph glyph-name="" unicode="&#x2d8;" d="M244 444 q66 0 106 35 q39 35 40 106 l-72 0 q0 -27 -20 -48 q-19 -20 -54 -21 q-34 1 -54 21 q-20 21 -20 48 l-72 0 q1 -71 41 -106 q39 -35 105 -35 l0 0 Z" /><glyph glyph-name="" unicode="&#x2c7;" d="M141 451 l77 0 l99 149 l-80 0 l-57 -78 l-57 78 l-80 0 l98 -149 Z" /><glyph glyph-name="" unicode="¸" d="M117 -208 q38 1 63 26 q25 25 26 63 q-1 38 -27 58 q-26 21 -65 15 l27 46 l-59 0 l-41 -74 l45 -26 q26 13 44 8 q17 -6 18 -27 q0 -13 -9 -22 q-9 -9 -22 -9 q-11 0 -22 7 q-10 6 -16 15 l-56 -18 q10 -26 36 -44 q26 -17 58 -18 l0 0 Z" /><glyph glyph-name="" unicode="&#x2c6;" d="M123 451 l57 78 l57 -78 l80 0 l-99 149 l-77 0 l-98 -149 l80 0 Z" /><glyph glyph-name="" unicode="¨" d="M109 470 q25 1 43 18 q17 17 18 42 q-1 26 -18 43 q-18 16 -43 17 q-25 -1 -42 -17 q-17 -17 -18 -43 q1 -25 18 -42 q17 -17 42 -18 l0 0 ZM277 470 q26 1 43 18 q16 17 17 42 q-1 26 -17 43 q-17 16 -43 17 q-25 -1 -42 -17 q-17 -17 -18 -43 q1 -25 18 -42 q17 -17 42 -18 l0 0 Z" /><glyph glyph-name="" unicode="&#x2d9;" d="M141 451 q30 1 50 21 q20 20 21 49 q-1 30 -21 50 q-20 19 -50 20 q-29 -1 -49 -20 q-20 -20 -21 -50 q1 -29 21 -49 q20 -20 49 -21 l0 0 Z" /><glyph glyph-name="" unicode="`" d="M222 451 l-88 149 l-121 0 l125 -149 l84 0 Z" /><glyph glyph-name="" unicode="&#x2dd;" d="M30 451 l84 0 l125 149 l-121 0 l-88 -149 Z" /><glyph glyph-name="" unicode="¯" d="M27 464 l241 0 l0 80 l-241 0 l0 -80 Z" /><glyph glyph-name="" unicode="&#x2db;" d="M161 -207 q35 -2 68 11 q34 12 59 38 l-40 56 q-12 -20 -29 -32 q-17 -11 -37 -11 q-20 0 -32 13 q-12 12 -12 37 q1 33 29 54 q28 20 74 41 l-58 18 q-50 -17 -86 -47 q-35 -29 -37 -77 q0 -41 26 -68 q26 -28 75 -33 l0 0 Z" /><glyph glyph-name="" unicode="&#x2da;" d="M88 432 q41 1 68 29 q27 27 28 69 q-1 41 -28 68 q-27 27 -68 28 q-42 -1 -69 -28 q-28 -27 -29 -68 q1 -42 29 -69 q27 -28 69 -29 l0 0 ZM88 484 q-20 0 -32 13 q-12 12 -12 33 q0 19 12 32 q12 13 32 14 q19 -1 32 -14 q13 -13 13 -32 q0 -21 -13 -33 q-13 -13 -32 -13 l0 0 Z" /><glyph glyph-name="" unicode="&#x2dc;" d="M210 473 q49 1 73 37 q24 35 24 90 l-76 0 q0 -25 -5 -39 q-5 -15 -18 -15 q-6 0 -10 4 q-4 3 -7 9 q-13 19 -34 33 q-21 13 -49 14 q-45 -1 -70 -36 q-26 -35 -26 -92 l76 0 q0 24 5 39 q5 15 18 15 q5 0 9 -3 q5 -2 9 -9 q16 -24 36 -35 q20 -12 45 -12 l0 0 Z" /></font>
</defs>
</svg>
