<?xml version="1.0" standalone="no"?><!DOCTYPE svg PUBLIC "-//W3C//DTD SVG 1.1//EN" "http://www.w3.org/Graphics/SVG/1.1/DTD/svg11.dtd" ><svg xmlns="http://www.w3.org/2000/svg"><metadata></metadata><defs><font id="1.002;AMMP;Now-Black" horiz-adv-x="1035"><font-face font-family="Now Black" font-weight="900" font-stretch="normal" units-per-em="800" panose-1="0 0 10 0 0 0 0 0 0 0" ascent="720" descent="-240" x-height="0" bbox="-630 -283 997 869" underline-thickness="50" underline-position="-75" unicode-range="U+0020-fb02" /><missing-glyph horiz-adv-x="525" d="M69 0 l387 0 l0 600 l-387 0 l0 -600 ZM179 110 l0 380 l167 0 l0 -380 l-167 0 Z" /><glyph glyph-name="" unicode="A" d="M423 0 l164 0 l-217 600 l-171 0 l-217 -600 l165 0 l33 105 l210 0 l33 -105 ZM219 229 l66 212 l67 -212 l-133 0 Z" /><glyph glyph-name="" unicode="Á" d="M452 800 l-135 0 l-88 -150 l97 0 l126 150 ZM423 0 l164 0 l-217 600 l-171 0 l-217 -600 l165 0 l33 105 l210 0 l33 -105 ZM219 229 l66 212 l67 -212 l-133 0 Z" /><glyph glyph-name="" unicode="&#x102;" d="M286 641 q69 0 109 36 q41 36 42 111 l-83 0 q0 -25 -17 -44 q-18 -20 -51 -21 q-32 1 -50 21 q-18 19 -18 44 l-82 0 q1 -75 42 -111 q40 -36 108 -36 l0 0 ZM423 0 l164 0 l-217 600 l-171 0 l-217 -600 l165 0 l33 105 l210 0 l33 -105 ZM219 229 l66 212 l67 -212 l-133 0 Z" /><glyph glyph-name="" unicode="&#x1cd;" d="M326 650 l106 150 l-90 0 l-56 -69 l-55 69 l-90 0 l105 -150 l80 0 ZM423 0 l164 0 l-217 600 l-171 0 l-217 -600 l165 0 l33 105 l210 0 l33 -105 ZM219 229 l66 212 l67 -212 l-133 0 Z" /><glyph glyph-name="" unicode="Â" d="M286 720 l56 -70 l90 0 l-106 150 l-80 0 l-105 -150 l90 0 l55 70 ZM423 0 l164 0 l-217 600 l-171 0 l-217 -600 l165 0 l33 105 l210 0 l33 -105 ZM219 229 l66 212 l67 -212 l-133 0 Z" /><glyph glyph-name="" unicode="Ä" d="M199 669 q27 1 46 19 q18 19 19 46 q-1 28 -19 46 q-19 18 -46 19 q-28 -1 -46 -19 q-19 -18 -20 -46 q1 -27 20 -46 q18 -18 46 -19 l0 0 ZM373 669 q28 1 47 19 q18 19 19 46 q-1 28 -19 46 q-19 18 -47 19 q-27 -1 -46 -19 q-18 -18 -19 -46 q1 -27 19 -46 q19 -18 46 -19 l0 0 ZM423 0 l164 0 l-217 600 l-171 0 l-217 -600 l165 0 l33 105 l210 0 l33 -105 ZM219 229 l66 212 l67 -212 l-133 0 Z" /><glyph glyph-name="" unicode="À" d="M343 650 l-88 150 l-135 0 l126 -150 l97 0 ZM423 0 l164 0 l-217 600 l-171 0 l-217 -600 l165 0 l33 105 l210 0 l33 -105 ZM219 229 l66 212 l67 -212 l-133 0 Z" /><glyph glyph-name="" unicode="&#x100;" d="M411 750 l-250 0 l0 -92 l250 0 l0 92 ZM423 0 l164 0 l-217 600 l-171 0 l-217 -600 l165 0 l33 105 l210 0 l33 -105 ZM219 229 l66 212 l67 -212 l-133 0 Z" /><glyph glyph-name="" unicode="&#x104;" d="M587 -91 q-10 -21 -26 -33 q-17 -13 -36 -13 q-19 0 -30 12 q-11 13 -11 38 q1 30 28 49 q27 18 75 38 l-217 600 l-171 0 l-217 -600 l165 0 l33 105 l210 0 l33 -105 l46 0 q-32 -16 -53 -40 q-20 -24 -21 -60 q0 -42 27 -71 q26 -30 79 -35 q35 -3 71 11 q35 13 61 40 l-46 64 ZM219 229 l66 212 l67 -212 l-133 0 Z" /><glyph glyph-name="" unicode="Å" d="M423 0 l164 0 l-212 585 q10 13 15 28 q5 16 5 33 q-1 42 -29 70 q-29 29 -72 30 q-43 -1 -72 -30 q-29 -28 -30 -70 q0 -25 11 -46 l-4 0 l-217 -600 l165 0 l33 105 l210 0 l33 -105 ZM294 690 q19 -1 31 -13 q13 -13 13 -31 q0 -21 -13 -33 q-12 -12 -31 -12 q-19 0 -31 12 q-12 12 -12 33 q0 18 12 31 q12 12 31 13 l0 0 ZM219 229 l66 212 l67 -212 l-133 0 Z" /><glyph glyph-name="" unicode="Ã" d="M238 701 q4 0 7 -2 q2 -3 6 -8 q19 -26 39 -37 q21 -11 45 -11 q50 1 75 38 q25 37 25 95 l-84 0 q0 -23 -3 -37 q-4 -14 -15 -14 q-4 0 -7 2 q-3 3 -6 7 q-13 21 -34 35 q-22 13 -51 14 q-47 -1 -73 -37 q-26 -37 -26 -97 l84 0 q0 23 4 37 q4 15 14 15 l0 0 ZM423 0 l164 0 l-217 600 l-171 0 l-217 -600 l165 0 l33 105 l210 0 l33 -105 ZM219 229 l66 212 l67 -212 l-133 0 Z" /><glyph glyph-name="" unicode="Æ" d="M744 471 l0 129 l-521 0 l-241 -600 l171 0 l45 120 l176 0 l0 -120 l370 0 l0 129 l-222 0 l0 115 l188 0 l0 112 l-188 0 l0 115 l222 0 ZM240 234 l88 237 l46 0 l0 -237 l-134 0 Z" /><glyph glyph-name="" unicode="B" d="M438 305 q32 17 50 48 q18 31 18 78 q-2 82 -54 125 q-52 44 -131 44 l-266 0 l0 -600 l289 0 q78 0 129 42 q51 41 53 124 q-1 54 -24 88 q-24 34 -64 51 l0 0 ZM353 414 q-1 -21 -15 -37 q-14 -15 -36 -16 l-94 0 l0 106 l94 0 q22 -1 36 -16 q14 -15 15 -37 l0 0 ZM321 133 l-113 0 l0 106 l113 0 q23 -1 37 -16 q15 -16 15 -37 q0 -22 -15 -37 q-14 -15 -37 -16 l0 0 Z" /><glyph glyph-name="" unicode="C" d="M342 -8 q90 1 163 47 q72 45 111 121 l-132 67 q-20 -39 -57 -62 q-37 -23 -85 -23 q-70 1 -114 45 q-44 43 -45 113 q1 70 45 113 q44 44 114 45 q48 0 85 -23 q37 -23 57 -62 l132 67 q-39 76 -111 122 q-73 45 -163 46 q-131 -3 -218 -90 q-87 -87 -90 -218 q3 -131 90 -218 q87 -87 218 -90 l0 0 Z" /><glyph glyph-name="" unicode="&#x106;" d="M285 650 l97 0 l126 150 l-135 0 l-88 -150 ZM342 -8 q90 1 163 47 q72 45 111 121 l-132 67 q-20 -39 -57 -62 q-37 -23 -85 -23 q-70 1 -114 45 q-44 43 -45 113 q1 70 45 113 q44 44 114 45 q48 0 85 -23 q37 -23 57 -62 l132 67 q-39 76 -111 122 q-73 45 -163 46 q-131 -3 -218 -90 q-87 -87 -90 -218 q3 -131 90 -218 q87 -87 218 -90 l0 0 Z" /><glyph glyph-name="" unicode="&#x10c;" d="M302 650 l80 0 l106 150 l-90 0 l-56 -69 l-55 69 l-90 0 l105 -150 ZM342 -8 q90 1 163 47 q72 45 111 121 l-132 67 q-20 -39 -57 -62 q-37 -23 -85 -23 q-70 1 -114 45 q-44 43 -45 113 q1 70 45 113 q44 44 114 45 q48 0 85 -23 q37 -23 57 -62 l132 67 q-39 76 -111 122 q-73 45 -163 46 q-131 -3 -218 -90 q-87 -87 -90 -218 q3 -131 90 -218 q87 -87 218 -90 l0 0 Z" /><glyph glyph-name="" unicode="Ç" d="M342 142 q-70 1 -114 45 q-44 43 -45 113 q1 70 45 113 q44 44 114 45 q48 0 85 -23 q37 -23 57 -62 l132 67 q-39 76 -111 122 q-73 45 -163 46 q-131 -3 -218 -90 q-87 -87 -90 -218 q3 -121 78 -205 q76 -85 194 -101 l-39 -69 l49 -28 q25 13 41 9 q15 -4 16 -23 q0 -12 -8 -19 q-7 -8 -18 -8 q-10 0 -19 6 q-9 6 -14 15 l-62 -20 q8 -28 35 -46 q27 -18 60 -19 q38 1 64 26 q25 26 26 65 q-1 37 -26 58 q-25 20 -63 15 l24 37 q80 9 144 53 q64 44 100 114 l-132 67 q-20 -39 -57 -62 q-37 -23 -85 -23 l0 0 Z" /><glyph glyph-name="" unicode="&#x10a;" d="M342 649 q33 1 56 23 q22 23 23 56 q-1 33 -23 55 q-23 22 -56 23 q-33 -1 -56 -23 q-22 -22 -23 -55 q1 -33 23 -56 q23 -22 56 -23 l0 0 ZM342 -8 q90 1 163 47 q72 45 111 121 l-132 67 q-20 -39 -57 -62 q-37 -23 -85 -23 q-70 1 -114 45 q-44 43 -45 113 q1 70 45 113 q44 44 114 45 q48 0 85 -23 q37 -23 57 -62 l132 67 q-39 76 -111 122 q-73 45 -163 46 q-131 -3 -218 -90 q-87 -87 -90 -218 q3 -131 90 -218 q87 -87 218 -90 l0 0 Z" /><glyph glyph-name="" unicode="D" d="M55 0 l208 0 q127 3 212 88 q85 84 88 212 q-3 128 -88 212 q-85 85 -212 88 l-208 0 l0 -600 ZM208 133 l0 334 l55 0 q64 -2 105 -48 q42 -47 43 -119 q-1 -72 -43 -119 q-41 -46 -105 -48 l-55 0 Z" /><glyph glyph-name="" unicode="Ð" d="M263 600 l-208 0 l0 -265 l-55 0 l0 -70 l55 0 l0 -265 l208 0 q127 3 212 88 q85 84 88 212 q-3 128 -88 212 q-85 85 -212 88 l0 0 ZM263 133 l-55 0 l0 132 l86 0 l0 70 l-86 0 l0 132 l55 0 q64 -2 105 -48 q42 -47 43 -119 q-1 -72 -43 -119 q-41 -46 -105 -48 l0 0 Z" /><glyph glyph-name="" unicode="&#x10e;" d="M223 650 l80 0 l106 150 l-90 0 l-56 -69 l-55 69 l-90 0 l105 -150 ZM55 0 l208 0 q127 3 212 88 q85 84 88 212 q-3 128 -88 212 q-85 85 -212 88 l-208 0 l0 -600 ZM208 133 l0 334 l55 0 q64 -2 105 -48 q42 -47 43 -119 q-1 -72 -43 -119 q-41 -46 -105 -48 l-55 0 Z" /><glyph glyph-name="" unicode="&#x110;" d="M263 600 l-208 0 l0 -265 l-55 0 l0 -70 l55 0 l0 -265 l208 0 q127 3 212 88 q85 84 88 212 q-3 128 -88 212 q-85 85 -212 88 l0 0 ZM263 133 l-55 0 l0 132 l86 0 l0 70 l-86 0 l0 132 l55 0 q64 -2 105 -48 q42 -47 43 -119 q-1 -72 -43 -119 q-41 -46 -105 -48 l0 0 Z" /><glyph glyph-name="" unicode="E" d="M432 467 l0 133 l-372 0 l0 -600 l372 0 l0 133 l-219 0 l0 101 l185 0 l0 132 l-185 0 l0 101 l219 0 Z" /><glyph glyph-name="" unicode="É" d="M412 800 l-135 0 l-88 -150 l97 0 l126 150 ZM432 467 l0 133 l-372 0 l0 -600 l372 0 l0 133 l-219 0 l0 101 l185 0 l0 132 l-185 0 l0 101 l219 0 Z" /><glyph glyph-name="" unicode="&#x11a;" d="M286 650 l106 150 l-90 0 l-56 -69 l-55 69 l-90 0 l105 -150 l80 0 ZM432 467 l0 133 l-372 0 l0 -600 l372 0 l0 133 l-219 0 l0 101 l185 0 l0 132 l-185 0 l0 101 l219 0 Z" /><glyph glyph-name="" unicode="Ê" d="M246 720 l56 -70 l90 0 l-106 150 l-80 0 l-105 -150 l90 0 l55 70 ZM432 467 l0 133 l-372 0 l0 -600 l372 0 l0 133 l-219 0 l0 101 l185 0 l0 132 l-185 0 l0 101 l219 0 Z" /><glyph glyph-name="" unicode="Ë" d="M159 669 q27 1 46 19 q18 19 19 46 q-1 28 -19 46 q-19 18 -46 19 q-28 -1 -46 -19 q-19 -18 -20 -46 q1 -27 20 -46 q18 -18 46 -19 l0 0 ZM333 669 q28 1 47 19 q18 19 19 46 q-1 28 -19 46 q-19 18 -47 19 q-27 -1 -46 -19 q-18 -18 -19 -46 q1 -27 19 -46 q19 -18 46 -19 l0 0 ZM432 467 l0 133 l-372 0 l0 -600 l372 0 l0 133 l-219 0 l0 101 l185 0 l0 132 l-185 0 l0 101 l219 0 Z" /><glyph glyph-name="" unicode="&#x116;" d="M246 649 q33 1 56 23 q22 23 23 56 q-1 33 -23 55 q-23 22 -56 23 q-33 -1 -56 -23 q-22 -22 -23 -55 q1 -33 23 -56 q23 -22 56 -23 l0 0 ZM432 467 l0 133 l-372 0 l0 -600 l372 0 l0 133 l-219 0 l0 101 l185 0 l0 132 l-185 0 l0 101 l219 0 Z" /><glyph glyph-name="" unicode="È" d="M303 650 l-88 150 l-135 0 l126 -150 l97 0 ZM432 467 l0 133 l-372 0 l0 -600 l372 0 l0 133 l-219 0 l0 101 l185 0 l0 132 l-185 0 l0 101 l219 0 Z" /><glyph glyph-name="" unicode="&#x112;" d="M371 750 l-250 0 l0 -92 l250 0 l0 92 ZM432 467 l0 133 l-372 0 l0 -600 l372 0 l0 133 l-219 0 l0 101 l185 0 l0 132 l-185 0 l0 101 l219 0 Z" /><glyph glyph-name="" unicode="&#x118;" d="M432 -91 q-10 -21 -26 -33 q-17 -13 -36 -13 q-19 0 -30 12 q-11 13 -11 38 q1 30 28 49 q27 18 75 38 l0 133 l-219 0 l0 101 l185 0 l0 132 l-185 0 l0 101 l219 0 l0 133 l-372 0 l0 -600 l254 0 q-32 -16 -53 -40 q-20 -24 -21 -60 q0 -42 27 -71 q26 -30 79 -35 q35 -3 71 11 q35 13 61 40 l-46 64 Z" /><glyph glyph-name="" unicode="F" d="M432 467 l0 133 l-372 0 l0 -600 l153 0 l0 234 l185 0 l0 132 l-185 0 l0 101 l219 0 Z" /><glyph glyph-name="" unicode="G" d="M341 333 l0 -117 l137 0 q-21 -34 -56 -54 q-35 -20 -80 -20 q-70 1 -114 45 q-44 43 -45 113 q1 70 45 113 q44 44 114 45 q48 0 85 -23 q37 -23 57 -62 l132 67 q-39 76 -111 122 q-73 45 -163 46 q-131 -3 -218 -90 q-87 -87 -90 -218 q3 -131 90 -218 q87 -87 218 -90 q131 3 218 90 q87 87 90 218 l0 33 l-309 0 Z" /><glyph glyph-name="" unicode="&#x11e;" d="M342 641 q69 0 109 36 q41 36 42 111 l-83 0 q0 -25 -17 -44 q-18 -20 -51 -21 q-32 1 -50 21 q-18 19 -18 44 l-82 0 q1 -75 42 -111 q40 -36 108 -36 l0 0 ZM341 333 l0 -117 l137 0 q-21 -34 -56 -54 q-35 -20 -80 -20 q-70 1 -114 45 q-44 43 -45 113 q1 70 45 113 q44 44 114 45 q48 0 85 -23 q37 -23 57 -62 l132 67 q-39 76 -111 122 q-73 45 -163 46 q-131 -3 -218 -90 q-87 -87 -90 -218 q3 -131 90 -218 q87 -87 218 -90 q131 3 218 90 q87 87 90 218 l0 33 l-309 0 Z" /><glyph glyph-name="" unicode="&#x122;" d="M341 333 l0 -117 l137 0 q-21 -34 -56 -54 q-35 -20 -80 -20 q-70 1 -114 45 q-44 43 -45 113 q1 70 45 113 q44 44 114 45 q48 0 85 -23 q37 -23 57 -62 l132 67 q-39 76 -111 122 q-73 45 -163 46 q-131 -3 -218 -90 q-87 -87 -90 -218 q3 -131 90 -218 q87 -87 218 -90 q131 3 218 90 q87 87 90 218 l0 33 l-309 0 ZM228 -203 l66 0 l108 155 l-120 0 l-54 -155 Z" /><glyph glyph-name="" unicode="&#x120;" d="M342 649 q33 1 56 23 q22 23 23 56 q-1 33 -23 55 q-23 22 -56 23 q-33 -1 -56 -23 q-22 -22 -23 -55 q1 -33 23 -56 q23 -22 56 -23 l0 0 ZM341 333 l0 -117 l137 0 q-21 -34 -56 -54 q-35 -20 -80 -20 q-70 1 -114 45 q-44 43 -45 113 q1 70 45 113 q44 44 114 45 q48 0 85 -23 q37 -23 57 -62 l132 67 q-39 76 -111 122 q-73 45 -163 46 q-131 -3 -218 -90 q-87 -87 -90 -218 q3 -131 90 -218 q87 -87 218 -90 q131 3 218 90 q87 87 90 218 l0 33 l-309 0 Z" /><glyph glyph-name="" unicode="H" d="M424 600 l0 -233 l-216 0 l0 233 l-153 0 l0 -600 l153 0 l0 234 l216 0 l0 -234 l153 0 l0 600 l-153 0 Z" /><glyph glyph-name="" unicode="&#x126;" d="M621 502 l-44 0 l0 98 l-153 0 l0 -98 l-216 0 l0 98 l-153 0 l0 -98 l-42 0 l0 -54 l42 0 l0 -448 l153 0 l0 234 l216 0 l0 -234 l153 0 l0 448 l44 0 l0 54 ZM424 367 l-216 0 l0 81 l216 0 l0 -81 Z" /><glyph glyph-name="" unicode="I" d="M60 0 l153 0 l0 600 l-153 0 l0 -600 Z" /><glyph glyph-name="" unicode="Í" d="M79 650 l97 0 l126 150 l-135 0 l-88 -150 ZM60 0 l153 0 l0 600 l-153 0 l0 -600 Z" /><glyph glyph-name="" unicode="&#x1cf;" d="M96 650 l80 0 l106 150 l-90 0 l-56 -69 l-55 69 l-90 0 l105 -150 ZM60 0 l153 0 l0 600 l-153 0 l0 -600 Z" /><glyph glyph-name="" unicode="Î" d="M81 650 l55 70 l56 -70 l90 0 l-106 150 l-80 0 l-105 -150 l90 0 ZM60 0 l153 0 l0 600 l-153 0 l0 -600 Z" /><glyph glyph-name="" unicode="Ï" d="M49 669 q27 1 46 19 q18 19 19 46 q-1 28 -19 46 q-19 18 -46 19 q-28 -1 -46 -19 q-19 -18 -20 -46 q1 -27 20 -46 q18 -18 46 -19 l0 0 ZM223 669 q28 1 47 19 q18 19 19 46 q-1 28 -19 46 q-19 18 -47 19 q-27 -1 -46 -19 q-18 -18 -19 -46 q1 -27 19 -46 q19 -18 46 -19 l0 0 ZM60 0 l153 0 l0 600 l-153 0 l0 -600 Z" /><glyph glyph-name="" unicode="&#x130;" d="M136 649 q33 1 56 23 q22 23 23 56 q-1 33 -23 55 q-23 22 -56 23 q-33 -1 -56 -23 q-22 -22 -23 -55 q1 -33 23 -56 q23 -22 56 -23 l0 0 ZM60 0 l153 0 l0 600 l-153 0 l0 -600 Z" /><glyph glyph-name="" unicode="Ì" d="M193 650 l-88 150 l-135 0 l126 -150 l97 0 ZM60 0 l153 0 l0 600 l-153 0 l0 -600 Z" /><glyph glyph-name="" unicode="&#x12a;" d="M11 658 l250 0 l0 92 l-250 0 l0 -92 ZM60 0 l153 0 l0 600 l-153 0 l0 -600 Z" /><glyph glyph-name="" unicode="&#x12e;" d="M213 -91 q-10 -21 -26 -33 q-17 -13 -36 -13 q-19 0 -30 12 q-11 13 -11 38 q1 30 28 49 q27 18 75 38 l0 600 l-153 0 l0 -600 l35 0 q-32 -16 -53 -40 q-20 -24 -21 -60 q0 -42 27 -71 q26 -30 79 -35 q35 -3 71 11 q35 13 61 40 l-46 64 Z" /><glyph glyph-name="" unicode="J" d="M428 600 l-347 0 l0 -133 l194 0 l0 -290 q-1 -22 -15 -37 q-14 -15 -36 -16 q-19 0 -32 13 q-14 12 -17 32 l-151 -46 q11 -61 61 -96 q50 -34 139 -35 q101 1 152 45 q52 43 52 120 l0 443 Z" /><glyph glyph-name="" unicode="K" d="M435 0 l203 0 l-290 337 l253 263 l-195 0 l-181 -201 l-17 0 l0 201 l-153 0 l0 -600 l153 0 l0 268 l10 0 l217 -268 Z" /><glyph glyph-name="" unicode="&#x136;" d="M348 337 l253 263 l-195 0 l-181 -201 l-17 0 l0 201 l-153 0 l0 -600 l153 0 l0 268 l10 0 l217 -268 l203 0 l-290 337 ZM200 -203 l66 0 l108 155 l-120 0 l-54 -155 Z" /><glyph glyph-name="" unicode="L" d="M208 133 l0 467 l-153 0 l0 -600 l344 0 l0 133 l-191 0 Z" /><glyph glyph-name="" unicode="&#x139;" d="M298 800 l-135 0 l-88 -150 l97 0 l126 150 ZM208 133 l0 467 l-153 0 l0 -600 l344 0 l0 133 l-191 0 Z" /><glyph glyph-name="" unicode="&#x13d;" d="M208 600 l-153 0 l0 -600 l344 0 l0 133 l-191 0 l0 467 ZM475 600 l-116 0 l-69 -242 l72 0 l113 242 Z" /><glyph glyph-name="" unicode="&#x13b;" d="M208 133 l0 467 l-153 0 l0 -600 l344 0 l0 133 l-191 0 ZM114 -203 l66 0 l108 155 l-120 0 l-54 -155 Z" /><glyph glyph-name="" unicode="&#x141;" d="M208 133 l0 191 l107 112 l-59 50 l-48 -50 l0 164 l-153 0 l0 -324 l-106 -110 l58 -52 l48 50 l0 -164 l344 0 l0 133 l-191 0 Z" /><glyph glyph-name="" unicode="M" d="M576 600 l-178 -382 l-177 382 l-166 0 l0 -600 l153 0 l0 323 l149 -323 l82 0 l149 321 l0 -321 l153 0 l0 600 l-165 0 Z" /><glyph glyph-name="" unicode="N" d="M486 600 l0 -367 l-271 367 l-160 0 l0 -600 l153 0 l0 368 l270 -368 l161 0 l0 600 l-153 0 Z" /><glyph glyph-name="" unicode="&#x143;" d="M516 800 l-135 0 l-88 -150 l97 0 l126 150 ZM486 600 l0 -367 l-271 367 l-160 0 l0 -600 l153 0 l0 368 l270 -368 l161 0 l0 600 l-153 0 Z" /><glyph glyph-name="" unicode="&#x147;" d="M390 650 l106 150 l-90 0 l-56 -69 l-55 69 l-90 0 l105 -150 l80 0 ZM486 600 l0 -367 l-271 367 l-160 0 l0 -600 l153 0 l0 368 l270 -368 l161 0 l0 600 l-153 0 Z" /><glyph glyph-name="" unicode="&#x145;" d="M486 600 l0 -367 l-271 367 l-160 0 l0 -600 l153 0 l0 368 l270 -368 l161 0 l0 600 l-153 0 ZM229 -203 l66 0 l108 155 l-120 0 l-54 -155 Z" /><glyph glyph-name="" unicode="&#x14a;" d="M486 600 l0 -367 l-271 367 l-160 0 l0 -600 l153 0 l0 368 l270 -368 l0 -52 q-1 -53 -18 -66 q-17 -13 -44 -12 l0 -95 q93 -1 157 36 q63 37 66 131 l0 658 l-153 0 Z" /><glyph glyph-name="" unicode="Ñ" d="M302 701 q4 0 7 -2 q2 -3 6 -8 q19 -26 39 -37 q21 -11 45 -11 q50 1 75 38 q25 37 25 95 l-84 0 q0 -23 -3 -37 q-4 -14 -15 -14 q-4 0 -7 2 q-3 3 -6 7 q-13 21 -34 35 q-22 13 -51 14 q-47 -1 -73 -37 q-26 -37 -26 -97 l84 0 q0 23 4 37 q4 15 14 15 l0 0 ZM486 600 l0 -367 l-271 367 l-160 0 l0 -600 l153 0 l0 368 l270 -368 l161 0 l0 600 l-153 0 Z" /><glyph glyph-name="" unicode="O" d="M342 -8 q131 3 218 90 q87 87 90 218 q-3 131 -90 218 q-87 87 -218 90 q-131 -3 -218 -90 q-87 -87 -90 -218 q3 -131 90 -218 q87 -87 218 -90 l0 0 ZM342 142 q-70 1 -114 45 q-44 43 -45 113 q1 70 45 113 q44 44 114 45 q69 -1 113 -45 q44 -43 45 -113 q-1 -70 -45 -113 q-44 -44 -113 -45 l0 0 Z" /><glyph glyph-name="" unicode="Ó" d="M285 650 l97 0 l126 150 l-135 0 l-88 -150 ZM342 -8 q131 3 218 90 q87 87 90 218 q-3 131 -90 218 q-87 87 -218 90 q-131 -3 -218 -90 q-87 -87 -90 -218 q3 -131 90 -218 q87 -87 218 -90 l0 0 ZM342 142 q-70 1 -114 45 q-44 43 -45 113 q1 70 45 113 q44 44 114 45 q69 -1 113 -45 q44 -43 45 -113 q-1 -70 -45 -113 q-44 -44 -113 -45 l0 0 Z" /><glyph glyph-name="" unicode="&#x1d1;" d="M302 650 l80 0 l106 150 l-90 0 l-56 -69 l-55 69 l-90 0 l105 -150 ZM342 -8 q131 3 218 90 q87 87 90 218 q-3 131 -90 218 q-87 87 -218 90 q-131 -3 -218 -90 q-87 -87 -90 -218 q3 -131 90 -218 q87 -87 218 -90 l0 0 ZM342 142 q-70 1 -114 45 q-44 43 -45 113 q1 70 45 113 q44 44 114 45 q69 -1 113 -45 q44 -43 45 -113 q-1 -70 -45 -113 q-44 -44 -113 -45 l0 0 Z" /><glyph glyph-name="" unicode="Ô" d="M287 650 l55 70 l56 -70 l90 0 l-106 150 l-80 0 l-105 -150 l90 0 ZM342 -8 q131 3 218 90 q87 87 90 218 q-3 131 -90 218 q-87 87 -218 90 q-131 -3 -218 -90 q-87 -87 -90 -218 q3 -131 90 -218 q87 -87 218 -90 l0 0 ZM342 142 q-70 1 -114 45 q-44 43 -45 113 q1 70 45 113 q44 44 114 45 q69 -1 113 -45 q44 -43 45 -113 q-1 -70 -45 -113 q-44 -44 -113 -45 l0 0 Z" /><glyph glyph-name="" unicode="Ö" d="M255 669 q27 1 46 19 q18 19 19 46 q-1 28 -19 46 q-19 18 -46 19 q-28 -1 -46 -19 q-19 -18 -20 -46 q1 -27 20 -46 q18 -18 46 -19 l0 0 ZM429 669 q28 1 47 19 q18 19 19 46 q-1 28 -19 46 q-19 18 -47 19 q-27 -1 -46 -19 q-18 -18 -19 -46 q1 -27 19 -46 q19 -18 46 -19 l0 0 ZM342 -8 q131 3 218 90 q87 87 90 218 q-3 131 -90 218 q-87 87 -218 90 q-131 -3 -218 -90 q-87 -87 -90 -218 q3 -131 90 -218 q87 -87 218 -90 l0 0 ZM342 142 q-70 1 -114 45 q-44 43 -45 113 q1 70 45 113 q44 44 114 45 q69 -1 113 -45 q44 -43 45 -113 q-1 -70 -45 -113 q-44 -44 -113 -45 l0 0 Z" /><glyph glyph-name="" unicode="Ò" d="M399 650 l-88 150 l-135 0 l126 -150 l97 0 ZM342 -8 q131 3 218 90 q87 87 90 218 q-3 131 -90 218 q-87 87 -218 90 q-131 -3 -218 -90 q-87 -87 -90 -218 q3 -131 90 -218 q87 -87 218 -90 l0 0 ZM342 142 q-70 1 -114 45 q-44 43 -45 113 q1 70 45 113 q44 44 114 45 q69 -1 113 -45 q44 -43 45 -113 q-1 -70 -45 -113 q-44 -44 -113 -45 l0 0 Z" /><glyph glyph-name="" unicode="&#x150;" d="M206 650 l96 0 l125 150 l-134 0 l-87 -150 ZM378 650 l96 0 l125 150 l-134 0 l-87 -150 ZM342 -8 q131 3 218 90 q87 87 90 218 q-3 131 -90 218 q-87 87 -218 90 q-131 -3 -218 -90 q-87 -87 -90 -218 q3 -131 90 -218 q87 -87 218 -90 l0 0 ZM342 142 q-70 1 -114 45 q-44 43 -45 113 q1 70 45 113 q44 44 114 45 q69 -1 113 -45 q44 -43 45 -113 q-1 -70 -45 -113 q-44 -44 -113 -45 l0 0 Z" /><glyph glyph-name="" unicode="&#x14c;" d="M217 658 l250 0 l0 92 l-250 0 l0 -92 ZM342 -8 q131 3 218 90 q87 87 90 218 q-3 131 -90 218 q-87 87 -218 90 q-131 -3 -218 -90 q-87 -87 -90 -218 q3 -131 90 -218 q87 -87 218 -90 l0 0 ZM342 142 q-70 1 -114 45 q-44 43 -45 113 q1 70 45 113 q44 44 114 45 q69 -1 113 -45 q44 -43 45 -113 q-1 -70 -45 -113 q-44 -44 -113 -45 l0 0 Z" /><glyph glyph-name="" unicode="Ø" d="M557 521 l55 79 l-88 52 l-51 -73 q-60 29 -131 29 q-131 -3 -218 -90 q-87 -87 -90 -218 q0 -65 25 -121 q24 -57 67 -99 l-56 -80 l89 -52 l51 73 q30 -14 63 -21 q34 -8 69 -8 q131 3 218 90 q87 87 90 218 q0 65 -25 122 q-25 57 -68 99 l0 0 ZM183 300 q1 70 45 113 q44 44 114 45 q11 0 22 -1 q11 -2 21 -4 l-172 -248 q-14 20 -22 44 q-8 24 -8 51 l0 0 ZM342 142 q-23 0 -44 6 l172 247 q14 -20 22 -43 q8 -24 8 -52 q-1 -70 -45 -113 q-44 -44 -113 -45 l0 0 Z" /><glyph glyph-name="" unicode="Õ" d="M391 643 q50 1 75 38 q25 37 25 95 l-84 0 q0 -23 -3 -37 q-4 -14 -15 -14 q-4 0 -7 2 q-3 3 -6 7 q-13 21 -34 35 q-22 13 -51 14 q-47 -1 -73 -37 q-26 -37 -26 -97 l84 0 q0 23 4 37 q4 15 14 15 q4 0 7 -2 q2 -3 6 -8 q19 -26 39 -37 q21 -11 45 -11 l0 0 ZM342 -8 q131 3 218 90 q87 87 90 218 q-3 131 -90 218 q-87 87 -218 90 q-131 -3 -218 -90 q-87 -87 -90 -218 q3 -131 90 -218 q87 -87 218 -90 l0 0 ZM342 142 q-70 1 -114 45 q-44 43 -45 113 q1 70 45 113 q44 44 114 45 q69 -1 113 -45 q44 -43 45 -113 q-1 -70 -45 -113 q-44 -44 -113 -45 l0 0 Z" /><glyph glyph-name="" unicode="&#x152;" d="M787 471 l0 129 l-345 0 l0 -8 q-23 8 -48 12 q-26 4 -52 4 q-131 -3 -218 -90 q-87 -87 -90 -218 q3 -131 90 -218 q87 -87 218 -90 q26 0 52 4 q25 4 48 12 l0 -8 l345 0 l0 129 l-205 0 l0 106 l171 0 l0 130 l-171 0 l0 106 l205 0 ZM342 140 q-69 2 -114 46 q-44 45 -46 114 q2 69 46 114 q45 44 114 46 q29 0 55 -9 q25 -9 45 -26 l0 -250 q-20 -17 -45 -26 q-26 -9 -55 -9 l0 0 Z" /><glyph glyph-name="" unicode="P" d="M322 600 l-267 0 l0 -600 l153 0 l0 235 l114 0 q80 2 131 51 q51 50 53 129 q-2 79 -53 131 q-51 52 -131 54 l0 0 ZM297 359 l-89 0 l0 108 l89 0 q28 0 45 -15 q17 -14 17 -38 q0 -24 -17 -39 q-17 -16 -45 -16 l0 0 Z" /><glyph glyph-name="" unicode="Þ" d="M326 511 l-117 0 l0 89 l-148 0 l0 -600 l148 0 l0 147 l117 0 q78 2 129 51 q51 50 53 126 q-2 81 -53 133 q-51 52 -129 54 l0 0 ZM321 277 l-112 0 l0 104 l112 0 q22 0 37 -15 q15 -14 16 -37 q-1 -22 -16 -36 q-15 -15 -37 -16 l0 0 Z" /><glyph glyph-name="" unicode="Q" d="M672 105 l-52 0 l-72 -34 q47 43 74 101 q27 59 28 128 q-3 131 -90 218 q-87 87 -218 90 q-131 -3 -218 -90 q-87 -87 -90 -218 q3 -131 90 -218 q87 -87 218 -90 q18 0 36 2 q17 2 34 6 l260 0 l0 105 ZM183 300 q1 70 45 113 q44 44 114 45 q69 -1 113 -45 q44 -43 45 -113 q-1 -70 -45 -113 q-44 -44 -113 -45 q-70 1 -114 45 q-44 43 -45 113 l0 0 Z" /><glyph glyph-name="" unicode="R" d="M389 238 q53 19 84 65 q32 46 33 108 q-1 80 -52 134 q-50 53 -132 55 l-267 0 l0 -600 l153 0 l0 220 l35 0 l140 -220 l172 0 l-166 238 ZM297 343 l-89 0 l0 124 l89 0 q28 0 45 -17 q17 -17 17 -45 q0 -27 -17 -44 q-17 -17 -45 -18 l0 0 Z" /><glyph glyph-name="" unicode="&#x154;" d="M445 800 l-135 0 l-88 -150 l97 0 l126 150 ZM389 238 q53 19 84 65 q32 46 33 108 q-1 80 -52 134 q-50 53 -132 55 l-267 0 l0 -600 l153 0 l0 220 l35 0 l140 -220 l172 0 l-166 238 ZM297 343 l-89 0 l0 124 l89 0 q28 0 45 -17 q17 -17 17 -45 q0 -27 -17 -44 q-17 -17 -45 -18 l0 0 Z" /><glyph glyph-name="" unicode="&#x158;" d="M319 650 l106 150 l-90 0 l-56 -69 l-55 69 l-90 0 l105 -150 l80 0 ZM389 238 q53 19 84 65 q32 46 33 108 q-1 80 -52 134 q-50 53 -132 55 l-267 0 l0 -600 l153 0 l0 220 l35 0 l140 -220 l172 0 l-166 238 ZM297 343 l-89 0 l0 124 l89 0 q28 0 45 -17 q17 -17 17 -45 q0 -27 -17 -44 q-17 -17 -45 -18 l0 0 Z" /><glyph glyph-name="" unicode="&#x156;" d="M389 238 q53 19 84 65 q32 46 33 108 q-1 80 -52 134 q-50 53 -132 55 l-267 0 l0 -600 l153 0 l0 220 l35 0 l140 -220 l172 0 l-166 238 ZM297 343 l-89 0 l0 124 l89 0 q28 0 45 -17 q17 -17 17 -45 q0 -27 -17 -44 q-17 -17 -45 -18 l0 0 ZM165 -203 l66 0 l108 155 l-120 0 l-54 -155 Z" /><glyph glyph-name="" unicode="S" d="M251 -8 q89 1 150 48 q61 47 64 134 q-17 157 -136 182 q-119 25 -136 80 q1 19 13 29 q13 9 31 9 q23 0 47 -13 q24 -13 48 -39 l100 97 q-36 42 -86 65 q-50 24 -107 24 q-75 1 -136 -43 q-60 -45 -64 -140 q17 -144 137 -168 q119 -25 136 -81 q0 -18 -15 -29 q-15 -12 -44 -12 q-39 0 -69 20 q-30 19 -46 53 l-125 -78 q31 -58 93 -97 q62 -39 145 -41 l0 0 Z" /><glyph glyph-name="" unicode="&#x15a;" d="M184 650 l97 0 l126 150 l-135 0 l-88 -150 ZM251 -8 q89 1 150 48 q61 47 64 134 q-17 157 -136 182 q-119 25 -136 80 q1 19 13 29 q13 9 31 9 q23 0 47 -13 q24 -13 48 -39 l100 97 q-36 42 -86 65 q-50 24 -107 24 q-75 1 -136 -43 q-60 -45 -64 -140 q17 -144 137 -168 q119 -25 136 -81 q0 -18 -15 -29 q-15 -12 -44 -12 q-39 0 -69 20 q-30 19 -46 53 l-125 -78 q31 -58 93 -97 q62 -39 145 -41 l0 0 Z" /><glyph glyph-name="" unicode="&#x160;" d="M201 650 l80 0 l106 150 l-90 0 l-56 -69 l-55 69 l-90 0 l105 -150 ZM251 -8 q89 1 150 48 q61 47 64 134 q-17 157 -136 182 q-119 25 -136 80 q1 19 13 29 q13 9 31 9 q23 0 47 -13 q24 -13 48 -39 l100 97 q-36 42 -86 65 q-50 24 -107 24 q-75 1 -136 -43 q-60 -45 -64 -140 q17 -144 137 -168 q119 -25 136 -81 q0 -18 -15 -29 q-15 -12 -44 -12 q-39 0 -69 20 q-30 19 -46 53 l-125 -78 q31 -58 93 -97 q62 -39 145 -41 l0 0 Z" /><glyph glyph-name="" unicode="&#x15e;" d="M465 174 q-17 157 -136 182 q-119 25 -136 80 q1 19 13 29 q13 9 31 9 q23 0 47 -13 q24 -13 48 -39 l100 97 q-36 42 -86 65 q-50 24 -107 24 q-75 1 -136 -43 q-60 -45 -64 -140 q17 -144 137 -168 q119 -25 136 -81 q0 -18 -15 -29 q-15 -12 -44 -12 q-39 0 -69 20 q-30 19 -46 53 l-125 -78 q28 -52 80 -89 q52 -37 122 -47 l-39 -70 l49 -28 q25 13 41 9 q15 -4 16 -23 q0 -12 -8 -19 q-7 -8 -18 -8 q-10 0 -19 6 q-9 6 -14 15 l-62 -20 q8 -28 35 -46 q27 -18 60 -19 q38 1 64 26 q25 26 26 65 q-1 37 -26 58 q-25 20 -63 15 l25 39 q78 8 129 54 q52 47 54 126 l0 0 Z" /><glyph glyph-name="" unicode="&#x218;" d="M251 -8 q89 1 150 48 q61 47 64 134 q-17 157 -136 182 q-119 25 -136 80 q1 19 13 29 q13 9 31 9 q23 0 47 -13 q24 -13 48 -39 l100 97 q-36 42 -86 65 q-50 24 -107 24 q-75 1 -136 -43 q-60 -45 -64 -140 q17 -144 137 -168 q119 -25 136 -81 q0 -18 -15 -29 q-15 -12 -44 -12 q-39 0 -69 20 q-30 19 -46 53 l-125 -78 q31 -58 93 -97 q62 -39 145 -41 l0 0 ZM203 -204 l108 155 l-120 0 l-54 -155 l66 0 Z" /><glyph glyph-name="" unicode="T" d="M437 600 l-446 0 l0 -133 l147 0 l0 -467 l152 0 l0 467 l147 0 l0 133 Z" /><glyph glyph-name="" unicode="&#x166;" d="M437 467 l0 133 l-446 0 l0 -133 l147 0 l0 -132 l-71 0 l0 -70 l71 0 l0 -265 l152 0 l0 265 l71 0 l0 70 l-71 0 l0 132 l147 0 Z" /><glyph glyph-name="" unicode="&#x164;" d="M254 650 l106 150 l-90 0 l-56 -69 l-55 69 l-90 0 l105 -150 l80 0 ZM437 600 l-446 0 l0 -133 l147 0 l0 -467 l152 0 l0 467 l147 0 l0 133 Z" /><glyph glyph-name="" unicode="&#x162;" d="M290 0 l0 467 l147 0 l0 133 l-446 0 l0 -133 l147 0 l0 -467 l43 0 l-42 -75 l49 -28 q25 13 41 9 q15 -4 16 -23 q0 -12 -8 -19 q-7 -8 -18 -8 q-10 0 -19 6 q-9 6 -14 15 l-62 -20 q8 -28 35 -46 q27 -18 60 -19 q38 1 64 26 q25 26 26 65 q-1 37 -26 58 q-25 20 -63 15 l28 44 l42 0 Z" /><glyph glyph-name="" unicode="&#x21a;" d="M437 600 l-446 0 l0 -133 l147 0 l0 -467 l152 0 l0 467 l147 0 l0 133 ZM100 -203 l66 0 l108 155 l-120 0 l-54 -155 Z" /><glyph glyph-name="" unicode="U" d="M309 -8 q111 2 183 58 q71 55 74 141 l0 409 l-153 0 l0 -380 q-1 -41 -30 -67 q-29 -27 -74 -28 q-45 1 -74 28 q-29 26 -30 67 l0 380 l-153 0 l0 -409 q3 -86 75 -141 q71 -56 182 -58 l0 0 Z" /><glyph glyph-name="" unicode="Ú" d="M252 650 l97 0 l126 150 l-135 0 l-88 -150 ZM309 -8 q111 2 183 58 q71 55 74 141 l0 409 l-153 0 l0 -380 q-1 -41 -30 -67 q-29 -27 -74 -28 q-45 1 -74 28 q-29 26 -30 67 l0 380 l-153 0 l0 -409 q3 -86 75 -141 q71 -56 182 -58 l0 0 Z" /><glyph glyph-name="" unicode="&#x1d3;" d="M269 650 l80 0 l106 150 l-90 0 l-56 -69 l-55 69 l-90 0 l105 -150 ZM309 -8 q111 2 183 58 q71 55 74 141 l0 409 l-153 0 l0 -380 q-1 -41 -30 -67 q-29 -27 -74 -28 q-45 1 -74 28 q-29 26 -30 67 l0 380 l-153 0 l0 -409 q3 -86 75 -141 q71 -56 182 -58 l0 0 Z" /><glyph glyph-name="" unicode="Û" d="M254 650 l55 70 l56 -70 l90 0 l-106 150 l-80 0 l-105 -150 l90 0 ZM309 -8 q111 2 183 58 q71 55 74 141 l0 409 l-153 0 l0 -380 q-1 -41 -30 -67 q-29 -27 -74 -28 q-45 1 -74 28 q-29 26 -30 67 l0 380 l-153 0 l0 -409 q3 -86 75 -141 q71 -56 182 -58 l0 0 Z" /><glyph glyph-name="" unicode="Ü" d="M222 669 q27 1 46 19 q18 19 19 46 q-1 28 -19 46 q-19 18 -46 19 q-28 -1 -46 -19 q-19 -18 -20 -46 q1 -27 20 -46 q18 -18 46 -19 l0 0 ZM396 669 q28 1 47 19 q18 19 19 46 q-1 28 -19 46 q-19 18 -47 19 q-27 -1 -46 -19 q-18 -18 -19 -46 q1 -27 19 -46 q19 -18 46 -19 l0 0 ZM309 -8 q111 2 183 58 q71 55 74 141 l0 409 l-153 0 l0 -380 q-1 -41 -30 -67 q-29 -27 -74 -28 q-45 1 -74 28 q-29 26 -30 67 l0 380 l-153 0 l0 -409 q3 -86 75 -141 q71 -56 182 -58 l0 0 Z" /><glyph glyph-name="" unicode="Ù" d="M366 650 l-88 150 l-135 0 l126 -150 l97 0 ZM309 -8 q111 2 183 58 q71 55 74 141 l0 409 l-153 0 l0 -380 q-1 -41 -30 -67 q-29 -27 -74 -28 q-45 1 -74 28 q-29 26 -30 67 l0 380 l-153 0 l0 -409 q3 -86 75 -141 q71 -56 182 -58 l0 0 Z" /><glyph glyph-name="" unicode="&#x170;" d="M173 650 l96 0 l125 150 l-134 0 l-87 -150 ZM345 650 l96 0 l125 150 l-134 0 l-87 -150 ZM309 -8 q111 2 183 58 q71 55 74 141 l0 409 l-153 0 l0 -380 q-1 -41 -30 -67 q-29 -27 -74 -28 q-45 1 -74 28 q-29 26 -30 67 l0 380 l-153 0 l0 -409 q3 -86 75 -141 q71 -56 182 -58 l0 0 Z" /><glyph glyph-name="" unicode="&#x16a;" d="M184 658 l250 0 l0 92 l-250 0 l0 -92 ZM309 -8 q111 2 183 58 q71 55 74 141 l0 409 l-153 0 l0 -380 q-1 -41 -30 -67 q-29 -27 -74 -28 q-45 1 -74 28 q-29 26 -30 67 l0 380 l-153 0 l0 -409 q3 -86 75 -141 q71 -56 182 -58 l0 0 Z" /><glyph glyph-name="" unicode="&#x172;" d="M413 600 l0 -380 q-1 -41 -30 -67 q-29 -27 -74 -28 q-45 1 -74 28 q-29 26 -30 67 l0 380 l-153 0 l0 -409 q2 -82 69 -137 q67 -55 171 -62 q-10 -12 -15 -26 q-6 -15 -6 -33 q0 -42 27 -71 q26 -30 79 -35 q35 -3 71 11 q35 13 61 40 l-46 64 q-10 -21 -26 -33 q-17 -13 -36 -13 q-19 0 -30 12 q-11 13 -11 38 q0 20 12 34 q12 14 34 26 q72 23 116 72 q43 48 44 113 l0 409 l-153 0 Z" /><glyph glyph-name="" unicode="&#x16e;" d="M309 630 q43 1 72 30 q28 29 29 73 q-1 42 -29 70 q-29 29 -72 30 q-43 -1 -72 -30 q-29 -28 -30 -70 q1 -44 30 -73 q29 -29 72 -30 l0 0 ZM309 688 q-19 0 -31 12 q-12 12 -12 33 q0 18 12 31 q12 12 31 13 q19 -1 31 -13 q13 -13 13 -31 q0 -21 -13 -33 q-12 -12 -31 -12 l0 0 ZM309 -8 q111 2 183 58 q71 55 74 141 l0 409 l-153 0 l0 -380 q-1 -41 -30 -67 q-29 -27 -74 -28 q-45 1 -74 28 q-29 26 -30 67 l0 380 l-153 0 l0 -409 q3 -86 75 -141 q71 -56 182 -58 l0 0 Z" /><glyph glyph-name="" unicode="V" d="M416 600 l-131 -399 l-131 399 l-172 0 l217 -600 l171 0 l217 600 l-171 0 Z" /><glyph glyph-name="" unicode="W" d="M682 600 l-93 -395 l-106 395 l-139 0 l-106 -395 l-92 395 l-162 0 l156 -600 l179 0 l95 382 l94 -382 l179 0 l157 600 l-162 0 Z" /><glyph glyph-name="" unicode="&#x1e82;" d="M580 800 l-135 0 l-88 -150 l97 0 l126 150 ZM682 600 l-93 -395 l-106 395 l-139 0 l-106 -395 l-92 395 l-162 0 l156 -600 l179 0 l95 382 l94 -382 l179 0 l157 600 l-162 0 Z" /><glyph glyph-name="" unicode="&#x174;" d="M414 720 l56 -70 l90 0 l-106 150 l-80 0 l-105 -150 l90 0 l55 70 ZM682 600 l-93 -395 l-106 395 l-139 0 l-106 -395 l-92 395 l-162 0 l156 -600 l179 0 l95 382 l94 -382 l179 0 l157 600 l-162 0 Z" /><glyph glyph-name="" unicode="&#x1e84;" d="M327 669 q27 1 46 19 q18 19 19 46 q-1 28 -19 46 q-19 18 -46 19 q-28 -1 -46 -19 q-19 -18 -20 -46 q1 -27 20 -46 q18 -18 46 -19 l0 0 ZM501 669 q28 1 47 19 q18 19 19 46 q-1 28 -19 46 q-19 18 -47 19 q-27 -1 -46 -19 q-18 -18 -19 -46 q1 -27 19 -46 q19 -18 46 -19 l0 0 ZM682 600 l-93 -395 l-106 395 l-139 0 l-106 -395 l-92 395 l-162 0 l156 -600 l179 0 l95 382 l94 -382 l179 0 l157 600 l-162 0 Z" /><glyph glyph-name="" unicode="&#x1e80;" d="M471 650 l-88 150 l-135 0 l126 -150 l97 0 ZM682 600 l-93 -395 l-106 395 l-139 0 l-106 -395 l-92 395 l-162 0 l156 -600 l179 0 l95 382 l94 -382 l179 0 l157 600 l-162 0 Z" /><glyph glyph-name="" unicode="X" d="M565 0 l-209 311 l195 289 l-174 0 l-103 -162 l-103 162 l-174 0 l195 -289 l-209 -311 l174 0 l117 185 l117 -185 l174 0 Z" /><glyph glyph-name="" unicode="Y" d="M557 600 l-168 0 l-118 -188 l-118 188 l-170 0 l211 -318 l0 -282 l153 0 l0 283 l210 317 Z" /><glyph glyph-name="" unicode="Ý" d="M437 800 l-135 0 l-88 -150 l97 0 l126 150 ZM557 600 l-168 0 l-118 -188 l-118 188 l-170 0 l211 -318 l0 -282 l153 0 l0 283 l210 317 Z" /><glyph glyph-name="" unicode="&#x176;" d="M271 720 l56 -70 l90 0 l-106 150 l-80 0 l-105 -150 l90 0 l55 70 ZM557 600 l-168 0 l-118 -188 l-118 188 l-170 0 l211 -318 l0 -282 l153 0 l0 283 l210 317 Z" /><glyph glyph-name="" unicode="&#x178;" d="M184 669 q27 1 46 19 q18 19 19 46 q-1 28 -19 46 q-19 18 -46 19 q-28 -1 -46 -19 q-19 -18 -20 -46 q1 -27 20 -46 q18 -18 46 -19 l0 0 ZM358 669 q28 1 47 19 q18 19 19 46 q-1 28 -19 46 q-19 18 -47 19 q-27 -1 -46 -19 q-18 -18 -19 -46 q1 -27 19 -46 q19 -18 46 -19 l0 0 ZM557 600 l-168 0 l-118 -188 l-118 188 l-170 0 l211 -318 l0 -282 l153 0 l0 283 l210 317 Z" /><glyph glyph-name="" unicode="&#x1ef2;" d="M328 650 l-88 150 l-135 0 l126 -150 l97 0 ZM557 600 l-168 0 l-118 -188 l-118 188 l-170 0 l211 -318 l0 -282 l153 0 l0 283 l210 317 Z" /><glyph glyph-name="" unicode="Z" d="M484 600 l-441 0 l0 -133 l210 0 l-234 -467 l461 0 l0 133 l-227 0 l231 467 Z" /><glyph glyph-name="" unicode="&#x179;" d="M432 800 l-135 0 l-88 -150 l97 0 l126 150 ZM484 600 l-441 0 l0 -133 l210 0 l-234 -467 l461 0 l0 133 l-227 0 l231 467 Z" /><glyph glyph-name="" unicode="&#x17d;" d="M306 650 l106 150 l-90 0 l-56 -69 l-55 69 l-90 0 l105 -150 l80 0 ZM484 600 l-441 0 l0 -133 l210 0 l-234 -467 l461 0 l0 133 l-227 0 l231 467 Z" /><glyph glyph-name="" unicode="&#x17b;" d="M266 649 q33 1 56 23 q22 23 23 56 q-1 33 -23 55 q-23 22 -56 23 q-33 -1 -56 -23 q-22 -22 -23 -55 q1 -33 23 -56 q23 -22 56 -23 l0 0 ZM484 600 l-441 0 l0 -133 l210 0 l-234 -467 l461 0 l0 133 l-227 0 l231 467 Z" /><glyph glyph-name="" unicode="a" d="M507 120 q-13 -1 -23 6 q-10 6 -11 29 l0 245 l-148 0 l0 -29 q-20 17 -46 27 q-26 10 -58 10 q-84 -2 -138 -60 q-54 -58 -56 -148 q2 -90 56 -148 q54 -58 138 -60 q44 0 77 18 q33 18 55 51 q22 -32 57 -50 q34 -19 77 -19 q10 0 19 3 q8 2 15 5 l0 120 l-14 0 ZM255 121 q-35 1 -57 23 q-22 22 -23 56 q1 34 23 56 q22 22 57 23 q33 -1 56 -23 q22 -22 23 -56 q0 -11 -3 -20 l-4 -12 q-9 -21 -28 -34 q-20 -13 -44 -13 l0 0 Z" /><glyph glyph-name="" unicode="á" d="M416 600 l-135 0 l-88 -150 l97 0 l126 150 ZM507 120 q-13 -1 -23 6 q-10 6 -11 29 l0 245 l-148 0 l0 -29 q-20 17 -46 27 q-26 10 -58 10 q-84 -2 -138 -60 q-54 -58 -56 -148 q2 -90 56 -148 q54 -58 138 -60 q44 0 77 18 q33 18 55 51 q22 -32 57 -50 q34 -19 77 -19 q10 0 19 3 q8 2 15 5 l0 120 l-14 0 ZM255 121 q-35 1 -57 23 q-22 22 -23 56 q1 34 23 56 q22 22 57 23 q33 -1 56 -23 q22 -22 23 -56 q0 -11 -3 -20 l-4 -12 q-9 -21 -28 -34 q-20 -13 -44 -13 l0 0 Z" /><glyph glyph-name="" unicode="&#x103;" d="M250 441 q69 0 109 36 q41 36 42 111 l-83 0 q0 -25 -17 -44 q-18 -20 -51 -21 q-32 1 -50 21 q-18 19 -18 44 l-82 0 q1 -75 42 -111 q40 -36 108 -36 l0 0 ZM507 120 q-13 -1 -23 6 q-10 6 -11 29 l0 245 l-148 0 l0 -29 q-20 17 -46 27 q-26 10 -58 10 q-84 -2 -138 -60 q-54 -58 -56 -148 q2 -90 56 -148 q54 -58 138 -60 q44 0 77 18 q33 18 55 51 q22 -32 57 -50 q34 -19 77 -19 q10 0 19 3 q8 2 15 5 l0 120 l-14 0 ZM255 121 q-35 1 -57 23 q-22 22 -23 56 q1 34 23 56 q22 22 57 23 q33 -1 56 -23 q22 -22 23 -56 q0 -11 -3 -20 l-4 -12 q-9 -21 -28 -34 q-20 -13 -44 -13 l0 0 Z" /><glyph glyph-name="" unicode="&#x1ce;" d="M290 450 l106 150 l-90 0 l-56 -69 l-55 69 l-90 0 l105 -150 l80 0 ZM507 120 q-13 -1 -23 6 q-10 6 -11 29 l0 245 l-148 0 l0 -29 q-20 17 -46 27 q-26 10 -58 10 q-84 -2 -138 -60 q-54 -58 -56 -148 q2 -90 56 -148 q54 -58 138 -60 q44 0 77 18 q33 18 55 51 q22 -32 57 -50 q34 -19 77 -19 q10 0 19 3 q8 2 15 5 l0 120 l-14 0 ZM255 121 q-35 1 -57 23 q-22 22 -23 56 q1 34 23 56 q22 22 57 23 q33 -1 56 -23 q22 -22 23 -56 q0 -11 -3 -20 l-4 -12 q-9 -21 -28 -34 q-20 -13 -44 -13 l0 0 Z" /><glyph glyph-name="" unicode="â" d="M250 520 l56 -70 l90 0 l-106 150 l-80 0 l-105 -150 l90 0 l55 70 ZM507 120 q-13 -1 -23 6 q-10 6 -11 29 l0 245 l-148 0 l0 -29 q-20 17 -46 27 q-26 10 -58 10 q-84 -2 -138 -60 q-54 -58 -56 -148 q2 -90 56 -148 q54 -58 138 -60 q44 0 77 18 q33 18 55 51 q22 -32 57 -50 q34 -19 77 -19 q10 0 19 3 q8 2 15 5 l0 120 l-14 0 ZM255 121 q-35 1 -57 23 q-22 22 -23 56 q1 34 23 56 q22 22 57 23 q33 -1 56 -23 q22 -22 23 -56 q0 -11 -3 -20 l-4 -12 q-9 -21 -28 -34 q-20 -13 -44 -13 l0 0 Z" /><glyph glyph-name="" unicode="ä" d="M163 469 q27 1 46 19 q18 19 19 46 q-1 28 -19 46 q-19 18 -46 19 q-28 -1 -46 -19 q-19 -18 -20 -46 q1 -27 20 -46 q18 -18 46 -19 l0 0 ZM337 469 q28 1 47 19 q18 19 19 46 q-1 28 -19 46 q-19 18 -47 19 q-27 -1 -46 -19 q-18 -18 -19 -46 q1 -27 19 -46 q19 -18 46 -19 l0 0 ZM507 120 q-13 -1 -23 6 q-10 6 -11 29 l0 245 l-148 0 l0 -29 q-20 17 -46 27 q-26 10 -58 10 q-84 -2 -138 -60 q-54 -58 -56 -148 q2 -90 56 -148 q54 -58 138 -60 q44 0 77 18 q33 18 55 51 q22 -32 57 -50 q34 -19 77 -19 q10 0 19 3 q8 2 15 5 l0 120 l-14 0 ZM255 121 q-35 1 -57 23 q-22 22 -23 56 q1 34 23 56 q22 22 57 23 q33 -1 56 -23 q22 -22 23 -56 q0 -11 -3 -20 l-4 -12 q-9 -21 -28 -34 q-20 -13 -44 -13 l0 0 Z" /><glyph glyph-name="" unicode="à" d="M307 450 l-88 150 l-135 0 l126 -150 l97 0 ZM507 120 q-13 -1 -23 6 q-10 6 -11 29 l0 245 l-148 0 l0 -29 q-20 17 -46 27 q-26 10 -58 10 q-84 -2 -138 -60 q-54 -58 -56 -148 q2 -90 56 -148 q54 -58 138 -60 q44 0 77 18 q33 18 55 51 q22 -32 57 -50 q34 -19 77 -19 q10 0 19 3 q8 2 15 5 l0 120 l-14 0 ZM255 121 q-35 1 -57 23 q-22 22 -23 56 q1 34 23 56 q22 22 57 23 q33 -1 56 -23 q22 -22 23 -56 q0 -11 -3 -20 l-4 -12 q-9 -21 -28 -34 q-20 -13 -44 -13 l0 0 Z" /><glyph glyph-name="" unicode="&#x101;" d="M375 550 l-250 0 l0 -92 l250 0 l0 92 ZM507 120 q-13 -1 -23 6 q-10 6 -11 29 l0 245 l-148 0 l0 -29 q-20 17 -46 27 q-26 10 -58 10 q-84 -2 -138 -60 q-54 -58 -56 -148 q2 -90 56 -148 q54 -58 138 -60 q44 0 77 18 q33 18 55 51 q22 -32 57 -50 q34 -19 77 -19 q10 0 19 3 q8 2 15 5 l0 120 l-14 0 ZM255 121 q-35 1 -57 23 q-22 22 -23 56 q1 34 23 56 q22 22 57 23 q33 -1 56 -23 q22 -22 23 -56 q0 -11 -3 -20 l-4 -12 q-9 -21 -28 -34 q-20 -13 -44 -13 l0 0 Z" /><glyph glyph-name="" unicode="&#x105;" d="M521 -91 q-10 -21 -26 -33 q-17 -13 -36 -13 q-19 0 -30 12 q-11 13 -11 38 q1 30 28 49 q27 18 75 38 l0 120 l-14 0 q-13 -1 -23 6 q-10 6 -11 29 l0 245 l-148 0 l0 -29 q-20 17 -46 27 q-26 10 -58 10 q-84 -2 -138 -60 q-54 -58 -56 -148 q2 -90 56 -148 q54 -58 138 -60 q44 0 77 18 q33 18 55 51 q24 -36 65 -54 q-38 -15 -63 -41 q-25 -26 -26 -66 q0 -42 27 -71 q26 -30 79 -35 q35 -3 71 11 q35 13 61 40 l-46 64 ZM255 121 q-35 1 -57 23 q-22 22 -23 56 q1 34 23 56 q22 22 57 23 q33 -1 56 -23 q22 -22 23 -56 q0 -11 -3 -20 l-4 -12 q-9 -21 -28 -34 q-20 -13 -44 -13 l0 0 Z" /><glyph glyph-name="" unicode="å" d="M250 430 q43 1 72 30 q28 29 29 73 q-1 42 -29 70 q-29 29 -72 30 q-43 -1 -72 -30 q-29 -28 -30 -70 q1 -44 30 -73 q29 -29 72 -30 l0 0 ZM250 577 q19 -1 31 -13 q13 -13 13 -31 q0 -21 -13 -33 q-12 -12 -31 -12 q-19 0 -31 12 q-12 12 -12 33 q0 18 12 31 q12 12 31 13 l0 0 ZM507 120 q-13 -1 -23 6 q-10 6 -11 29 l0 245 l-148 0 l0 -29 q-20 17 -46 27 q-26 10 -58 10 q-84 -2 -138 -60 q-54 -58 -56 -148 q2 -90 56 -148 q54 -58 138 -60 q44 0 77 18 q33 18 55 51 q22 -32 57 -50 q34 -19 77 -19 q10 0 19 3 q8 2 15 5 l0 120 l-14 0 ZM255 121 q-35 1 -57 23 q-22 22 -23 56 q1 34 23 56 q22 22 57 23 q33 -1 56 -23 q22 -22 23 -56 q0 -11 -3 -20 l-4 -12 q-9 -21 -28 -34 q-20 -13 -44 -13 l0 0 Z" /><glyph glyph-name="" unicode="ã" d="M202 501 q4 0 7 -2 q2 -3 6 -8 q19 -26 39 -37 q21 -11 45 -11 q50 1 75 38 q25 37 25 95 l-84 0 q0 -23 -3 -37 q-4 -14 -15 -14 q-4 0 -7 2 q-3 3 -6 7 q-13 21 -34 35 q-22 13 -51 14 q-47 -1 -73 -37 q-26 -37 -26 -97 l84 0 q0 23 4 37 q4 15 14 15 l0 0 ZM507 120 q-13 -1 -23 6 q-10 6 -11 29 l0 245 l-148 0 l0 -29 q-20 17 -46 27 q-26 10 -58 10 q-84 -2 -138 -60 q-54 -58 -56 -148 q2 -90 56 -148 q54 -58 138 -60 q44 0 77 18 q33 18 55 51 q22 -32 57 -50 q34 -19 77 -19 q10 0 19 3 q8 2 15 5 l0 120 l-14 0 ZM255 121 q-35 1 -57 23 q-22 22 -23 56 q1 34 23 56 q22 22 57 23 q33 -1 56 -23 q22 -22 23 -56 q0 -11 -3 -20 l-4 -12 q-9 -21 -28 -34 q-20 -13 -44 -13 l0 0 Z" /><glyph glyph-name="" unicode="æ" d="M506 409 q-41 0 -77 -10 q-35 -9 -63 -28 q-26 18 -60 28 q-35 9 -77 9 q-73 0 -120 -27 q-48 -27 -63 -78 l125 -34 q0 17 16 25 q15 9 41 7 q24 -1 38 -11 q14 -11 14 -34 l0 -21 l-105 0 q-69 0 -108 -32 q-39 -32 -40 -91 q0 -56 37 -88 q38 -31 112 -32 q99 0 163 61 q30 -29 73 -45 q43 -16 98 -16 q88 1 141 40 q53 39 67 105 l-141 0 q-5 -20 -22 -30 q-17 -11 -46 -11 q-39 0 -57 21 q-18 20 -21 59 l292 0 l0 25 q0 97 -58 152 q-58 55 -159 56 l0 0 ZM509 300 q27 0 43 -11 q15 -11 22 -31 l-135 0 q7 20 24 31 q17 11 46 11 l0 0 ZM218 92 q-16 0 -27 7 q-11 6 -11 21 q1 15 11 25 q11 9 26 9 l69 0 q1 -9 4 -16 q-9 -22 -28 -34 q-20 -12 -44 -12 l0 0 Z" /><glyph glyph-name="" unicode="b" d="M308 408 q-32 0 -58 -10 q-27 -10 -47 -27 l0 297 l-148 1 l0 -669 l148 -1 l0 30 q20 -17 47 -27 q26 -10 58 -10 q83 2 137 60 q54 58 56 148 q-2 90 -56 148 q-54 58 -137 60 l0 0 ZM274 121 q-34 1 -56 23 q-22 22 -23 56 q1 34 23 56 q22 22 56 23 q34 -1 56 -23 q22 -22 23 -56 q-1 -34 -23 -56 q-22 -22 -56 -23 l0 0 Z" /><glyph glyph-name="" unicode="c" d="M255 -8 q97 1 156 50 q58 48 69 128 l-151 0 q-9 -22 -28 -35 q-19 -13 -46 -14 q-36 1 -58 23 q-21 22 -22 56 q1 34 22 56 q22 22 58 23 q27 -1 46 -14 q19 -13 28 -35 l151 0 q-11 80 -69 128 q-59 49 -156 50 q-107 -2 -167 -59 q-60 -57 -61 -149 q1 -92 61 -149 q60 -57 167 -59 l0 0 Z" /><glyph glyph-name="" unicode="&#x107;" d="M168 450 l97 0 l126 150 l-135 0 l-88 -150 ZM255 -8 q97 1 156 50 q58 48 69 128 l-151 0 q-9 -22 -28 -35 q-19 -13 -46 -14 q-36 1 -58 23 q-21 22 -22 56 q1 34 22 56 q22 22 58 23 q27 -1 46 -14 q19 -13 28 -35 l151 0 q-11 80 -69 128 q-59 49 -156 50 q-107 -2 -167 -59 q-60 -57 -61 -149 q1 -92 61 -149 q60 -57 167 -59 l0 0 Z" /><glyph glyph-name="" unicode="&#x10d;" d="M185 450 l80 0 l106 150 l-90 0 l-56 -69 l-55 69 l-90 0 l105 -150 ZM255 -8 q97 1 156 50 q58 48 69 128 l-151 0 q-9 -22 -28 -35 q-19 -13 -46 -14 q-36 1 -58 23 q-21 22 -22 56 q1 34 22 56 q22 22 58 23 q27 -1 46 -14 q19 -13 28 -35 l151 0 q-11 80 -69 128 q-59 49 -156 50 q-107 -2 -167 -59 q-60 -57 -61 -149 q1 -92 61 -149 q60 -57 167 -59 l0 0 Z" /><glyph glyph-name="" unicode="ç" d="M255 121 q-36 1 -58 23 q-21 22 -22 56 q1 34 22 56 q22 22 58 23 q27 -1 46 -14 q19 -13 28 -35 l151 0 q-11 80 -69 128 q-59 49 -156 50 q-107 -2 -167 -59 q-60 -57 -61 -149 q1 -80 46 -134 q46 -54 128 -69 l-41 -73 l49 -28 q25 13 41 9 q15 -4 16 -23 q0 -12 -8 -19 q-7 -8 -18 -8 q-10 0 -19 6 q-9 6 -14 15 l-62 -20 q8 -28 35 -46 q27 -18 60 -19 q38 1 64 26 q25 26 26 65 q-1 37 -26 58 q-25 20 -63 15 l24 37 q92 4 148 52 q56 48 67 126 l-151 0 q-9 -22 -28 -35 q-19 -13 -46 -14 l0 0 Z" /><glyph glyph-name="" unicode="&#x10b;" d="M225 449 q33 1 56 23 q22 23 23 56 q-1 33 -23 55 q-23 22 -56 23 q-33 -1 -56 -23 q-22 -22 -23 -55 q1 -33 23 -56 q23 -22 56 -23 l0 0 ZM255 -8 q97 1 156 50 q58 48 69 128 l-151 0 q-9 -22 -28 -35 q-19 -13 -46 -14 q-36 1 -58 23 q-21 22 -22 56 q1 34 22 56 q22 22 58 23 q27 -1 46 -14 q19 -13 28 -35 l151 0 q-11 80 -69 128 q-59 49 -156 50 q-107 -2 -167 -59 q-60 -57 -61 -149 q1 -92 61 -149 q60 -57 167 -59 l0 0 Z" /><glyph glyph-name="" unicode="d" d="M325 668 l0 -297 q-20 17 -46 27 q-26 10 -58 10 q-84 -2 -138 -60 q-54 -58 -56 -148 q2 -90 56 -148 q54 -58 138 -60 q32 0 58 10 q26 10 46 27 l0 -30 l148 1 l0 669 l-148 -1 ZM255 121 q-35 1 -57 23 q-22 22 -23 56 q1 34 23 56 q22 22 57 23 q33 -1 56 -23 q22 -22 23 -56 q-1 -34 -23 -56 q-23 -22 -56 -23 l0 0 Z" /><glyph glyph-name="" unicode="ð" d="M314 578 l34 43 l-65 49 l-41 -53 q-31 13 -64 19 q-34 6 -69 6 l-31 -116 q20 2 41 -1 q21 -2 43 -8 l-26 -34 l66 -49 l34 43 q32 -25 56 -72 q-18 3 -38 3 q-98 -2 -161 -60 q-64 -58 -66 -148 q2 -90 66 -148 q63 -58 161 -60 q98 2 162 60 q63 58 65 148 q-1 130 -45 227 q-45 96 -122 151 l0 0 ZM254 121 q-34 1 -56 23 q-22 22 -23 56 q1 34 23 56 q22 22 56 23 q34 -1 56 -23 q22 -22 23 -56 q-1 -34 -23 -56 q-22 -22 -56 -23 l0 0 Z" /><glyph glyph-name="" unicode="&#x10f;" d="M325 371 q-20 17 -46 27 q-26 10 -58 10 q-84 -2 -138 -60 q-54 -58 -56 -148 q2 -90 56 -148 q54 -58 138 -60 q32 0 58 10 q26 10 46 27 l0 -30 l148 1 l0 669 l-148 -1 l0 -297 ZM592 669 l-69 -242 l72 0 l113 242 l-116 0 ZM255 121 q-35 1 -57 23 q-22 22 -23 56 q1 34 23 56 q22 22 57 23 q33 -1 56 -23 q22 -22 23 -56 q-1 -34 -23 -56 q-23 -22 -56 -23 l0 0 Z" /><glyph glyph-name="" unicode="&#x111;" d="M523 548 l-50 0 l0 121 l-148 -1 l0 -120 l-96 0 l0 -70 l96 0 l0 -107 q-20 17 -46 27 q-26 10 -58 10 q-84 -2 -138 -60 q-54 -58 -56 -148 q2 -90 56 -148 q54 -58 138 -60 q32 0 58 10 q26 10 46 27 l0 -30 l148 1 l0 478 l50 0 l0 70 ZM255 121 q-35 1 -57 23 q-22 22 -23 56 q1 34 23 56 q22 22 57 23 q33 -1 56 -23 q22 -22 23 -56 q-1 -34 -23 -56 q-23 -22 -56 -23 l0 0 Z" /><glyph glyph-name="" unicode="e" d="M251 409 q-102 -1 -162 -56 q-61 -55 -62 -153 q1 -97 62 -152 q61 -55 166 -56 q88 1 141 40 q53 39 67 105 l-141 0 q-5 -20 -22 -30 q-17 -11 -46 -11 q-39 0 -57 21 q-18 20 -21 59 l292 0 l0 25 q0 97 -58 152 q-58 55 -159 56 l0 0 ZM254 300 q27 0 43 -11 q15 -11 22 -31 l-135 0 q7 20 24 31 q17 11 46 11 l0 0 Z" /><glyph glyph-name="" unicode="é" d="M421 600 l-135 0 l-88 -150 l97 0 l126 150 ZM251 409 q-102 -1 -162 -56 q-61 -55 -62 -153 q1 -97 62 -152 q61 -55 166 -56 q88 1 141 40 q53 39 67 105 l-141 0 q-5 -20 -22 -30 q-17 -11 -46 -11 q-39 0 -57 21 q-18 20 -21 59 l292 0 l0 25 q0 97 -58 152 q-58 55 -159 56 l0 0 ZM254 300 q27 0 43 -11 q15 -11 22 -31 l-135 0 q7 20 24 31 q17 11 46 11 l0 0 Z" /><glyph glyph-name="" unicode="&#x11b;" d="M295 450 l106 150 l-90 0 l-56 -69 l-55 69 l-90 0 l105 -150 l80 0 ZM251 409 q-102 -1 -162 -56 q-61 -55 -62 -153 q1 -97 62 -152 q61 -55 166 -56 q88 1 141 40 q53 39 67 105 l-141 0 q-5 -20 -22 -30 q-17 -11 -46 -11 q-39 0 -57 21 q-18 20 -21 59 l292 0 l0 25 q0 97 -58 152 q-58 55 -159 56 l0 0 ZM254 300 q27 0 43 -11 q15 -11 22 -31 l-135 0 q7 20 24 31 q17 11 46 11 l0 0 Z" /><glyph glyph-name="" unicode="ê" d="M255 520 l56 -70 l90 0 l-106 150 l-80 0 l-105 -150 l90 0 l55 70 ZM251 409 q-102 -1 -162 -56 q-61 -55 -62 -153 q1 -97 62 -152 q61 -55 166 -56 q88 1 141 40 q53 39 67 105 l-141 0 q-5 -20 -22 -30 q-17 -11 -46 -11 q-39 0 -57 21 q-18 20 -21 59 l292 0 l0 25 q0 97 -58 152 q-58 55 -159 56 l0 0 ZM254 300 q27 0 43 -11 q15 -11 22 -31 l-135 0 q7 20 24 31 q17 11 46 11 l0 0 Z" /><glyph glyph-name="" unicode="ë" d="M168 469 q27 1 46 19 q18 19 19 46 q-1 28 -19 46 q-19 18 -46 19 q-28 -1 -46 -19 q-19 -18 -20 -46 q1 -27 20 -46 q18 -18 46 -19 l0 0 ZM342 469 q28 1 47 19 q18 19 19 46 q-1 28 -19 46 q-19 18 -47 19 q-27 -1 -46 -19 q-18 -18 -19 -46 q1 -27 19 -46 q19 -18 46 -19 l0 0 ZM251 409 q-102 -1 -162 -56 q-61 -55 -62 -153 q1 -97 62 -152 q61 -55 166 -56 q88 1 141 40 q53 39 67 105 l-141 0 q-5 -20 -22 -30 q-17 -11 -46 -11 q-39 0 -57 21 q-18 20 -21 59 l292 0 l0 25 q0 97 -58 152 q-58 55 -159 56 l0 0 ZM254 300 q27 0 43 -11 q15 -11 22 -31 l-135 0 q7 20 24 31 q17 11 46 11 l0 0 Z" /><glyph glyph-name="" unicode="&#x117;" d="M255 449 q33 1 56 23 q22 23 23 56 q-1 33 -23 55 q-23 22 -56 23 q-33 -1 -56 -23 q-22 -22 -23 -55 q1 -33 23 -56 q23 -22 56 -23 l0 0 ZM251 409 q-102 -1 -162 -56 q-61 -55 -62 -153 q1 -97 62 -152 q61 -55 166 -56 q88 1 141 40 q53 39 67 105 l-141 0 q-5 -20 -22 -30 q-17 -11 -46 -11 q-39 0 -57 21 q-18 20 -21 59 l292 0 l0 25 q0 97 -58 152 q-58 55 -159 56 l0 0 ZM254 300 q27 0 43 -11 q15 -11 22 -31 l-135 0 q7 20 24 31 q17 11 46 11 l0 0 Z" /><glyph glyph-name="" unicode="è" d="M312 450 l-88 150 l-135 0 l126 -150 l97 0 ZM251 409 q-102 -1 -162 -56 q-61 -55 -62 -153 q1 -97 62 -152 q61 -55 166 -56 q88 1 141 40 q53 39 67 105 l-141 0 q-5 -20 -22 -30 q-17 -11 -46 -11 q-39 0 -57 21 q-18 20 -21 59 l292 0 l0 25 q0 97 -58 152 q-58 55 -159 56 l0 0 ZM254 300 q27 0 43 -11 q15 -11 22 -31 l-135 0 q7 20 24 31 q17 11 46 11 l0 0 Z" /><glyph glyph-name="" unicode="&#x113;" d="M380 550 l-250 0 l0 -92 l250 0 l0 92 ZM251 409 q-102 -1 -162 -56 q-61 -55 -62 -153 q1 -97 62 -152 q61 -55 166 -56 q88 1 141 40 q53 39 67 105 l-141 0 q-5 -20 -22 -30 q-17 -11 -46 -11 q-39 0 -57 21 q-18 20 -21 59 l292 0 l0 25 q0 97 -58 152 q-58 55 -159 56 l0 0 ZM254 300 q27 0 43 -11 q15 -11 22 -31 l-135 0 q7 20 24 31 q17 11 46 11 l0 0 Z" /><glyph glyph-name="" unicode="&#x119;" d="M251 409 q-102 -1 -162 -56 q-61 -55 -62 -153 q1 -87 51 -140 q49 -54 137 -66 q-18 -14 -29 -34 q-11 -19 -11 -44 q0 -42 27 -71 q26 -30 79 -35 q35 -3 71 11 q35 13 61 40 l-46 64 q-10 -21 -26 -33 q-17 -13 -36 -13 q-19 0 -30 12 q-11 13 -11 38 q0 26 21 43 q20 17 57 33 q50 16 80 50 q31 34 41 82 l-141 0 q-5 -20 -22 -30 q-17 -11 -46 -11 q-39 0 -57 21 q-18 20 -21 59 l292 0 l0 25 q0 97 -58 152 q-58 55 -159 56 l0 0 ZM254 300 q27 0 43 -11 q15 -11 22 -31 l-135 0 q7 20 24 31 q17 11 46 11 l0 0 Z" /><glyph glyph-name="" unicode="f" d="M312 400 l-91 0 l0 89 q0 24 11 38 q10 14 29 14 l49 0 l0 115 q-8 5 -26 9 q-19 4 -42 4 q-71 -2 -119 -47 q-49 -45 -51 -116 l0 -106 l-67 0 l0 -110 l67 0 l0 -290 l149 0 l0 290 l91 0 l0 110 Z" /><glyph glyph-name="" unicode="g" d="M490 400 l-149 0 l0 -38 q-24 22 -54 34 q-31 12 -66 12 q-84 -2 -138 -60 q-54 -58 -56 -148 q2 -90 56 -148 q54 -58 138 -60 q36 0 67 13 q31 12 55 34 l0 -41 q0 -55 -24 -83 q-24 -29 -69 -29 q-30 0 -51 13 q-21 13 -32 39 l-137 -53 q26 -62 82 -93 q55 -32 138 -32 q117 0 179 63 q62 63 62 183 l-1 394 ZM265 121 q-35 1 -57 23 q-22 22 -23 56 q1 34 23 56 q22 22 57 23 q34 -1 56 -23 q22 -22 23 -56 q-1 -34 -23 -56 q-22 -22 -56 -23 l0 0 Z" /><glyph glyph-name="" unicode="&#x11f;" d="M253 441 q69 0 109 36 q41 36 42 111 l-83 0 q0 -25 -17 -44 q-18 -20 -51 -21 q-32 1 -50 21 q-18 19 -18 44 l-82 0 q1 -75 42 -111 q40 -36 108 -36 l0 0 ZM490 400 l-149 0 l0 -38 q-24 22 -54 34 q-31 12 -66 12 q-84 -2 -138 -60 q-54 -58 -56 -148 q2 -90 56 -148 q54 -58 138 -60 q36 0 67 13 q31 12 55 34 l0 -41 q0 -55 -24 -83 q-24 -29 -69 -29 q-30 0 -51 13 q-21 13 -32 39 l-137 -53 q26 -62 82 -93 q55 -32 138 -32 q117 0 179 63 q62 63 62 183 l-1 394 ZM265 121 q-35 1 -57 23 q-22 22 -23 56 q1 34 23 56 q22 22 57 23 q34 -1 56 -23 q22 -22 23 -56 q-1 -34 -23 -56 q-22 -22 -56 -23 l0 0 Z" /><glyph glyph-name="" unicode="&#x123;" d="M388 611 l-66 0 l-108 -155 l120 0 l54 155 ZM490 400 l-149 0 l0 -38 q-24 22 -54 34 q-31 12 -66 12 q-84 -2 -138 -60 q-54 -58 -56 -148 q2 -90 56 -148 q54 -58 138 -60 q36 0 67 13 q31 12 55 34 l0 -41 q0 -55 -24 -83 q-24 -29 -69 -29 q-30 0 -51 13 q-21 13 -32 39 l-137 -53 q26 -62 82 -93 q55 -32 138 -32 q117 0 179 63 q62 63 62 183 l-1 394 ZM265 121 q-35 1 -57 23 q-22 22 -23 56 q1 34 23 56 q22 22 57 23 q34 -1 56 -23 q22 -22 23 -56 q-1 -34 -23 -56 q-22 -22 -56 -23 l0 0 Z" /><glyph glyph-name="" unicode="&#x121;" d="M253 449 q33 1 56 23 q22 23 23 56 q-1 33 -23 55 q-23 22 -56 23 q-33 -1 -56 -23 q-22 -22 -23 -55 q1 -33 23 -56 q23 -22 56 -23 l0 0 ZM490 400 l-149 0 l0 -38 q-24 22 -54 34 q-31 12 -66 12 q-84 -2 -138 -60 q-54 -58 -56 -148 q2 -90 56 -148 q54 -58 138 -60 q36 0 67 13 q31 12 55 34 l0 -41 q0 -55 -24 -83 q-24 -29 -69 -29 q-30 0 -51 13 q-21 13 -32 39 l-137 -53 q26 -62 82 -93 q55 -32 138 -32 q117 0 179 63 q62 63 62 183 l-1 394 ZM265 121 q-35 1 -57 23 q-22 22 -23 56 q1 34 23 56 q22 22 57 23 q34 -1 56 -23 q22 -22 23 -56 q-1 -34 -23 -56 q-22 -22 -56 -23 l0 0 Z" /><glyph glyph-name="" unicode="h" d="M324 408 q-38 0 -68 -18 q-31 -17 -53 -48 l0 327 l-148 0 l0 -669 l148 0 l0 216 q1 24 18 43 q17 19 44 20 q24 -1 39 -16 q14 -16 14 -38 l0 -225 l148 0 l0 253 q-1 68 -41 111 q-40 43 -101 44 l0 0 Z" /><glyph glyph-name="" unicode="&#x127;" d="M324 408 q-38 0 -68 -18 q-31 -17 -53 -48 l0 140 l96 0 l0 70 l-96 0 l0 117 l-148 0 l0 -117 l-50 0 l0 -70 l50 0 l0 -482 l148 0 l0 216 q1 24 18 43 q17 19 44 20 q24 -1 39 -16 q14 -16 14 -38 l0 -225 l148 0 l0 253 q-1 68 -41 111 q-40 43 -101 44 l0 0 Z" /><glyph glyph-name="" unicode="i" d="M129 465 q33 1 56 23 q22 23 23 56 q-1 33 -23 55 q-23 22 -56 23 q-33 -1 -56 -23 q-22 -22 -23 -55 q1 -33 23 -56 q23 -22 56 -23 l0 0 ZM55 0 l148 0 l0 400 l-148 0 l0 -400 Z" /><glyph glyph-name="" unicode="&#x131;" d="M60 0 l148 0 l0 400 l-148 0 l0 -400 Z" /><glyph glyph-name="" unicode="í" d="M77 450 l97 0 l126 150 l-135 0 l-88 -150 ZM60 0 l148 0 l0 400 l-148 0 l0 -400 Z" /><glyph glyph-name="" unicode="&#x1d0;" d="M94 450 l80 0 l106 150 l-90 0 l-56 -69 l-55 69 l-90 0 l105 -150 ZM60 0 l148 0 l0 400 l-148 0 l0 -400 Z" /><glyph glyph-name="" unicode="î" d="M79 450 l55 70 l56 -70 l90 0 l-106 150 l-80 0 l-105 -150 l90 0 ZM60 0 l148 0 l0 400 l-148 0 l0 -400 Z" /><glyph glyph-name="" unicode="ï" d="M47 469 q27 1 46 19 q18 19 19 46 q-1 28 -19 46 q-19 18 -46 19 q-28 -1 -46 -19 q-19 -18 -20 -46 q1 -27 20 -46 q18 -18 46 -19 l0 0 ZM221 469 q28 1 47 19 q18 19 19 46 q-1 28 -19 46 q-19 18 -47 19 q-27 -1 -46 -19 q-18 -18 -19 -46 q1 -27 19 -46 q19 -18 46 -19 l0 0 ZM60 0 l148 0 l0 400 l-148 0 l0 -400 Z" /><glyph glyph-name="" unicode="ì" d="M191 450 l-88 150 l-135 0 l126 -150 l97 0 ZM60 0 l148 0 l0 400 l-148 0 l0 -400 Z" /><glyph glyph-name="" unicode="&#x12b;" d="M9 458 l250 0 l0 92 l-250 0 l0 -92 ZM60 0 l148 0 l0 400 l-148 0 l0 -400 Z" /><glyph glyph-name="" unicode="&#x12f;" d="M134 449 q33 1 56 23 q22 23 23 56 q-1 33 -23 55 q-23 22 -56 23 q-33 -1 -56 -23 q-22 -22 -23 -55 q1 -33 23 -56 q23 -22 56 -23 l0 0 ZM194 -91 q-10 -21 -26 -33 q-17 -13 -36 -13 q-19 0 -30 12 q-11 13 -11 38 q1 30 28 49 q27 18 75 38 l14 0 l0 400 l-148 0 l0 -400 l16 0 q-32 -16 -53 -40 q-20 -24 -21 -60 q0 -42 27 -71 q26 -30 79 -35 q35 -3 71 11 q35 13 61 40 l-46 64 Z" /><glyph glyph-name="" unicode="j" d="M130 465 q32 1 55 23 q22 23 23 56 q-1 33 -23 55 q-23 22 -55 23 q-34 -1 -56 -23 q-23 -22 -24 -55 q1 -33 24 -56 q22 -22 56 -23 l0 0 ZM33 -240 q71 2 120 47 q48 45 50 115 l0 478 l-148 0 l0 -460 q0 -24 -11 -38 q-11 -14 -30 -14 l-49 0 l0 -115 q9 -5 27 -9 q19 -4 41 -4 l0 0 Z" /><glyph glyph-name="" unicode="&#x237;" d="M33 -240 q71 2 120 47 q48 45 50 115 l0 478 l-148 0 l0 -460 q0 -24 -11 -38 q-10 -14 -30 -14 l-49 0 l0 -115 q9 -5 27 -9 q19 -4 41 -4 l0 0 Z" /><glyph glyph-name="" unicode="k" d="M522 0 l-185 218 l172 182 l-175 0 l-125 -132 l0 401 l-148 0 l0 -669 l148 0 l0 167 l123 -167 l190 0 Z" /><glyph glyph-name="" unicode="&#x137;" d="M337 218 l172 182 l-175 0 l-125 -132 l0 401 l-148 0 l0 -669 l148 0 l0 167 l123 -167 l190 0 l-185 218 ZM157 -203 l66 0 l108 155 l-120 0 l-54 -155 Z" /><glyph glyph-name="" unicode="l" d="M55 0 l148 0 l0 669 l-148 0 l0 -669 Z" /><glyph glyph-name="" unicode="&#x13a;" d="M72 719 l97 0 l126 150 l-135 0 l-88 -150 ZM55 0 l148 0 l0 669 l-148 0 l0 -669 Z" /><glyph glyph-name="" unicode="&#x13e;" d="M55 0 l148 0 l0 669 l-148 0 l0 -669 ZM325 427 l113 242 l-116 0 l-69 -242 l72 0 Z" /><glyph glyph-name="" unicode="&#x13c;" d="M55 0 l148 0 l0 669 l-148 0 l0 -669 ZM81 -203 l108 155 l-120 0 l-54 -155 l66 0 Z" /><glyph glyph-name="" unicode="&#x140;" d="M55 0 l148 0 l0 669 l-148 0 l0 -669 ZM275 242 q20 0 35 14 q14 13 15 34 q-1 19 -15 33 q-15 14 -35 15 q-19 -1 -33 -15 q-14 -14 -15 -33 q1 -21 15 -34 q14 -14 33 -14 l0 0 Z" /><glyph glyph-name="" unicode="&#x142;" d="M305 453 l-57 49 l-45 -47 l0 214 l-148 0 l0 -369 l-101 -106 l56 -49 l45 47 l0 -192 l148 0 l0 347 l102 106 Z" /><glyph glyph-name="" unicode="m" d="M563 408 q-45 0 -78 -19 q-33 -20 -52 -55 q-15 34 -44 54 q-30 20 -71 20 q-37 0 -66 -17 q-29 -16 -49 -44 l0 53 l-148 0 l0 -400 l148 0 l0 225 q0 18 11 35 q10 18 37 19 q24 -1 37 -16 q13 -16 13 -38 l0 -225 l149 0 l0 225 q0 18 10 35 q10 18 37 19 q24 -1 38 -16 q13 -16 13 -38 l0 -225 l148 0 l0 253 q0 72 -33 113 q-33 41 -100 42 l0 0 Z" /><glyph glyph-name="" unicode="n" d="M324 408 q-37 0 -68 -17 q-31 -18 -53 -48 l0 57 l-148 0 l0 -400 l148 0 l0 224 q1 24 18 40 q17 15 42 15 q25 0 40 -15 q15 -16 15 -40 l0 -224 l148 0 l0 253 q-1 68 -41 111 q-40 43 -101 44 l0 0 Z" /><glyph glyph-name="" unicode="&#x144;" d="M429 600 l-135 0 l-88 -150 l97 0 l126 150 ZM324 408 q-37 0 -68 -17 q-31 -18 -53 -48 l0 57 l-148 0 l0 -400 l148 0 l0 224 q1 24 18 40 q17 15 42 15 q25 0 40 -15 q15 -16 15 -40 l0 -224 l148 0 l0 253 q-1 68 -41 111 q-40 43 -101 44 l0 0 Z" /><glyph glyph-name="" unicode="&#x148;" d="M303 450 l106 150 l-90 0 l-56 -69 l-55 69 l-90 0 l105 -150 l80 0 ZM324 408 q-37 0 -68 -17 q-31 -18 -53 -48 l0 57 l-148 0 l0 -400 l148 0 l0 224 q1 24 18 40 q17 15 42 15 q25 0 40 -15 q15 -16 15 -40 l0 -224 l148 0 l0 253 q-1 68 -41 111 q-40 43 -101 44 l0 0 Z" /><glyph glyph-name="" unicode="&#x146;" d="M324 408 q-37 0 -68 -17 q-31 -18 -53 -48 l0 57 l-148 0 l0 -400 l148 0 l0 224 q1 24 18 40 q17 15 42 15 q25 0 40 -15 q15 -16 15 -40 l0 -224 l148 0 l0 253 q-1 68 -41 111 q-40 43 -101 44 l0 0 ZM146 -203 l66 0 l108 155 l-120 0 l-54 -155 Z" /><glyph glyph-name="" unicode="&#x14b;" d="M324 408 q-37 0 -68 -17 q-31 -18 -53 -48 l0 57 l-148 0 l0 -400 l148 0 l0 225 q1 24 17 39 q17 15 43 15 q24 0 40 -15 q15 -15 15 -39 l0 -284 q-1 -53 -18 -66 q-17 -13 -44 -12 l0 -87 q92 -1 150 36 q58 37 60 131 l0 310 q-1 68 -41 111 q-40 43 -101 44 l0 0 Z" /><glyph glyph-name="" unicode="ñ" d="M215 501 q4 0 7 -2 q2 -3 6 -8 q19 -26 39 -37 q21 -11 45 -11 q50 1 75 38 q25 37 25 95 l-84 0 q0 -23 -3 -37 q-4 -14 -15 -14 q-4 0 -7 2 q-3 3 -6 7 q-13 21 -34 35 q-22 13 -51 14 q-47 -1 -73 -37 q-26 -37 -26 -97 l84 0 q0 23 4 37 q4 15 14 15 l0 0 ZM324 408 q-37 0 -68 -17 q-31 -18 -53 -48 l0 57 l-148 0 l0 -400 l148 0 l0 224 q1 24 18 40 q17 15 42 15 q25 0 40 -15 q15 -16 15 -40 l0 -224 l148 0 l0 253 q-1 68 -41 111 q-40 43 -101 44 l0 0 Z" /><glyph glyph-name="" unicode="o" d="M255 -8 q106 2 166 59 q60 57 61 149 q-1 92 -61 149 q-60 57 -166 59 q-107 -2 -167 -59 q-60 -57 -61 -149 q1 -92 61 -149 q60 -57 167 -59 l0 0 ZM255 121 q-36 1 -58 23 q-21 21 -22 56 q1 35 22 56 q22 22 58 23 q35 -1 57 -23 q21 -21 22 -56 q-1 -35 -22 -56 q-22 -22 -57 -23 l0 0 Z" /><glyph glyph-name="" unicode="ó" d="M198 450 l97 0 l126 150 l-135 0 l-88 -150 ZM255 -8 q106 2 166 59 q60 57 61 149 q-1 92 -61 149 q-60 57 -166 59 q-107 -2 -167 -59 q-60 -57 -61 -149 q1 -92 61 -149 q60 -57 167 -59 l0 0 ZM255 121 q-36 1 -58 23 q-21 21 -22 56 q1 35 22 56 q22 22 58 23 q35 -1 57 -23 q21 -21 22 -56 q-1 -35 -22 -56 q-22 -22 -57 -23 l0 0 Z" /><glyph glyph-name="" unicode="&#x1d2;" d="M215 450 l80 0 l106 150 l-90 0 l-56 -69 l-55 69 l-90 0 l105 -150 ZM255 -8 q106 2 166 59 q60 57 61 149 q-1 92 -61 149 q-60 57 -166 59 q-107 -2 -167 -59 q-60 -57 -61 -149 q1 -92 61 -149 q60 -57 167 -59 l0 0 ZM255 121 q-36 1 -58 23 q-21 21 -22 56 q1 35 22 56 q22 22 58 23 q35 -1 57 -23 q21 -21 22 -56 q-1 -35 -22 -56 q-22 -22 -57 -23 l0 0 Z" /><glyph glyph-name="" unicode="ô" d="M200 450 l55 70 l56 -70 l90 0 l-106 150 l-80 0 l-105 -150 l90 0 ZM255 -8 q106 2 166 59 q60 57 61 149 q-1 92 -61 149 q-60 57 -166 59 q-107 -2 -167 -59 q-60 -57 -61 -149 q1 -92 61 -149 q60 -57 167 -59 l0 0 ZM255 121 q-36 1 -58 23 q-21 21 -22 56 q1 35 22 56 q22 22 58 23 q35 -1 57 -23 q21 -21 22 -56 q-1 -35 -22 -56 q-22 -22 -57 -23 l0 0 Z" /><glyph glyph-name="" unicode="ö" d="M168 469 q27 1 46 19 q18 19 19 46 q-1 28 -19 46 q-19 18 -46 19 q-28 -1 -46 -19 q-19 -18 -20 -46 q1 -27 20 -46 q18 -18 46 -19 l0 0 ZM342 469 q28 1 47 19 q18 19 19 46 q-1 28 -19 46 q-19 18 -47 19 q-27 -1 -46 -19 q-18 -18 -19 -46 q1 -27 19 -46 q19 -18 46 -19 l0 0 ZM255 -8 q106 2 166 59 q60 57 61 149 q-1 92 -61 149 q-60 57 -166 59 q-107 -2 -167 -59 q-60 -57 -61 -149 q1 -92 61 -149 q60 -57 167 -59 l0 0 ZM255 121 q-36 1 -58 23 q-21 21 -22 56 q1 35 22 56 q22 22 58 23 q35 -1 57 -23 q21 -21 22 -56 q-1 -35 -22 -56 q-22 -22 -57 -23 l0 0 Z" /><glyph glyph-name="" unicode="ò" d="M312 450 l-88 150 l-135 0 l126 -150 l97 0 ZM255 -8 q106 2 166 59 q60 57 61 149 q-1 92 -61 149 q-60 57 -166 59 q-107 -2 -167 -59 q-60 -57 -61 -149 q1 -92 61 -149 q60 -57 167 -59 l0 0 ZM255 121 q-36 1 -58 23 q-21 21 -22 56 q1 35 22 56 q22 22 58 23 q35 -1 57 -23 q21 -21 22 -56 q-1 -35 -22 -56 q-22 -22 -57 -23 l0 0 Z" /><glyph glyph-name="" unicode="&#x151;" d="M119 450 l96 0 l125 150 l-134 0 l-87 -150 ZM291 450 l96 0 l125 150 l-134 0 l-87 -150 ZM255 -8 q106 2 166 59 q60 57 61 149 q-1 92 -61 149 q-60 57 -166 59 q-107 -2 -167 -59 q-60 -57 -61 -149 q1 -92 61 -149 q60 -57 167 -59 l0 0 ZM255 121 q-36 1 -58 23 q-21 21 -22 56 q1 35 22 56 q22 22 58 23 q35 -1 57 -23 q21 -21 22 -56 q-1 -35 -22 -56 q-22 -22 -57 -23 l0 0 Z" /><glyph glyph-name="" unicode="&#x14d;" d="M130 458 l250 0 l0 92 l-250 0 l0 -92 ZM255 -8 q106 2 166 59 q60 57 61 149 q-1 92 -61 149 q-60 57 -166 59 q-107 -2 -167 -59 q-60 -57 -61 -149 q1 -92 61 -149 q60 -57 167 -59 l0 0 ZM255 121 q-36 1 -58 23 q-21 21 -22 56 q1 35 22 56 q22 22 58 23 q35 -1 57 -23 q21 -21 22 -56 q-1 -35 -22 -56 q-22 -22 -57 -23 l0 0 Z" /><glyph glyph-name="" unicode="ø" d="M408 360 l28 40 l-59 34 l-29 -41 q-40 15 -93 15 q-107 -2 -167 -59 q-60 -57 -61 -149 q0 -51 20 -92 q19 -41 55 -69 l-27 -39 l59 -35 l29 41 q41 -14 92 -14 q106 2 166 59 q60 57 61 149 q0 51 -19 91 q-19 41 -55 69 l0 0 ZM175 200 q1 35 22 56 q22 22 58 23 q4 0 7 0 q3 -1 6 -1 l-82 -119 q-5 9 -8 19 q-3 10 -3 22 l0 0 ZM255 121 q-6 0 -12 1 l81 117 q10 -16 10 -39 q-1 -35 -22 -56 q-22 -22 -57 -23 l0 0 Z" /><glyph glyph-name="" unicode="õ" d="M304 443 q50 1 75 38 q25 37 25 95 l-84 0 q0 -23 -3 -37 q-4 -14 -15 -14 q-4 0 -7 2 q-3 3 -6 7 q-13 21 -34 35 q-22 13 -51 14 q-47 -1 -73 -37 q-26 -37 -26 -97 l84 0 q0 23 4 37 q4 15 14 15 q4 0 7 -2 q2 -3 6 -8 q19 -26 39 -37 q21 -11 45 -11 l0 0 ZM255 -8 q106 2 166 59 q60 57 61 149 q-1 92 -61 149 q-60 57 -166 59 q-107 -2 -167 -59 q-60 -57 -61 -149 q1 -92 61 -149 q60 -57 167 -59 l0 0 ZM255 121 q-36 1 -58 23 q-21 21 -22 56 q1 35 22 56 q22 22 58 23 q35 -1 57 -23 q21 -21 22 -56 q-1 -35 -22 -56 q-22 -22 -57 -23 l0 0 Z" /><glyph glyph-name="" unicode="&#x153;" d="M560 409 q-47 0 -85 -12 q-39 -13 -68 -36 q-29 23 -67 35 q-38 12 -85 12 q-107 -2 -167 -59 q-60 -57 -61 -149 q1 -92 61 -149 q60 -57 167 -59 q47 0 86 12 q38 12 67 35 q29 -23 69 -35 q39 -12 87 -12 q88 1 141 40 q53 39 67 105 l-141 0 q-5 -20 -22 -30 q-17 -11 -46 -11 q-39 0 -57 21 q-18 20 -21 59 l292 0 l0 25 q0 97 -58 152 q-58 55 -159 56 l0 0 ZM563 300 q27 0 43 -11 q15 -11 22 -31 l-135 0 q7 20 24 31 q17 11 46 11 l0 0 ZM255 121 q-36 1 -58 23 q-21 21 -22 56 q1 35 22 56 q22 22 58 23 q35 -1 57 -23 q21 -21 22 -56 q-1 -35 -22 -56 q-22 -22 -57 -23 l0 0 Z" /><glyph glyph-name="" unicode="p" d="M308 408 q-32 0 -58 -10 q-27 -10 -47 -27 l0 28 l-148 1 l0 -640 l148 -1 l0 270 q20 -17 47 -27 q26 -10 58 -10 q83 2 137 60 q54 58 56 148 q-2 90 -56 148 q-54 58 -137 60 l0 0 ZM274 121 q-34 1 -56 23 q-22 22 -23 56 q1 34 23 56 q22 22 56 23 q34 -1 56 -23 q22 -22 23 -56 q-1 -34 -23 -56 q-22 -22 -56 -23 l0 0 Z" /><glyph glyph-name="" unicode="þ" d="M312 408 q-31 0 -57 -9 q-26 -10 -46 -27 l0 225 l-148 0 l0 -837 l148 0 l0 268 q20 -17 46 -27 q26 -9 57 -9 q84 2 138 60 q53 58 55 148 q-2 90 -55 148 q-54 58 -138 60 l0 0 ZM287 121 q-34 1 -55 23 q-22 22 -23 56 q1 34 23 56 q21 22 55 23 q35 -1 57 -23 q22 -22 23 -56 q-1 -34 -23 -56 q-22 -22 -57 -23 l0 0 Z" /><glyph glyph-name="" unicode="q" d="M514 -112 q-19 0 -30 14 q-11 14 -11 38 l0 460 l-148 0 l0 -29 q-20 17 -46 27 q-26 10 -58 10 q-84 -2 -138 -60 q-54 -58 -56 -148 q2 -90 56 -148 q54 -58 138 -60 q32 0 58 10 q26 10 46 27 l0 -107 q2 -70 51 -115 q48 -45 119 -47 q17 0 32 3 q14 2 25 5 l0 120 l-38 0 ZM255 121 q-35 1 -57 23 q-22 22 -23 56 q1 34 23 56 q22 22 57 23 q33 -1 56 -23 q22 -22 23 -56 q-1 -34 -23 -56 q-23 -22 -56 -23 l0 0 Z" /><glyph glyph-name="" unicode="r" d="M309 408 q-33 0 -60 -17 q-27 -17 -46 -47 l0 56 l-148 0 l0 -400 l148 0 l0 184 q1 47 28 71 q27 24 72 24 q12 0 22 -1 q10 -1 18 -3 l0 128 q-7 2 -16 4 q-9 1 -18 1 l0 0 Z" /><glyph glyph-name="" unicode="&#x155;" d="M344 600 l-135 0 l-88 -150 l97 0 l126 150 ZM203 344 l0 56 l-148 0 l0 -400 l148 0 l0 184 q1 47 28 71 q27 24 72 24 q12 0 22 -1 q10 -1 18 -3 l0 128 q-7 2 -16 4 q-9 1 -18 1 q-33 0 -60 -17 q-27 -17 -46 -47 l0 0 Z" /><glyph glyph-name="" unicode="&#x159;" d="M218 450 l106 150 l-90 0 l-56 -69 l-55 69 l-90 0 l105 -150 l80 0 ZM309 408 q-33 0 -60 -17 q-27 -17 -46 -47 l0 56 l-148 0 l0 -400 l148 0 l0 184 q1 47 28 71 q27 24 72 24 q12 0 22 -1 q10 -1 18 -3 l0 128 q-7 2 -16 4 q-9 1 -18 1 l0 0 Z" /><glyph glyph-name="" unicode="&#x157;" d="M309 408 q-33 0 -60 -17 q-27 -17 -46 -47 l0 56 l-148 0 l0 -400 l148 0 l0 184 q1 47 28 71 q27 24 72 24 q12 0 22 -1 q10 -1 18 -3 l0 128 q-7 2 -16 4 q-9 1 -18 1 l0 0 ZM15 -203 l66 0 l108 155 l-120 0 l-54 -155 Z" /><glyph glyph-name="" unicode="s" d="M193 -8 q73 1 112 39 q40 37 40 95 q-3 61 -42 92 q-40 31 -86 47 q-16 6 -25 11 q-8 5 -8 11 q0 6 5 10 q6 5 20 5 q20 -1 37 -9 q16 -9 27 -19 l65 85 q-26 22 -62 35 q-35 14 -78 14 q-77 -2 -118 -41 q-41 -40 -41 -92 q5 -62 51 -89 q46 -26 78 -35 q24 -9 33 -16 q9 -7 8 -14 q0 -8 -7 -12 q-7 -4 -20 -4 q-12 -1 -29 6 q-17 8 -34 33 l-104 -54 q21 -49 71 -74 q50 -24 107 -24 l0 0 Z" /><glyph glyph-name="" unicode="&#x15b;" d="M138 450 l97 0 l126 150 l-135 0 l-88 -150 ZM193 -8 q73 1 112 39 q40 37 40 95 q-3 61 -42 92 q-40 31 -86 47 q-16 6 -25 11 q-8 5 -8 11 q0 6 5 10 q6 5 20 5 q20 -1 37 -9 q16 -9 27 -19 l65 85 q-26 22 -62 35 q-35 14 -78 14 q-77 -2 -118 -41 q-41 -40 -41 -92 q5 -62 51 -89 q46 -26 78 -35 q24 -9 33 -16 q9 -7 8 -14 q0 -8 -7 -12 q-7 -4 -20 -4 q-12 -1 -29 6 q-17 8 -34 33 l-104 -54 q21 -49 71 -74 q50 -24 107 -24 l0 0 Z" /><glyph glyph-name="" unicode="&#x161;" d="M155 450 l80 0 l106 150 l-90 0 l-56 -69 l-55 69 l-90 0 l105 -150 ZM193 -8 q73 1 112 39 q40 37 40 95 q-3 61 -42 92 q-40 31 -86 47 q-16 6 -25 11 q-8 5 -8 11 q0 6 5 10 q6 5 20 5 q20 -1 37 -9 q16 -9 27 -19 l65 85 q-26 22 -62 35 q-35 14 -78 14 q-77 -2 -118 -41 q-41 -40 -41 -92 q5 -62 51 -89 q46 -26 78 -35 q24 -9 33 -16 q9 -7 8 -14 q0 -8 -7 -12 q-7 -4 -20 -4 q-12 -1 -29 6 q-17 8 -34 33 l-104 -54 q21 -49 71 -74 q50 -24 107 -24 l0 0 Z" /><glyph glyph-name="" unicode="&#x15f;" d="M345 126 q-3 61 -42 92 q-40 31 -86 47 q-16 6 -25 11 q-8 5 -8 11 q0 6 5 10 q6 5 20 5 q20 -1 37 -9 q16 -9 27 -19 l65 85 q-26 22 -62 35 q-35 14 -78 14 q-77 -2 -118 -41 q-41 -40 -41 -92 q5 -62 51 -89 q46 -26 78 -35 q24 -9 33 -16 q9 -7 8 -14 q0 -8 -7 -12 q-7 -4 -20 -4 q-12 -1 -29 6 q-17 8 -34 33 l-104 -54 q18 -41 56 -65 q38 -23 85 -30 l-39 -70 l49 -28 q25 13 41 9 q15 -4 16 -23 q0 -12 -8 -19 q-7 -8 -18 -8 q-10 0 -19 6 q-9 6 -14 15 l-62 -20 q8 -28 35 -46 q27 -18 60 -19 q38 1 64 26 q25 26 26 65 q-1 37 -26 58 q-25 20 -63 15 l24 38 q60 8 91 44 q32 36 32 88 l0 0 Z" /><glyph glyph-name="" unicode="&#x219;" d="M193 -8 q73 1 112 39 q40 37 40 95 q-3 61 -42 92 q-40 31 -86 47 q-16 6 -25 11 q-8 5 -8 11 q0 6 5 10 q6 5 20 5 q20 -1 37 -9 q16 -9 27 -19 l65 85 q-26 22 -62 35 q-35 14 -78 14 q-77 -2 -118 -41 q-41 -40 -41 -92 q5 -62 51 -89 q46 -26 78 -35 q24 -9 33 -16 q9 -7 8 -14 q0 -8 -7 -12 q-7 -4 -20 -4 q-12 -1 -29 6 q-17 8 -34 33 l-104 -54 q21 -49 71 -74 q50 -24 107 -24 l0 0 ZM144 -203 l108 155 l-120 0 l-54 -155 l66 0 Z" /><glyph glyph-name="" unicode="ß" d="M457 318 q19 22 29 49 q10 27 10 58 q-2 77 -59 125 q-57 48 -150 50 q-98 -2 -161 -56 q-63 -54 -65 -140 l0 -404 l148 0 l0 404 q1 30 23 48 q22 18 57 19 q30 0 49 -13 q18 -14 19 -35 q-1 -23 -19 -40 q-17 -16 -43 -17 l-9 0 l0 -120 l23 0 q31 -1 52 -19 q20 -19 21 -47 q-1 -23 -15 -37 q-15 -14 -34 -15 l-60 0 l0 -128 l89 0 q74 -4 120 45 q47 49 48 125 q0 46 -20 83 q-19 38 -53 65 l0 0 Z" /><glyph glyph-name="" unicode="t" d="M314 290 l0 110 l-92 0 l0 147 l-148 0 l0 -147 l-67 0 l0 -110 l67 0 l0 -136 q2 -70 51 -115 q48 -45 119 -47 q22 0 41 4 q19 4 27 9 l0 115 l-49 0 q-19 0 -30 14 q-11 14 -11 38 l0 118 l92 0 Z" /><glyph glyph-name="" unicode="&#x167;" d="M314 290 l0 110 l-92 0 l0 147 l-148 0 l0 -147 l-67 0 l0 -110 l67 0 l0 -55 l-59 0 l0 -70 l59 0 l0 -11 q2 -70 51 -115 q48 -45 119 -47 q22 0 41 4 q19 4 27 9 l0 115 l-49 0 q-17 0 -28 12 q-11 12 -13 33 l87 0 l0 70 l-87 0 l0 55 l92 0 Z" /><glyph glyph-name="" unicode="&#x165;" d="M318 672 l-69 -242 l72 0 l113 242 l-116 0 ZM222 547 l-148 0 l0 -147 l-67 0 l0 -110 l67 0 l0 -136 q2 -70 51 -115 q48 -45 119 -47 q22 0 41 4 q19 4 27 9 l0 115 l-49 0 q-19 0 -30 14 q-11 14 -11 38 l0 118 l92 0 l0 110 l-92 0 l0 147 Z" /><glyph glyph-name="" unicode="&#x163;" d="M250 -44 l24 38 q13 2 23 5 q10 3 15 6 l0 115 l-49 0 q-19 0 -30 14 q-11 14 -11 38 l0 118 l92 0 l0 110 l-92 0 l0 147 l-148 0 l0 -147 l-67 0 l0 -110 l67 0 l0 -136 q1 -60 39 -103 q38 -43 96 -55 l-40 -71 l49 -28 q25 13 41 9 q15 -4 16 -23 q0 -12 -8 -19 q-7 -8 -18 -8 q-10 0 -19 6 q-9 6 -14 15 l-62 -20 q8 -28 35 -46 q27 -18 60 -19 q38 1 64 26 q25 26 26 65 q-1 37 -26 58 q-25 20 -63 15 l0 0 Z" /><glyph glyph-name="" unicode="&#x21b;" d="M314 290 l0 110 l-92 0 l0 147 l-148 0 l0 -147 l-67 0 l0 -110 l67 0 l0 -136 q2 -70 51 -115 q48 -45 119 -47 q22 0 41 4 q19 4 27 9 l0 115 l-49 0 q-19 0 -30 14 q-11 14 -11 38 l0 118 l92 0 ZM130 -203 l66 0 l108 155 l-120 0 l-54 -155 Z" /><glyph glyph-name="" unicode="u" d="M247 -8 q99 1 150 45 q51 43 51 120 l0 243 l-148 0 l0 -224 q0 -24 -15 -39 q-15 -15 -38 -16 q-22 1 -36 16 q-15 15 -15 39 l0 224 l-149 0 l0 -243 q0 -77 51 -120 q51 -44 149 -45 l0 0 Z" /><glyph glyph-name="" unicode="ú" d="M194 450 l97 0 l126 150 l-135 0 l-88 -150 ZM247 -8 q99 1 150 45 q51 43 51 120 l0 243 l-148 0 l0 -224 q0 -24 -15 -39 q-15 -15 -38 -16 q-22 1 -36 16 q-15 15 -15 39 l0 224 l-149 0 l0 -243 q0 -77 51 -120 q51 -44 149 -45 l0 0 Z" /><glyph glyph-name="" unicode="&#x1d4;" d="M211 450 l80 0 l106 150 l-90 0 l-56 -69 l-55 69 l-90 0 l105 -150 ZM247 -8 q99 1 150 45 q51 43 51 120 l0 243 l-148 0 l0 -224 q0 -24 -15 -39 q-15 -15 -38 -16 q-22 1 -36 16 q-15 15 -15 39 l0 224 l-149 0 l0 -243 q0 -77 51 -120 q51 -44 149 -45 l0 0 Z" /><glyph glyph-name="" unicode="û" d="M196 450 l55 70 l56 -70 l90 0 l-106 150 l-80 0 l-105 -150 l90 0 ZM247 -8 q99 1 150 45 q51 43 51 120 l0 243 l-148 0 l0 -224 q0 -24 -15 -39 q-15 -15 -38 -16 q-22 1 -36 16 q-15 15 -15 39 l0 224 l-149 0 l0 -243 q0 -77 51 -120 q51 -44 149 -45 l0 0 Z" /><glyph glyph-name="" unicode="ü" d="M164 469 q27 1 46 19 q18 19 19 46 q-1 28 -19 46 q-19 18 -46 19 q-28 -1 -46 -19 q-19 -18 -20 -46 q1 -27 20 -46 q18 -18 46 -19 l0 0 ZM338 469 q28 1 47 19 q18 19 19 46 q-1 28 -19 46 q-19 18 -47 19 q-27 -1 -46 -19 q-18 -18 -19 -46 q1 -27 19 -46 q19 -18 46 -19 l0 0 ZM247 -8 q99 1 150 45 q51 43 51 120 l0 243 l-148 0 l0 -224 q0 -24 -15 -39 q-15 -15 -38 -16 q-22 1 -36 16 q-15 15 -15 39 l0 224 l-149 0 l0 -243 q0 -77 51 -120 q51 -44 149 -45 l0 0 Z" /><glyph glyph-name="" unicode="ù" d="M308 450 l-88 150 l-135 0 l126 -150 l97 0 ZM247 -8 q99 1 150 45 q51 43 51 120 l0 243 l-148 0 l0 -224 q0 -24 -15 -39 q-15 -15 -38 -16 q-22 1 -36 16 q-15 15 -15 39 l0 224 l-149 0 l0 -243 q0 -77 51 -120 q51 -44 149 -45 l0 0 Z" /><glyph glyph-name="" unicode="&#x171;" d="M115 450 l96 0 l125 150 l-134 0 l-87 -150 ZM287 450 l96 0 l125 150 l-134 0 l-87 -150 ZM247 -8 q99 1 150 45 q51 43 51 120 l0 243 l-148 0 l0 -224 q0 -24 -15 -39 q-15 -15 -38 -16 q-22 1 -36 16 q-15 15 -15 39 l0 224 l-149 0 l0 -243 q0 -77 51 -120 q51 -44 149 -45 l0 0 Z" /><glyph glyph-name="" unicode="&#x16b;" d="M126 458 l250 0 l0 92 l-250 0 l0 -92 ZM247 -8 q99 1 150 45 q51 43 51 120 l0 243 l-148 0 l0 -224 q0 -24 -15 -39 q-15 -15 -38 -16 q-22 1 -36 16 q-15 15 -15 39 l0 224 l-149 0 l0 -243 q0 -77 51 -120 q51 -44 149 -45 l0 0 Z" /><glyph glyph-name="" unicode="&#x173;" d="M448 157 l0 243 l-148 0 l0 -224 q0 -24 -15 -39 q-15 -15 -38 -16 q-22 1 -36 16 q-15 15 -15 39 l0 224 l-149 0 l0 -243 q0 -71 44 -114 q43 -43 128 -50 q-13 -13 -20 -30 q-7 -17 -7 -37 q0 -42 27 -71 q26 -30 79 -35 q35 -3 71 11 q35 13 61 40 l-46 64 q-10 -21 -26 -33 q-17 -13 -36 -13 q-19 0 -30 12 q-11 13 -11 38 q0 22 15 38 q15 15 42 28 q24 7 42 19 q1 1 2 1 q1 0 2 1 l-1 0 q32 22 49 55 q16 33 16 76 l0 0 Z" /><glyph glyph-name="" unicode="&#x16f;" d="M251 430 q43 1 72 30 q28 29 29 73 q-1 42 -29 70 q-29 29 -72 30 q-43 -1 -72 -30 q-29 -28 -30 -70 q1 -44 30 -73 q29 -29 72 -30 l0 0 ZM251 488 q-19 0 -31 12 q-12 12 -12 33 q0 18 12 31 q12 12 31 13 q19 -1 31 -13 q13 -13 13 -31 q0 -21 -13 -33 q-12 -12 -31 -12 l0 0 ZM247 -8 q99 1 150 45 q51 43 51 120 l0 243 l-148 0 l0 -224 q0 -24 -15 -39 q-15 -15 -38 -16 q-22 1 -36 16 q-15 15 -15 39 l0 224 l-149 0 l0 -243 q0 -77 51 -120 q51 -44 149 -45 l0 0 Z" /><glyph glyph-name="" unicode="v" d="M293 400 l-72 -239 l-72 239 l-158 0 l160 -400 l139 0 l162 400 l-159 0 Z" /><glyph glyph-name="" unicode="w" d="M540 400 l-57 -246 l-78 246 l-112 0 l-77 -244 l-57 244 l-168 0 l138 -400 l155 0 l65 197 l65 -197 l155 0 l137 400 l-166 0 Z" /><glyph glyph-name="" unicode="&#x1e83;" d="M515 600 l-135 0 l-88 -150 l97 0 l126 150 ZM540 400 l-57 -246 l-78 246 l-112 0 l-77 -244 l-57 244 l-168 0 l138 -400 l155 0 l65 197 l65 -197 l155 0 l137 400 l-166 0 Z" /><glyph glyph-name="" unicode="&#x175;" d="M349 520 l56 -70 l90 0 l-106 150 l-80 0 l-105 -150 l90 0 l55 70 ZM540 400 l-57 -246 l-78 246 l-112 0 l-77 -244 l-57 244 l-168 0 l138 -400 l155 0 l65 197 l65 -197 l155 0 l137 400 l-166 0 Z" /><glyph glyph-name="" unicode="&#x1e85;" d="M262 469 q27 1 46 19 q18 19 19 46 q-1 28 -19 46 q-19 18 -46 19 q-28 -1 -46 -19 q-19 -18 -20 -46 q1 -27 20 -46 q18 -18 46 -19 l0 0 ZM436 469 q28 1 47 19 q18 19 19 46 q-1 28 -19 46 q-19 18 -47 19 q-27 -1 -46 -19 q-18 -18 -19 -46 q1 -27 19 -46 q19 -18 46 -19 l0 0 ZM540 400 l-57 -246 l-78 246 l-112 0 l-77 -244 l-57 244 l-168 0 l138 -400 l155 0 l65 197 l65 -197 l155 0 l137 400 l-166 0 Z" /><glyph glyph-name="" unicode="&#x1e81;" d="M406 450 l-88 150 l-135 0 l126 -150 l97 0 ZM540 400 l-57 -246 l-78 246 l-112 0 l-77 -244 l-57 244 l-168 0 l138 -400 l155 0 l65 197 l65 -197 l155 0 l137 400 l-166 0 Z" /><glyph glyph-name="" unicode="x" d="M508 400 l-177 0 l-82 -96 l-82 96 l-176 0 l170 -200 l-170 -200 l178 0 l81 95 l80 -95 l178 0 l-170 199 l170 201 Z" /><glyph glyph-name="" unicode="y" d="M325 400 l-90 -244 l-91 244 l-153 0 l168 -410 l-94 -230 l156 0 l63 162 l192 478 l-151 0 Z" /><glyph glyph-name="" unicode="ý" d="M399 600 l-135 0 l-88 -150 l97 0 l126 150 ZM325 400 l-90 -244 l-91 244 l-153 0 l168 -410 l-94 -230 l156 0 l63 162 l192 478 l-151 0 Z" /><glyph glyph-name="" unicode="&#x177;" d="M233 520 l56 -70 l90 0 l-106 150 l-80 0 l-105 -150 l90 0 l55 70 ZM325 400 l-90 -244 l-91 244 l-153 0 l168 -410 l-94 -230 l156 0 l63 162 l192 478 l-151 0 Z" /><glyph glyph-name="" unicode="ÿ" d="M146 469 q27 1 46 19 q18 19 19 46 q-1 28 -19 46 q-19 18 -46 19 q-28 -1 -46 -19 q-19 -18 -20 -46 q1 -27 20 -46 q18 -18 46 -19 l0 0 ZM320 469 q28 1 47 19 q18 19 19 46 q-1 28 -19 46 q-19 18 -47 19 q-27 -1 -46 -19 q-18 -18 -19 -46 q1 -27 19 -46 q19 -18 46 -19 l0 0 ZM325 400 l-90 -244 l-91 244 l-153 0 l168 -410 l-94 -230 l156 0 l63 162 l192 478 l-151 0 Z" /><glyph glyph-name="" unicode="&#x1ef3;" d="M290 450 l-88 150 l-135 0 l126 -150 l97 0 ZM325 400 l-90 -244 l-91 244 l-153 0 l168 -410 l-94 -230 l156 0 l63 162 l192 478 l-151 0 Z" /><glyph glyph-name="" unicode="z" d="M377 400 l-337 0 l0 -119 l126 0 l-149 -281 l351 0 l0 119 l-142 0 l151 281 Z" /><glyph glyph-name="" unicode="&#x17a;" d="M372 600 l-135 0 l-88 -150 l97 0 l126 150 ZM377 400 l-337 0 l0 -119 l126 0 l-149 -281 l351 0 l0 119 l-142 0 l151 281 Z" /><glyph glyph-name="" unicode="&#x17e;" d="M246 450 l106 150 l-90 0 l-56 -69 l-55 69 l-90 0 l105 -150 l80 0 ZM377 400 l-337 0 l0 -119 l126 0 l-149 -281 l351 0 l0 119 l-142 0 l151 281 Z" /><glyph glyph-name="" unicode="&#x17c;" d="M206 449 q33 1 56 23 q22 23 23 56 q-1 33 -23 55 q-23 22 -56 23 q-33 -1 -56 -23 q-22 -22 -23 -55 q1 -33 23 -56 q23 -22 56 -23 l0 0 ZM377 400 l-337 0 l0 -119 l126 0 l-149 -281 l351 0 l0 119 l-142 0 l151 281 Z" /><glyph glyph-name="" unicode="&#xfb01;" d="M221 489 q0 24 11 38 q10 14 29 14 l49 0 l0 115 q-8 5 -26 9 q-19 4 -42 4 q-71 -2 -119 -47 q-49 -45 -51 -116 l0 -106 l-67 0 l0 -110 l67 0 l0 -290 l149 0 l0 290 l91 0 l0 110 l-91 0 l0 89 ZM439 465 q33 1 56 23 q22 23 23 56 q-1 33 -23 55 q-23 22 -56 23 q-33 -1 -56 -23 q-22 -22 -23 -55 q1 -33 23 -56 q23 -22 56 -23 l0 0 ZM365 0 l148 0 l0 400 l-148 0 l0 -400 Z" /><glyph glyph-name="" unicode="&#xfb02;" d="M221 489 q0 24 11 38 q10 14 29 14 l49 0 l0 115 q-8 5 -26 9 q-19 4 -42 4 q-71 -2 -119 -47 q-49 -45 -51 -116 l0 -106 l-67 0 l0 -110 l67 0 l0 -290 l149 0 l0 290 l91 0 l0 110 l-91 0 l0 89 ZM365 669 l0 -669 l148 0 l0 669 l-148 0 Z" /><glyph glyph-name="" unicode="ª" d="M215 600 l0 -32 q-14 17 -35 27 q-20 10 -45 10 q-51 -1 -84 -36 q-33 -35 -34 -89 q1 -54 34 -89 q33 -35 84 -36 q25 0 45 10 q21 10 35 27 l0 -32 l69 0 l0 240 l-69 0 ZM150 415 q-28 1 -46 19 q-18 18 -19 46 q1 28 19 46 q18 18 46 19 q28 -1 46 -19 q18 -18 19 -46 q-1 -28 -19 -46 q-18 -18 -46 -19 l0 0 Z" /><glyph glyph-name="" unicode="º" d="M150 355 q57 1 95 36 q38 35 39 89 q-1 54 -39 89 q-38 35 -95 36 q-58 -1 -95 -36 q-37 -35 -38 -89 q1 -54 38 -89 q37 -35 95 -36 l0 0 ZM150 415 q-28 1 -46 19 q-18 18 -19 46 q1 28 19 46 q18 18 46 19 q28 -1 46 -19 q18 -18 19 -46 q-1 -28 -19 -46 q-18 -18 -46 -19 l0 0 Z" /><glyph glyph-name="" unicode="&#x394;" d="M416 600 l-172 0 l-241 -600 l654 0 l-241 600 ZM219 132 l111 295 l111 -295 l-222 0 Z" /><glyph glyph-name="" unicode="&#x3a9;" d="M37 0 l278 0 l0 94 q-43 22 -71 76 q-28 54 -29 131 q1 84 36 130 q36 45 93 45 q57 -1 89 -46 q31 -46 32 -129 q-1 -76 -27 -128 q-27 -52 -71 -79 l0 -94 l276 0 l0 125 l-79 0 l0 2 q30 38 49 93 q18 54 18 111 q0 110 -73 189 q-73 80 -216 84 q-136 -3 -213 -79 q-78 -77 -79 -194 q2 -66 22 -121 q20 -55 41 -83 l0 -2 l-76 0 l0 -125 Z" /><glyph glyph-name="" unicode="&#x3bc;" d="M319 400 l0 -225 q-1 -23 -18 -38 q-18 -15 -46 -16 q-24 1 -39 16 q-15 15 -15 38 l0 225 l-148 0 l0 -600 l107 0 l0 200 q12 -4 24 -6 q13 -2 26 -2 q32 0 59 12 q28 12 50 33 l0 -37 l148 0 l0 400 l-148 0 Z" /><glyph glyph-name="" unicode="&#x3c0;" d="M49 0 l134 0 q24 64 39 164 q14 100 17 174 l113 0 l0 -210 q0 -46 4 -80 q3 -34 12 -48 l133 0 q-5 21 -8 55 q-3 34 -3 80 l0 203 l62 0 l11 109 l-403 0 q-64 0 -104 -8 q-40 -9 -56 -23 l15 -86 q16 4 38 6 q22 2 50 2 q-1 -69 -16 -166 q-16 -96 -38 -172 l0 0 Z" /><glyph glyph-name="" unicode="0" d="M273 -8 q113 2 170 85 q56 82 56 223 q0 141 -56 223 q-57 83 -170 85 q-115 -2 -171 -85 q-57 -82 -57 -223 q0 -141 57 -223 q56 -83 171 -85 l0 0 ZM273 121 q-48 1 -64 49 q-17 47 -16 130 q-1 83 16 130 q16 48 64 49 q46 -1 63 -49 q16 -47 15 -130 q1 -83 -15 -130 q-17 -48 -63 -49 l0 0 Z" /><glyph glyph-name="" unicode="1" d="M109 0 l148 0 l0 600 l-236 0 l0 -129 l88 0 l0 -471 Z" /><glyph glyph-name="" unicode="2" d="M236 129 l77 100 q55 71 77 114 q22 43 22 93 q-1 76 -53 124 q-52 47 -134 49 q-86 -1 -145 -54 q-59 -53 -53 -140 l142 0 q-5 30 10 47 q14 17 39 17 q16 1 34 -10 q18 -11 19 -45 q1 -15 -10 -37 q-11 -21 -52 -77 l-231 -310 l442 0 l0 129 l-184 0 Z" /><glyph glyph-name="" unicode="3" d="M266 361 l191 239 l-420 0 l0 -129 l174 0 l-160 -211 l191 0 q27 0 44 -18 q16 -17 16 -47 q0 -29 -16 -47 q-17 -18 -47 -19 q-23 0 -40 11 q-16 11 -17 28 l-145 -2 q2 -75 59 -123 q57 -49 142 -51 q91 2 149 58 q58 56 60 141 q-2 85 -52 128 q-50 42 -129 42 l0 0 Z" /><glyph glyph-name="" unicode="4" d="M482 255 l-46 0 l0 345 l-187 0 l-242 -474 l281 0 l0 -126 l148 0 l0 126 l46 0 l0 129 ZM186 255 l102 210 l0 -210 l-102 0 Z" /><glyph glyph-name="" unicode="5" d="M290 409 q-37 0 -64 -12 q-26 -11 -46 -31 l7 104 l246 0 l0 128 l-360 0 l-24 -287 l115 -70 q16 18 41 29 q24 11 47 11 q33 -1 53 -23 q20 -22 21 -55 q-1 -34 -25 -55 q-25 -21 -65 -22 q-39 -1 -81 13 q-42 15 -84 64 l-28 0 l-10 -133 q36 -34 94 -55 q58 -22 118 -23 q101 2 164 61 q63 60 65 156 q-1 87 -51 143 q-49 55 -133 57 l0 0 Z" /><glyph glyph-name="" unicode="6" d="M312 416 q-3 1 -6 1 q-3 0 -7 1 l136 182 l-166 0 l-185 -265 q-19 -29 -32 -61 q-13 -32 -14 -67 q1 -93 65 -152 q63 -60 160 -63 q95 1 161 58 q67 58 71 151 q0 80 -50 139 q-50 60 -133 76 l0 0 ZM351 201 q-1 -37 -25 -61 q-23 -24 -62 -24 q-40 2 -61 27 q-21 26 -20 63 q2 38 24 62 q23 24 62 24 q39 -2 61 -27 q21 -26 21 -64 l0 0 Z" /><glyph glyph-name="" unicode="7" d="M23 600 l0 -129 l260 0 l-255 -471 l159 0 l255 490 l0 110 l-419 0 Z" /><glyph glyph-name="" unicode="8" d="M382 335 q22 20 34 48 q12 28 12 61 q-1 71 -51 117 q-50 45 -132 47 q-81 -2 -131 -47 q-50 -46 -52 -117 q0 -33 12 -61 q12 -28 34 -49 q-39 -24 -60 -62 q-22 -39 -22 -87 q2 -84 62 -138 q60 -53 157 -55 q98 2 159 55 q60 54 62 138 q0 48 -22 87 q-23 38 -62 63 l0 0 ZM246 494 q26 -1 43 -17 q16 -17 17 -44 q-1 -27 -17 -44 q-17 -16 -43 -17 q-27 1 -44 17 q-16 17 -17 44 q1 27 17 44 q17 16 44 17 l0 0 ZM245 121 q-31 1 -51 22 q-19 21 -20 54 q1 32 20 51 q20 19 51 19 q32 0 52 -19 q19 -19 20 -51 q-1 -33 -20 -54 q-20 -21 -52 -22 l0 0 Z" /><glyph glyph-name="" unicode="9" d="M269 608 q-94 -1 -161 -58 q-66 -58 -70 -151 q0 -80 50 -139 q50 -60 132 -76 q6 -2 14 -2 l-136 -182 l165 0 l186 265 q19 29 32 61 q13 32 14 67 q-1 93 -65 153 q-64 59 -161 62 l0 0 ZM350 394 q-1 -38 -24 -62 q-23 -25 -62 -24 q-40 2 -62 28 q-21 25 -21 63 q2 37 25 61 q24 25 63 24 q39 -2 60 -27 q21 -26 21 -63 l0 0 Z" /><glyph glyph-name="" unicode="&#x2044;" d="M-24 0 l113 0 l418 600 l-113 0 l-418 -600 Z" /><glyph glyph-name="" unicode="½" d="M178 200 l0 400 l-157 0 l0 -86 l59 0 l0 -314 l98 0 ZM518 598 l-418 -600 l113 0 l418 600 l-113 0 ZM660 84 l52 67 q36 47 51 76 q15 29 15 62 q-1 51 -36 82 q-35 32 -89 33 q-57 -1 -96 -36 q-40 -35 -36 -93 l95 0 q-4 20 6 31 q10 11 26 11 q11 1 23 -6 q12 -7 13 -30 q1 -10 -7 -25 q-7 -14 -35 -51 l-154 -207 l295 0 l0 86 l-123 0 Z" /><glyph glyph-name="" unicode="¼" d="M178 200 l0 400 l-157 0 l0 -86 l59 0 l0 -314 l98 0 ZM534 598 l-418 -600 l113 0 l418 600 l-113 0 ZM803 170 l-30 0 l0 230 l-125 0 l-161 -316 l187 0 l0 -84 l99 0 l0 84 l30 0 l0 86 ZM606 170 l68 141 l0 -141 l-68 0 Z" /><glyph glyph-name="" unicode="¾" d="M311 329 q-1 57 -35 86 q-33 28 -86 28 l128 159 l-280 0 l0 -86 l115 0 l-106 -141 l127 0 q18 0 29 -12 q11 -11 11 -31 q0 -19 -11 -31 q-11 -13 -31 -13 q-15 0 -26 7 q-11 8 -12 19 l-96 -1 q1 -50 39 -82 q38 -33 95 -34 q61 1 99 39 q39 37 40 93 l0 0 ZM576 598 l-418 -600 l113 0 l418 600 l-113 0 ZM821 170 l-30 0 l0 230 l-125 0 l-161 -316 l187 0 l0 -84 l99 0 l0 84 l30 0 l0 86 ZM624 170 l68 141 l0 -141 l-68 0 Z" /><glyph glyph-name="" unicode="¹" d="M61 300 l69 0 l0 300 l-109 0 l0 -60 l40 0 l0 -240 Z" /><glyph glyph-name="" unicode="²" d="M156 377 l37 48 q27 35 37 55 q11 21 11 45 q-1 37 -26 60 q-25 23 -65 24 q-41 -1 -70 -26 q-28 -26 -25 -68 l68 0 q-2 14 5 23 q7 8 19 8 q8 0 17 -5 q8 -5 9 -22 q1 -7 -5 -17 q-5 -11 -25 -38 l-112 -149 l213 0 l0 62 l-88 0 Z" /><glyph glyph-name="" unicode="³" d="M158 484 l92 115 l-202 0 l0 -62 l84 0 l-77 -102 l92 0 q13 0 21 -8 q8 -9 8 -23 q0 -14 -8 -23 q-9 -9 -23 -9 q-11 0 -19 5 q-8 6 -8 14 l-70 -1 q1 -36 29 -60 q27 -23 68 -24 q44 1 71 28 q28 27 29 68 q-1 41 -25 62 q-24 20 -62 20 l0 0 Z" /><glyph glyph-name="" unicode="*" d="M127 369 l31 75 l30 -75 l61 35 l-50 64 l79 -13 l0 70 l-79 -11 l50 62 l-61 37 l-30 -77 l-31 77 l-59 -37 l49 -62 l-80 11 l0 -70 l80 13 l-49 -64 l59 -35 Z" /><glyph glyph-name="" unicode="\" d="M444 -240 l138 0 l-461 909 l-137 0 l460 -909 Z" /><glyph glyph-name="" unicode="·" d="M125 232 q23 1 40 16 q16 16 17 40 q-1 23 -17 39 q-17 16 -40 17 q-23 -1 -39 -17 q-16 -16 -17 -39 q1 -24 17 -40 q16 -15 39 -16 l0 0 Z" /><glyph glyph-name="" unicode="&#x2022;" d="M257 97 q71 2 120 50 q49 47 51 121 q-2 72 -51 121 q-49 49 -120 51 q-72 -2 -121 -51 q-49 -49 -51 -121 q2 -74 51 -121 q49 -48 121 -50 l0 0 Z" /><glyph glyph-name="" unicode=":" d="M150 250 q33 1 56 24 q22 22 23 56 q-1 32 -23 55 q-23 22 -56 23 q-32 -1 -55 -23 q-22 -23 -23 -55 q1 -34 23 -56 q23 -23 55 -24 l0 0 ZM150 -8 q33 1 56 23 q22 23 23 55 q-1 34 -23 57 q-23 22 -56 23 q-32 -1 -55 -23 q-22 -23 -23 -57 q1 -32 23 -55 q23 -22 55 -23 l0 0 Z" /><glyph glyph-name="" unicode="," d="M89 -149 l145 256 l-140 0 l-92 -256 l87 0 Z" /><glyph glyph-name="" unicode="&#x2026;" d="M149 -8 q33 1 56 23 q22 23 23 55 q-1 33 -23 55 q-23 22 -56 23 q-32 -1 -55 -23 q-22 -22 -23 -55 q1 -32 23 -55 q23 -22 55 -23 l0 0 ZM435 -8 q33 1 56 23 q22 23 23 55 q-1 33 -23 55 q-23 22 -56 23 q-32 -1 -55 -23 q-22 -22 -23 -55 q1 -32 23 -55 q23 -22 55 -23 l0 0 ZM719 -8 q33 1 56 23 q22 23 23 55 q-1 33 -23 55 q-23 22 -56 23 q-32 -1 -55 -23 q-22 -22 -23 -55 q1 -32 23 -55 q23 -22 55 -23 l0 0 Z" /><glyph glyph-name="" unicode="!" d="M93 219 l110 0 l19 377 l-148 0 l19 -377 ZM148 -8 q34 1 56 23 q22 22 23 55 q-1 35 -23 57 q-22 22 -56 23 q-34 -1 -56 -23 q-22 -22 -23 -57 q1 -33 23 -55 q22 -22 56 -23 l0 0 Z" /><glyph glyph-name="" unicode="¡" d="M148 242 q34 1 56 23 q22 22 23 57 q-1 33 -23 55 q-22 22 -56 23 q-34 -1 -56 -23 q-22 -22 -23 -55 q1 -35 23 -57 q22 -22 56 -23 l0 0 ZM74 -240 l148 0 l-19 421 l-110 0 l-19 -421 Z" /><glyph glyph-name="" unicode="#" d="M145 0 l103 0 l17 127 l125 0 l-18 -127 l102 0 l19 127 l112 0 l14 102 l-112 0 l19 134 l112 0 l16 101 l-114 0 l18 130 l-102 0 l-19 -130 l-123 0 l17 130 l-102 0 l-18 -130 l-111 0 l-17 -101 l114 0 l-20 -134 l-113 0 l-14 -102 l113 0 l-18 -127 ZM280 229 l18 134 l125 0 l-19 -134 l-124 0 Z" /><glyph glyph-name="" unicode="." d="M149 -8 q33 1 56 23 q22 23 23 55 q-1 33 -23 55 q-23 22 -56 23 q-32 -1 -55 -23 q-22 -22 -23 -55 q1 -32 23 -55 q23 -22 55 -23 l0 0 Z" /><glyph glyph-name="" unicode="?" d="M216 186 l133 0 l0 29 q9 41 71 59 q61 18 70 137 q-2 82 -60 137 q-59 55 -148 57 q-101 -2 -160 -67 q-59 -65 -49 -163 l130 0 q-10 43 13 72 q22 29 66 30 q33 -1 56 -19 q22 -19 23 -47 q-9 -73 -72 -79 q-64 -6 -73 -124 l0 -22 ZM285 -8 q34 1 56 23 q22 22 23 55 q-1 35 -23 57 q-22 22 -56 23 q-34 -1 -56 -23 q-22 -22 -23 -57 q1 -33 23 -55 q22 -22 56 -23 l0 0 Z" /><glyph glyph-name="" unicode="¿" d="M251 260 q33 1 55 23 q22 22 23 56 q-1 34 -23 56 q-22 21 -55 22 q-34 -1 -56 -22 q-22 -22 -23 -56 q1 -34 23 -56 q22 -22 56 -23 l0 0 ZM254 -198 q101 2 160 68 q58 65 48 163 l-130 0 q10 -44 -12 -73 q-22 -29 -66 -30 q-33 1 -56 20 q-23 19 -24 46 q9 74 73 79 q63 6 72 124 l0 24 l-131 0 l0 -31 q-9 -41 -71 -59 q-63 -18 -72 -137 q2 -82 61 -137 q59 -55 148 -57 l0 0 Z" /><glyph glyph-name="" unicode="&quot;" d="M88 335 l101 0 l19 273 l-139 0 l19 -273 ZM275 335 l101 0 l18 273 l-138 0 l19 -273 Z" /><glyph glyph-name="" unicode="&#39;" d="M88 367 l101 0 l19 241 l-139 0 l19 -241 Z" /><glyph glyph-name="" unicode=";" d="M149 250 q34 1 57 24 q22 22 23 56 q-1 32 -23 55 q-23 22 -57 23 q-32 -1 -55 -23 q-22 -23 -23 -55 q1 -34 23 -56 q23 -23 55 -24 l0 0 ZM107 -149 l145 256 l-140 0 l-92 -256 l87 0 Z" /><glyph glyph-name="" unicode="/" d="M-16 -240 l137 0 l461 909 l-138 0 l-460 -909 Z" /><glyph glyph-name="" unicode="_" d="M29 -95 l480 0 l0 95 l-480 0 l0 -95 Z" /><glyph glyph-name="" unicode="{" d="M208 -283 l66 0 l0 82 q-44 -1 -56 5 q-12 6 -10 28 l0 220 q0 51 -10 85 q-9 35 -28 59 q19 24 28 58 q10 34 10 85 l0 214 q-1 37 14 41 q14 3 52 1 l0 81 l-66 0 q-48 -1 -79 -40 q-31 -38 -32 -96 l0 -189 q1 -66 -12 -84 q-13 -19 -48 -30 l0 -83 q36 -11 48 -30 q13 -20 12 -84 l0 -188 q1 -58 32 -96 q31 -38 79 -39 l0 0 Z" /><glyph glyph-name="" unicode="}" d="M41 -283 l65 0 q49 1 80 39 q30 38 31 96 l0 188 q-1 64 12 84 q13 19 48 30 l0 83 q-35 11 -48 30 q-13 18 -12 84 l0 189 q-1 58 -31 96 q-31 39 -80 40 l-65 0 l0 -81 q38 2 52 -1 q14 -4 13 -41 l0 -214 q0 -51 10 -85 q10 -34 29 -58 q-19 -24 -29 -59 q-10 -34 -10 -85 l0 -220 q2 -22 -10 -28 q-12 -6 -55 -5 l0 -82 Z" /><glyph glyph-name="" unicode="[" d="M55 -200 l232 0 l0 77 l-104 0 l0 743 l104 0 l0 76 l-232 0 l0 -896 Z" /><glyph glyph-name="" unicode="]" d="M66 -200 l232 0 l0 896 l-232 0 l0 -76 l103 0 l0 -743 l-103 0 l0 -77 Z" /><glyph glyph-name="" unicode="(" d="M312 -237 l0 105 q-55 -6 -92 75 q-37 80 -38 286 q1 208 38 289 q37 82 92 76 l0 105 q-111 6 -184 -100 q-72 -107 -75 -370 q3 -262 75 -367 q73 -105 184 -99 l0 0 Z" /><glyph glyph-name="" unicode=")" d="M49 -237 q112 -6 184 99 q73 105 75 367 q-2 263 -75 370 q-72 106 -184 100 l0 -105 q55 6 92 -76 q37 -81 38 -289 q-1 -206 -38 -286 q-37 -81 -92 -75 l0 -105 Z" /><glyph glyph-name="" unicode="&#x2014;" d="M0 160 l800 0 l0 96 l-800 0 l0 -96 Z" /><glyph glyph-name="" unicode="&#x2013;" d="M71 160 l400 0 l0 96 l-400 0 l0 -96 Z" /><glyph glyph-name="" unicode="-" d="M71 160 l280 0 l0 96 l-280 0 l0 -96 Z" /><glyph glyph-name="" unicode="­" d="M71 160 l280 0 l0 96 l-280 0 l0 -96 Z" /><glyph glyph-name="" unicode="«" d="M208 76 l115 0 l-122 147 l122 147 l-115 0 l-122 -147 l122 -147 ZM414 76 l115 0 l-121 147 l121 147 l-115 0 l-122 -147 l122 -147 Z" /><glyph glyph-name="" unicode="»" d="M85 76 l115 0 l122 147 l-122 147 l-115 0 l122 -147 l-122 -147 ZM291 76 l116 0 l122 147 l-122 147 l-116 0 l122 -147 l-122 -147 Z" /><glyph glyph-name="" unicode="&#x2039;" d="M160 76 l115 0 l-122 147 l122 147 l-115 0 l-122 -147 l122 -147 Z" /><glyph glyph-name="" unicode="&#x203a;" d="M53 76 l115 0 l122 147 l-122 147 l-115 0 l122 -147 l-122 -147 Z" /><glyph glyph-name="" unicode="&#x201e;" d="M112 -156 l113 242 l-116 0 l-69 -242 l72 0 ZM303 -156 l113 242 l-116 0 l-69 -242 l72 0 Z" /><glyph glyph-name="" unicode="&#x201c;" d="M165 608 l-113 -242 l116 0 l69 242 l-72 0 ZM344 608 l-113 -242 l116 0 l69 242 l-72 0 Z" /><glyph glyph-name="" unicode="&#x201d;" d="M99 433 l113 242 l-116 0 l-69 -242 l72 0 ZM278 433 l113 242 l-116 0 l-69 -242 l72 0 Z" /><glyph glyph-name="" unicode="&#x2018;" d="M147 608 l-113 -242 l116 0 l69 242 l-72 0 Z" /><glyph glyph-name="" unicode="&#x2019;" d="M113 374 l113 242 l-116 0 l-69 -242 l72 0 Z" /><glyph glyph-name="" unicode="&#x201a;" d="M112 -156 l113 242 l-116 0 l-69 -242 l72 0 Z" /><glyph glyph-name="" unicode=" " d="" /><glyph glyph-name="" unicode="¢" d="M261 359 q19 0 39 -4 q21 -4 36 -15 l0 140 q-33 6 -66 8 l0 73 l-83 0 l0 -84 q-69 -21 -110 -74 q-42 -52 -43 -123 q1 -71 43 -123 q41 -53 110 -74 l0 -84 l83 0 l0 73 q33 2 66 8 l0 141 q-15 -12 -36 -16 q-20 -4 -39 -4 q-34 1 -56 23 q-22 22 -23 56 q1 34 23 56 q22 22 56 23 l0 0 Z" /><glyph glyph-name="" unicode="¤" d="M132 67 l45 45 q47 -25 100 -25 q53 0 100 25 l45 -45 l77 80 l-43 43 q26 47 26 101 q0 53 -26 100 l44 43 l-78 79 l-45 -45 q-47 26 -99 26 q-53 0 -100 -26 l-45 45 l-77 -80 l43 -43 q-26 -47 -26 -99 q0 -53 26 -100 l-43 -44 l76 -80 ZM210 223 q-27 28 -27 66 q0 38 28 68 q29 28 67 28 q38 0 67 -28 q28 -29 27 -67 q0 -38 -27 -67 q-29 -28 -67 -28 q-38 0 -68 28 l0 0 Z" /><glyph glyph-name="" unicode="$" d="M465 174 q-17 157 -136 182 q-119 25 -136 80 q1 19 13 29 q13 9 31 9 q23 0 47 -13 q24 -13 48 -39 l100 97 q-25 29 -57 49 q-32 20 -69 31 l0 63 l-128 0 l0 -62 q-57 -14 -97 -57 q-40 -43 -42 -118 q17 -144 137 -168 q119 -25 136 -81 q0 -18 -15 -29 q-15 -12 -44 -12 q-39 0 -69 20 q-30 19 -46 53 l-125 -78 q24 -44 66 -78 q42 -35 99 -51 l0 -63 l128 0 l0 59 q69 14 113 59 q45 46 46 118 l0 0 Z" /><glyph glyph-name="" unicode="&#x20ac;" d="M209 208 l178 0 l20 64 l-221 0 q-2 13 -2 28 q0 15 2 29 l238 0 l18 64 l-233 0 q24 40 64 63 q40 23 90 23 q24 0 49 -8 q26 -8 48 -22 l38 124 q-34 17 -69 26 q-34 9 -66 9 q-107 -2 -185 -60 q-79 -59 -109 -155 l-60 0 l0 -64 l47 0 q-1 -7 -1 -14 q0 -8 0 -15 q0 -7 0 -14 q0 -7 1 -14 l-47 0 l0 -64 l59 0 q31 -97 109 -156 q79 -58 186 -60 q28 0 60 8 q33 8 63 22 l0 148 q-24 -21 -58 -35 q-34 -14 -65 -14 q-50 1 -90 24 q-40 23 -64 63 l0 0 Z" /><glyph glyph-name="" unicode="&#x192;" d="M343 505 q11 0 22 -3 q10 -3 18 -9 l12 100 q-7 6 -25 10 q-18 5 -42 5 q-69 -1 -122 -44 q-53 -43 -66 -113 l-8 -51 l-67 0 l-17 -110 l67 0 l-78 -490 l132 0 l78 490 l105 0 l17 110 l-105 0 l5 31 q5 35 24 54 q19 20 50 20 l0 0 Z" /><glyph glyph-name="" unicode="£" d="M200 102 l0 141 l149 0 l0 93 l-149 0 l0 61 q0 47 26 74 q25 27 70 27 q41 -1 70 -31 q29 -29 26 -74 l107 46 q-14 74 -71 121 q-58 47 -132 48 q-92 -2 -148 -59 q-56 -58 -58 -152 l0 -61 l-64 0 l0 -93 l64 0 l0 -243 l414 0 l0 102 l-304 0 Z" /><glyph glyph-name="" unicode="¥" d="M560 600 l-135 0 l-130 -206 l-129 206 l-137 0 l187 -283 l-113 0 l0 -92 l128 0 l0 -49 l-128 0 l0 -84 l128 0 l0 -92 l129 0 l0 92 l127 0 l0 84 l-127 0 l0 49 l127 0 l0 92 l-114 0 l187 283 Z" /><glyph glyph-name="" unicode="&#x2248;" d="M325 248 q64 2 96 48 q32 46 35 118 l-99 0 q-3 -33 -13 -50 q-10 -17 -27 -17 q-13 1 -19 7 q-7 7 -11 12 q-24 33 -51 46 q-26 13 -57 12 q-70 -1 -106 -47 q-36 -46 -39 -124 l102 0 q1 30 11 49 q10 18 31 20 q2 1 9 -1 q6 -1 16 -10 q12 -14 42 -37 q29 -24 80 -26 l0 0 ZM325 62 q64 2 96 49 q32 47 35 118 l-99 0 q-3 -34 -13 -51 q-10 -17 -27 -17 q-13 1 -20 8 q-7 7 -10 12 q-27 32 -52 45 q-26 13 -56 12 q-68 -1 -105 -46 q-37 -46 -40 -125 l102 0 q1 30 11 48 q9 18 31 21 q9 0 14 -2 q5 -2 11 -8 q11 -14 41 -38 q30 -23 81 -26 l0 0 Z" /><glyph glyph-name="" unicode="~" d="M316 114 q65 2 101 48 q36 46 29 118 l-99 0 q2 -33 -11 -50 q-12 -18 -29 -18 q-12 0 -19 7 q-7 6 -11 13 q-20 29 -44 43 q-24 13 -61 13 q-75 -1 -112 -47 q-38 -46 -35 -122 l101 0 q0 25 10 46 q9 21 33 22 q3 0 9 -1 q6 -2 15 -10 q13 -13 42 -36 q30 -23 81 -26 l0 0 Z" /><glyph glyph-name="" unicode="÷" d="M285 320 q29 1 49 20 q20 19 21 50 q-1 28 -21 48 q-20 20 -49 21 q-29 -1 -48 -21 q-20 -20 -21 -48 q1 -31 21 -50 q19 -19 48 -20 l0 0 ZM45 184 l480 0 l0 72 l-480 0 l0 -72 ZM285 -19 q29 1 49 20 q20 19 21 49 q-1 29 -21 49 q-20 20 -49 21 q-29 -1 -48 -21 q-20 -20 -21 -49 q1 -30 21 -49 q19 -19 48 -20 l0 0 Z" /><glyph glyph-name="" unicode="&#x2205;" d="M511 382 l35 35 l-37 38 l-35 -35 q-31 24 -69 38 q-39 14 -81 14 q-102 -3 -169 -70 q-67 -67 -70 -169 q0 -43 14 -81 q14 -38 39 -68 l-36 -36 l38 -37 l35 35 q31 -25 69 -38 q38 -14 80 -14 q102 3 170 70 q67 67 70 169 q0 42 -14 80 q-14 38 -39 69 l0 0 ZM201 233 q1 52 36 87 q35 35 87 36 q19 0 36 -5 q17 -5 31 -14 l-171 -171 q-9 14 -14 31 q-5 17 -5 36 l0 0 ZM324 110 q-18 0 -35 5 q-17 5 -31 14 l170 170 q20 -28 20 -66 q-1 -53 -36 -87 q-35 -35 -88 -36 l0 0 Z" /><glyph glyph-name="" unicode="=" d="M45 248 l480 0 l0 91 l-480 0 l0 -91 ZM45 85 l480 0 l0 91 l-480 0 l0 -91 Z" /><glyph glyph-name="" unicode="&gt;" d="M69 596 l0 -120 l330 -167 l-330 -167 l0 -121 l442 223 l0 131 l-442 221 Z" /><glyph glyph-name="" unicode="&#x2265;" d="M93 609 l0 -120 l317 -129 l-317 -129 l0 -121 l442 185 l0 131 l-442 183 ZM93 0 l442 0 l0 82 l-442 0 l0 -82 Z" /><glyph glyph-name="" unicode="&#x221e;" d="M179 93 q36 0 73 19 q38 19 74 54 q36 -35 73 -54 q38 -19 73 -19 q62 0 97 37 q34 36 36 103 q-2 67 -36 103 q-35 36 -97 36 q-35 0 -73 -18 q-37 -19 -73 -54 q-36 35 -74 53 q-37 19 -73 19 q-59 -1 -95 -38 q-36 -38 -39 -101 q3 -63 39 -101 q36 -38 95 -39 l0 0 ZM179 185 q-18 0 -30 13 q-12 13 -13 35 q1 22 13 34 q12 13 30 13 q17 0 39 -12 q22 -12 46 -35 q-24 -23 -46 -36 q-22 -12 -39 -12 l0 0 ZM472 185 q-17 0 -39 12 q-22 13 -47 36 q25 23 47 35 q22 12 39 12 q18 0 30 -12 q12 -12 12 -35 q0 -24 -12 -36 q-12 -12 -30 -12 l0 0 Z" /><glyph glyph-name="" unicode="&#x222b;" d="M95 -151 q36 1 63 24 q26 23 32 59 l91 578 q2 10 11 10 q10 0 8 -8 q-1 -8 -5 -31 l68 0 q19 47 1 79 q-18 32 -60 33 q-36 -1 -63 -24 q-26 -24 -33 -59 l-91 -578 q-1 -5 -3 -8 q-2 -3 -6 -3 q-10 0 -9 8 q0 8 4 31 l-68 0 q-18 -47 0 -78 q17 -32 60 -33 l0 0 Z" /><glyph glyph-name="" unicode="&lt;" d="M511 596 l-442 -221 l0 -131 l442 -223 l0 121 l-330 167 l330 167 l0 120 Z" /><glyph glyph-name="" unicode="&#x2264;" d="M535 609 l-442 -183 l0 -131 l442 -185 l0 121 l-317 129 l317 129 l0 120 ZM93 0 l442 0 l0 82 l-442 0 l0 -82 Z" /><glyph glyph-name="" unicode="¬" d="M504 71 l90 0 l0 296 l-525 0 l0 -91 l435 0 l0 -205 Z" /><glyph glyph-name="" unicode="µ" d="M333 400 l0 -230 q-1 -30 -22 -49 q-22 -19 -56 -20 q-30 1 -49 20 q-19 19 -20 49 l0 230 l-125 0 l0 -600 l91 0 l0 207 q30 -15 66 -15 q34 0 64 14 q29 13 51 37 l0 -43 l124 0 l0 400 l-124 0 Z" /><glyph glyph-name="" unicode="&#x2212;" d="M45 208 l485 0 l0 93 l-485 0 l0 -93 Z" /><glyph glyph-name="" unicode="×" d="M538 385 l-78 77 l-137 -137 l-137 137 l-77 -77 l137 -137 l-137 -137 l77 -77 l137 137 l137 -137 l78 77 l-137 137 l137 137 Z" /><glyph glyph-name="" unicode="&#x2260;" d="M525 248 l0 91 l-90 0 l60 70 l-78 0 l-60 -70 l-312 0 l0 -91 l234 0 l-61 -72 l-173 0 l0 -91 l95 0 l-65 -76 l77 0 l65 76 l308 0 l0 91 l-230 0 l62 72 l168 0 Z" /><glyph glyph-name="" unicode="&#x2202;" d="M133 572 l0 -101 q52 31 96 12 q43 -20 68 -78 q-74 13 -138 -27 q-65 -39 -100 -129 q-40 -111 7 -180 q46 -69 159 -71 q98 3 161 76 q62 74 65 188 q-2 165 -92 253 q-90 88 -226 57 l0 0 ZM322 262 q-2 -71 -30 -120 q-28 -50 -67 -52 q-36 2 -50 40 q-13 37 4 87 q25 65 61 88 q37 22 81 0 q1 -21 1 -43 l0 0 Z" /><glyph glyph-name="" unicode="%" d="M179 298 q59 2 98 45 q39 44 40 110 q-1 66 -40 110 q-39 43 -98 45 q-59 -2 -98 -45 q-40 -44 -41 -110 q1 -66 41 -110 q39 -43 98 -45 l0 0 ZM84 0 l152 0 l399 600 l-152 0 l-399 -600 ZM179 408 q-12 0 -20 13 q-9 12 -9 32 q0 20 9 32 q8 13 20 13 q10 0 19 -13 q8 -12 9 -32 q-1 -20 -9 -32 q-9 -13 -19 -13 l0 0 ZM542 -8 q59 2 98 45 q39 44 40 110 q-1 66 -40 110 q-39 43 -98 45 q-59 -2 -98 -45 q-40 -44 -41 -110 q1 -66 41 -110 q39 -43 98 -45 l0 0 ZM542 102 q-12 0 -20 13 q-8 12 -8 32 q0 20 8 32 q8 13 20 13 q10 0 19 -13 q8 -12 9 -32 q-1 -20 -9 -32 q-9 -13 -19 -13 l0 0 Z" /><glyph glyph-name="" unicode="&#x2030;" d="M179 298 q59 2 98 45 q39 44 40 110 q-1 66 -40 110 q-39 43 -98 45 q-59 -2 -98 -45 q-40 -44 -41 -110 q1 -66 41 -110 q39 -43 98 -45 l0 0 ZM84 0 l152 0 l399 600 l-152 0 l-399 -600 ZM179 408 q-12 0 -20 13 q-9 12 -9 32 q0 20 9 32 q8 13 20 13 q10 0 19 -13 q8 -12 9 -32 q-1 -20 -9 -32 q-9 -13 -19 -13 l0 0 ZM542 -8 q59 2 98 45 q39 44 40 110 q-1 66 -40 110 q-39 43 -98 45 q-59 -2 -98 -45 q-40 -44 -41 -110 q1 -66 41 -110 q39 -43 98 -45 l0 0 ZM858 -8 q59 2 98 45 q40 44 41 110 q-1 66 -41 110 q-39 43 -98 45 q-59 -2 -98 -45 q-39 -44 -40 -110 q1 -66 40 -110 q39 -43 98 -45 l0 0 ZM542 102 q-12 0 -20 13 q-8 12 -8 32 q0 20 8 32 q8 13 20 13 q10 0 19 -13 q8 -12 9 -32 q-1 -20 -9 -32 q-9 -13 -19 -13 l0 0 ZM858 102 q-11 0 -19 13 q-9 12 -9 32 q0 20 9 32 q8 13 19 13 q11 0 19 -13 q9 -12 9 -32 q0 -20 -9 -32 q-8 -13 -19 -13 l0 0 Z" /><glyph glyph-name="" unicode="+" d="M262 0 l110 0 l0 193 l193 0 l0 110 l-193 0 l0 193 l-110 0 l0 -193 l-193 0 l0 -110 l193 0 l0 -193 Z" /><glyph glyph-name="" unicode="±" d="M364 377 l0 144 l-91 0 l0 -144 l-236 0 l0 -92 l236 0 l0 -144 l91 0 l0 144 l236 0 l0 92 l-236 0 ZM37 0 l563 0 l0 82 l-563 0 l0 -82 Z" /><glyph glyph-name="" unicode="&#x220f;" d="M595 562 l-558 0 l0 -101 l47 0 l0 -557 l102 0 l0 557 l262 0 l0 -557 l100 0 l0 557 l47 0 l0 101 Z" /><glyph glyph-name="" unicode="&#x221a;" d="M197 -62 l85 0 l309 645 l-84 35 l-259 -541 l-70 212 l-125 0 l0 -92 l60 0 l84 -259 Z" /><glyph glyph-name="" unicode="&#x2211;" d="M69 -94 l478 -1 l0 110 l-295 0 l232 219 l-232 218 l295 0 l0 110 l-478 0 l0 -91 l259 -237 l-259 -238 l0 -90 Z" /><glyph glyph-name="" unicode="&#x25ca;" d="M311 42 l241 241 l-241 241 l-242 -242 l242 -240 ZM311 202 l-82 80 l82 82 l80 -81 l-80 -81 Z" /><glyph glyph-name="" unicode="&#xf8ff;" d="M373 0 q129 3 215 89 q86 86 89 215 q-3 129 -89 215 q-86 86 -215 89 q-129 -3 -215 -89 q-86 -86 -89 -215 q3 -129 89 -215 q86 -86 215 -89 l0 0 ZM373 29 q-116 3 -194 81 q-78 78 -81 194 q3 117 81 195 q78 77 194 80 q117 -3 195 -80 q77 -78 80 -195 q-3 -116 -80 -194 q-78 -78 -195 -81 l0 0 ZM532 174 q6 0 11 4 q4 5 4 11 q0 5 -4 9 l-106 106 l106 106 q4 4 4 10 q0 6 -4 10 q-5 5 -10 5 q-6 0 -10 -5 l-116 -116 q-4 -4 -4 -10 q0 -5 4 -10 l116 -116 q2 -2 4 -3 q3 -1 5 -1 l0 0 ZM214 174 q6 0 10 4 q4 4 4 10 l0 232 q0 6 -4 10 q-4 4 -10 4 q-6 0 -10 -4 q-4 -4 -4 -10 l0 -232 q0 -6 4 -10 q4 -4 10 -4 l0 0 ZM373 174 q6 0 11 4 q4 4 4 10 l0 232 q0 6 -4 10 q-5 4 -11 4 q-6 0 -10 -4 q-4 -4 -4 -10 l0 -232 q0 -6 4 -10 q4 -4 10 -4 l0 0 ZM257 290 l73 0 q6 0 10 4 q4 4 4 10 q0 6 -4 10 q-4 4 -10 4 l-73 0 q-6 0 -10 -4 q-4 -4 -4 -10 q0 -6 4 -10 q4 -4 10 -4 l0 0 Z" /><glyph glyph-name="" unicode="|" d="M88 -120 l90 0 l0 720 l-90 0 l0 -720 Z" /><glyph glyph-name="" unicode="¦" d="M88 312 l90 0 l0 288 l-90 0 l0 -288 ZM88 -120 l90 0 l0 288 l-90 0 l0 -288 Z" /><glyph glyph-name="" unicode="@" d="M437 119 l0 174 q-2 63 -50 104 q-49 41 -124 42 q-93 -2 -154 -64 q-62 -61 -64 -154 q2 -95 66 -157 q64 -62 162 -64 l164 0 l0 83 l-164 0 q-61 1 -102 40 q-40 38 -42 98 q1 58 39 96 q38 38 95 39 q40 -1 65 -18 q25 -18 26 -45 l0 -5 q-14 11 -32 17 q-17 6 -35 6 q-40 -1 -67 -29 q-28 -28 -29 -71 q1 -44 29 -72 q27 -28 68 -29 q16 0 34 6 q17 5 32 15 l0 -12 l83 0 ZM325 178 q-16 0 -26 9 q-11 9 -11 24 q0 14 11 23 q10 9 26 9 q9 0 16 -3 q8 -4 13 -9 l0 -40 q-5 -6 -13 -9 q-7 -4 -16 -4 l0 0 Z" /><glyph glyph-name="" unicode="&amp;" d="M575 353 l-68 0 l0 81 l-148 0 l0 -81 l-69 0 q-31 1 -51 20 q-21 18 -22 46 q1 23 16 37 q14 14 33 15 l93 0 l0 128 l-122 0 q-74 4 -120 -45 q-47 -49 -48 -124 q0 -40 15 -74 q15 -34 41 -60 q-25 -23 -39 -54 q-14 -31 -14 -66 q2 -79 63 -127 q60 -49 153 -50 q98 2 158 56 q59 54 61 141 l0 37 l68 0 l0 120 ZM286 128 q-30 0 -52 13 q-22 14 -23 37 q1 21 18 38 q18 16 44 17 l86 0 l0 -37 q0 -30 -19 -49 q-19 -18 -54 -19 l0 0 Z" /><glyph glyph-name="" unicode="¶" d="M227 -120 l73 0 l0 720 l-80 0 q-67 0 -104 -34 q-38 -34 -39 -100 q1 -65 39 -100 q37 -34 104 -34 l7 0 l0 -452 ZM374 -120 l73 0 l0 720 l-73 0 l0 -720 Z" /><glyph glyph-name="" unicode="©" d="M342 -8 q130 3 217 90 q88 87 91 218 q-3 131 -91 218 q-87 87 -217 90 q-131 -3 -218 -90 q-87 -87 -90 -218 q3 -131 90 -218 q87 -87 218 -90 l0 0 ZM342 68 q-100 2 -165 67 q-65 65 -67 165 q2 100 67 165 q65 65 165 67 q100 -2 164 -67 q65 -65 67 -165 q-2 -100 -67 -165 q-64 -65 -164 -67 l0 0 ZM340 166 q60 1 96 32 q36 31 42 83 l-92 0 q-5 -14 -17 -23 q-12 -8 -29 -9 q-22 1 -35 15 q-14 14 -14 36 q0 22 14 36 q13 14 35 15 q17 -1 29 -9 q12 -9 17 -23 l92 0 q-6 52 -42 83 q-36 31 -96 32 q-65 -1 -102 -38 q-36 -36 -37 -96 q1 -60 37 -96 q37 -37 102 -38 l0 0 Z" /><glyph glyph-name="" unicode="®" d="M342 608 q-131 -3 -218 -90 q-87 -87 -90 -218 q3 -131 90 -218 q87 -87 218 -90 q130 3 217 90 q88 87 91 218 q-3 131 -91 218 q-87 87 -217 90 l0 0 ZM342 68 q-100 2 -165 67 q-65 65 -67 165 q2 100 67 165 q65 65 165 67 q100 -2 164 -67 q65 -65 67 -165 q-2 -100 -67 -165 q-64 -65 -164 -67 l0 0 ZM459 358 q-1 41 -29 67 q-27 27 -68 28 l-107 0 l0 -306 l69 0 l0 115 l15 0 l65 -115 l79 0 l-71 129 q21 13 34 34 q13 22 13 48 l0 0 ZM388 358 q0 -12 -8 -19 q-7 -8 -18 -8 l-38 0 l0 53 l38 0 q11 0 19 -8 q7 -7 7 -18 l0 0 Z" /><glyph glyph-name="" unicode="§" d="M459 219 q14 16 22 34 q8 19 8 39 q-19 115 -154 129 q-135 14 -154 57 q1 17 27 27 q26 10 64 10 q32 0 59 -8 q28 -8 47 -24 l72 60 q-32 30 -81 47 q-50 18 -104 18 q-74 0 -131 -35 q-57 -35 -60 -101 q0 -23 8 -41 q8 -17 22 -30 q-16 -16 -23 -35 q-7 -19 -7 -40 q19 -110 154 -125 q135 -14 154 -56 q-1 -20 -31 -32 q-29 -11 -73 -11 q-51 1 -87 16 q-37 16 -52 40 l-89 -56 q29 -44 89 -72 q60 -27 133 -28 q90 2 152 41 q62 40 65 100 q0 25 -8 43 q-8 19 -22 33 l0 0 ZM181 330 q0 8 4 14 q4 7 12 12 q68 -15 125 -26 q57 -10 60 -38 q0 -13 -16 -27 q-68 16 -125 27 q-56 10 -60 38 l0 0 Z" /><glyph glyph-name="" unicode="&#x2122;" d="M29 541 l69 0 l0 -220 l67 0 l0 220 l70 0 l0 59 l-206 0 l0 -59 ZM538 600 l-86 -127 l-84 127 l-74 0 l0 -279 l68 0 l0 173 l90 -133 l91 133 l0 -173 l67 0 l0 279 l-72 0 Z" /><glyph glyph-name="" unicode="°" d="M192 394 q46 1 77 31 q30 30 31 76 q-1 46 -31 76 q-31 30 -77 31 q-46 -1 -76 -31 q-30 -30 -31 -76 q1 -46 31 -76 q30 -30 76 -31 l0 0 ZM192 462 q-17 0 -28 11 q-11 10 -11 28 q0 17 11 28 q11 11 28 11 q18 0 29 -11 q11 -11 11 -28 q0 -18 -11 -28 q-11 -11 -29 -11 l0 0 Z" /><glyph glyph-name="" unicode="&#x212e;" d="M370 -7 q83 1 154 33 q70 31 116 86 l-48 0 q-41 -47 -97 -74 q-57 -27 -124 -28 q-62 1 -115 25 q-54 24 -95 66 q-3 4 -5 9 q-2 5 -2 10 l0 168 q0 3 5 3 l553 0 l0 8 q-4 132 -100 219 q-96 87 -242 90 q-145 -3 -242 -90 q-96 -87 -100 -219 q4 -130 100 -216 q97 -87 242 -90 l0 0 ZM159 308 q-2 0 -4 2 q-1 2 -1 4 l0 164 q0 6 2 12 q2 5 6 9 q41 42 94 66 q54 24 115 25 q61 -1 114 -24 q53 -24 94 -64 q4 -4 6 -9 q2 -6 2 -11 l0 -168 q0 -2 -1 -4 q0 -2 -2 -2 l-425 0 Z" /><glyph glyph-name="" unicode="&#x2113;" d="M273 -6 q57 -1 112 28 q55 29 96 100 l-56 58 q-21 -31 -52 -54 q-31 -23 -67 -24 q-32 0 -52 20 q-21 19 -23 54 l-1 29 q88 74 136 145 q48 71 49 148 q0 65 -34 110 q-34 44 -107 46 q-78 1 -126 -55 q-49 -56 -50 -175 l0 -197 q-18 -14 -38 -28 q-19 -14 -39 -29 l35 -68 q12 8 22 15 q11 8 22 15 q1 -3 1 -7 q12 -58 53 -94 q41 -36 119 -37 l0 0 ZM230 321 l0 119 q1 71 16 98 q15 27 35 26 q23 0 34 -17 q10 -17 10 -47 q-1 -40 -26 -86 q-26 -47 -69 -93 l0 0 Z" /><glyph glyph-name="" unicode="^" d="M597 158 l-223 442 l-130 0 l-223 -442 l122 0 l166 330 l166 -330 l122 0 Z" /><glyph glyph-name="" unicode="&#x2020;" d="M446 407 l-128 0 l0 129 l-92 0 l0 -129 l-125 0 l0 -91 l125 0 l0 -452 l92 0 l0 452 l128 0 l0 91 Z" /><glyph glyph-name="" unicode="&#x2021;" d="M446 316 l0 91 l-128 0 l0 129 l-92 0 l0 -129 l-125 0 l0 -91 l125 0 l0 -224 l-125 0 l0 -91 l125 0 l0 -137 l92 0 l0 137 l128 0 l0 91 l-128 0 l0 224 l128 0 Z" /><glyph glyph-name="" unicode="&#x308;" d="M-286 469 q27 1 46 19 q18 19 19 46 q-1 28 -19 46 q-19 18 -46 19 q-28 -1 -46 -19 q-19 -18 -20 -46 q1 -27 20 -46 q18 -18 46 -19 l0 0 ZM-112 469 q28 1 47 19 q18 19 19 46 q-1 28 -19 46 q-19 18 -47 19 q-27 -1 -46 -19 q-18 -18 -19 -46 q1 -27 19 -46 q19 -18 46 -19 l0 0 Z" /><glyph glyph-name="" unicode="&#x307;" d="M-148 449 q33 1 56 23 q22 23 23 56 q-1 33 -23 55 q-23 22 -56 23 q-33 -1 -56 -23 q-22 -22 -23 -55 q1 -33 23 -56 q23 -22 56 -23 l0 0 Z" /><glyph glyph-name="" unicode="&#x300;" d="M-20 450 l-88 150 l-135 0 l126 -150 l97 0 Z" /><glyph glyph-name="" unicode="&#x301;" d="M-217 450 l97 0 l126 150 l-135 0 l-88 -150 Z" /><glyph glyph-name="" unicode="&#x30b;" d="M-383 450 l96 0 l125 150 l-134 0 l-87 -150 ZM-211 450 l96 0 l125 150 l-134 0 l-87 -150 Z" /><glyph glyph-name="" unicode="&#x302;" d="M-242 450 l55 70 l56 -70 l90 0 l-106 150 l-80 0 l-105 -150 l90 0 Z" /><glyph glyph-name="" unicode="&#x30c;" d="M-239 450 l80 0 l106 150 l-90 0 l-56 -69 l-55 69 l-90 0 l105 -150 Z" /><glyph glyph-name="" unicode="&#x306;" d="M-286 441 q69 0 109 36 q41 36 42 111 l-83 0 q0 -25 -17 -44 q-18 -20 -51 -21 q-32 1 -50 21 q-18 19 -18 44 l-82 0 q1 -75 42 -111 q40 -36 108 -36 l0 0 Z" /><glyph glyph-name="" unicode="&#x30a;" d="M-89 430 q43 1 72 30 q28 29 29 73 q-1 42 -29 70 q-29 29 -72 30 q-43 -1 -72 -30 q-29 -28 -30 -70 q1 -44 30 -73 q29 -29 72 -30 l0 0 ZM-89 488 q-19 0 -31 12 q-12 12 -12 33 q0 18 12 31 q12 12 31 13 q19 -1 31 -13 q13 -13 13 -31 q0 -21 -13 -33 q-12 -12 -31 -12 l0 0 Z" /><glyph glyph-name="" unicode="&#x303;" d="M-112 467 q50 1 75 38 q25 37 25 95 l-84 0 q0 -23 -3 -37 q-4 -14 -15 -14 q-4 0 -7 2 q-3 3 -6 7 q-13 21 -34 35 q-22 13 -51 14 q-47 -1 -73 -37 q-26 -37 -26 -97 l84 0 q0 23 4 37 q4 15 14 15 q4 0 7 -2 q2 -3 6 -8 q19 -26 39 -37 q21 -11 45 -11 l0 0 Z" /><glyph glyph-name="" unicode="&#x304;" d="M-270 458 l250 0 l0 92 l-250 0 l0 -92 Z" /><glyph glyph-name="" unicode="&#x312;" d="M-57 627 l-108 -155 l120 0 l54 155 l-66 0 Z" /><glyph glyph-name="" unicode="&#x323;" d="M-100 -200 q33 1 56 23 q22 23 23 55 q-1 34 -23 57 q-23 22 -56 23 q-33 -1 -56 -23 q-22 -23 -23 -57 q1 -32 23 -55 q23 -22 56 -23 l0 0 Z" /><glyph glyph-name="" unicode="&#x326;" d="M-135 -73 l108 155 l-120 0 l-54 -155 l66 0 Z" /><glyph glyph-name="" unicode="&#x327;" d="M-112 -208 q38 1 64 26 q25 26 26 65 q-1 37 -26 58 q-25 20 -63 15 l28 44 l-67 0 l-42 -75 l49 -28 q25 13 41 9 q15 -4 16 -23 q0 -12 -8 -19 q-7 -8 -18 -8 q-10 0 -19 6 q-9 6 -14 15 l-62 -20 q8 -28 35 -46 q27 -18 60 -19 l0 0 Z" /><glyph glyph-name="" unicode="&#x328;" d="M-112 -206 q35 -3 71 11 q35 13 61 40 l-46 64 q-10 -21 -26 -33 q-17 -13 -36 -13 q-19 0 -30 12 q-11 13 -11 38 q1 30 28 49 q27 18 75 38 l-66 20 q-51 -14 -87 -42 q-37 -29 -39 -78 q0 -42 27 -71 q26 -30 79 -35 l0 0 Z" /><glyph glyph-name="" unicode="&#x335;" d="M-428 162 l294 0 l0 70 l-294 0 l0 -70 Z" /><glyph glyph-name="" unicode="&#x336;" d="M-630 181 l608 0 l0 54 l-608 0 l0 -54 Z" /><glyph glyph-name="" unicode="&#x337;" d="M-438 83 l52 -46 l275 287 l-53 45 l-274 -286 Z" /><glyph glyph-name="" unicode="&#x338;" d="M-535 0 l89 -52 l453 652 l-88 52 l-454 -652 Z" /><glyph glyph-name="" unicode="´" d="M37 450 l97 0 l126 150 l-135 0 l-88 -150 Z" /><glyph glyph-name="" unicode="&#x2d8;" d="M246 441 q69 0 109 36 q41 36 42 111 l-83 0 q0 -25 -17 -44 q-18 -20 -51 -21 q-32 1 -50 21 q-18 19 -18 44 l-82 0 q1 -75 42 -111 q40 -36 108 -36 l0 0 Z" /><glyph glyph-name="" unicode="&#x2c7;" d="M147 450 l80 0 l106 150 l-90 0 l-56 -69 l-55 69 l-90 0 l105 -150 Z" /><glyph glyph-name="" unicode="¸" d="M116 -208 q38 1 64 26 q25 26 26 65 q-1 37 -26 58 q-25 20 -63 15 l28 44 l-67 0 l-42 -75 l49 -28 q25 13 41 9 q15 -4 16 -23 q0 -12 -8 -19 q-7 -8 -18 -8 q-10 0 -19 6 q-9 6 -14 15 l-62 -20 q8 -28 35 -46 q27 -18 60 -19 l0 0 Z" /><glyph glyph-name="" unicode="&#x2c6;" d="M132 450 l55 70 l56 -70 l90 0 l-106 150 l-80 0 l-105 -150 l90 0 Z" /><glyph glyph-name="" unicode="¨" d="M113 469 q27 1 46 19 q18 19 19 46 q-1 28 -19 46 q-19 18 -46 19 q-28 -1 -46 -19 q-19 -18 -20 -46 q1 -27 20 -46 q18 -18 46 -19 l0 0 ZM287 469 q28 1 47 19 q18 19 19 46 q-1 28 -19 46 q-19 18 -47 19 q-27 -1 -46 -19 q-18 -18 -19 -46 q1 -27 19 -46 q19 -18 46 -19 l0 0 Z" /><glyph glyph-name="" unicode="&#x2d9;" d="M148 449 q33 1 56 23 q22 23 23 56 q-1 33 -23 55 q-23 22 -56 23 q-33 -1 -56 -23 q-22 -22 -23 -55 q1 -33 23 -56 q23 -22 56 -23 l0 0 Z" /><glyph glyph-name="" unicode="`" d="M234 450 l-88 150 l-135 0 l126 -150 l97 0 Z" /><glyph glyph-name="" unicode="&#x2dd;" d="M37 450 l97 0 l126 150 l-135 0 l-88 -150 Z" /><glyph glyph-name="" unicode="¯" d="M20 458 l250 0 l0 92 l-250 0 l0 -92 Z" /><glyph glyph-name="" unicode="&#x2db;" d="M172 -206 q35 -3 71 11 q35 13 61 40 l-46 64 q-10 -21 -26 -33 q-17 -13 -36 -13 q-19 0 -30 12 q-11 13 -11 38 q1 30 28 49 q27 18 75 38 l-66 20 q-51 -14 -87 -42 q-37 -29 -39 -78 q0 -42 27 -71 q26 -30 79 -35 l0 0 Z" /><glyph glyph-name="" unicode="&#x2da;" d="M90 430 q43 1 72 30 q28 29 29 73 q-1 42 -29 70 q-29 29 -72 30 q-43 -1 -72 -30 q-29 -28 -30 -70 q1 -44 30 -73 q29 -29 72 -30 l0 0 ZM90 488 q-19 0 -31 12 q-12 12 -12 33 q0 18 12 31 q12 12 31 13 q19 -1 31 -13 q13 -13 13 -31 q0 -21 -13 -33 q-12 -12 -31 -12 l0 0 Z" /><glyph glyph-name="" unicode="&#x2dc;" d="M208 467 q50 1 75 38 q25 37 25 95 l-84 0 q0 -23 -3 -37 q-4 -14 -15 -14 q-4 0 -7 2 q-3 3 -6 7 q-13 21 -34 35 q-22 13 -51 14 q-47 -1 -73 -37 q-26 -37 -26 -97 l84 0 q0 23 4 37 q4 15 14 15 q4 0 7 -2 q2 -3 6 -8 q19 -26 39 -37 q21 -11 45 -11 l0 0 Z" /></font>
</defs>
</svg>
